#TITLE:Weave Detonator;
#SUBTITLE:;
#ARTIST:MEGA & Tatsh;
#TITLETRANSLIT:;
#SUBTITLETRANSLIT:;
#ARTISTTRANSLIT:;
#GENRE:;
#CREDIT:AznPunk07/Frozen_Heat/Guardian_Frozen;
#MENUCOLOR:Yellow;
#METERTYPE:DDR;
#BANNER:Weave Detonator-bn.png;
#BACKGROUND:Weave Detonator-bg.png;
#LYRICSPATH:;
#CDTITLE:!cdtitle.png;
#MUSIC:Weave Detonator.mp3;
#OFFSET:-2.863;
#SAMPLESTART:37.200;
#SAMPLELENGTH:20.000;
#SELECTABLE:YES;
#LISTSORT:;
#BPMS:0.000=90.000,4.000=180.000,32.000=720.003,36.000=180.000,202.000=90.000,218.000=180.000;
#STOPS:28.000=0.250
,28.250=0.250
,28.500=0.250
,28.750=0.250
,196.000=0.165
,197.000=0.165
,198.000=0.165
,199.000=0.165
;
#BGCHANGES:;
#ATTACKS:;

//---------------dance-single - ----------------
#NOTES:
     dance-single:
     :
     Hard:
     9:
     0.699,0.742,0.353,0.374,0.265:
0000
0000
0000
0000
,
1100
1010
1001
0011
,
0001
0100
1000
0000
0001
0100
0010
0000
,
0101
0011
1001
1010
,
1000
0100
0001
0000
1000
0100
0010
0000
,
0011
0101
1001
0101
,
0010
1000
0100
0000
0100
1000
0001
0000
,
1010
1100
1001
1100
0101
0000
0000
0000
0011
0000
0000
0000
0001
0000
1000
0000
,
0200
0000
0000
0000
,
1300
0000
0001
0100
1000
0100
0001
0100
,
0010
0100
1000
0100
0001
0001
0001
0000
,
0110
0000
1000
0100
0001
0100
1000
0100
,
0010
0100
0001
0100
1000
1000
1000
0000
,
0001
0000
0001
0100
1000
0000
1100
0000
,
0101
0000
0011
0000
0001
0010
0100
1000
,
0000
1000
0100
1000
0001
0000
0101
0000
,
1100
0000
1010
0000
1000
0010
0100
0001
,
0010
0010
0000
0001
0000
0001
0000
1000
,
0010
1010
0001
0011
,
0001
0100
0000
1000
0000
1100
0000
0100
,
0001
0000
1001
0000
0010
0010
0010
0000
,
0100
0100
0000
1000
0000
1000
0000
0001
,
0100
0101
1000
1100
,
1000
0010
0000
0001
0000
0011
0000
0010
,
1000
0000
1001
0000
0100
0100
0100
0000
,
0002
0000
0103
0010
2000
0000
3100
0010
,
0002
0000
0103
0010
2001
0000
3100
0000
,
0002
0000
0013
0100
2000
0000
3010
0100
,
0002
0000
0013
0100
2001
0000
3010
0000
,
0002
0000
0103
0010
0002
0000
1003
0100
,
0002
0000
0013
1000
0002
0000
0103
0000
,
2000
0000
3010
0001
2000
0000
3100
0010
,
2000
0000
3001
0100
2000
0000
3100
0000
,
0002
0000
0103
0010
2000
0100
3000
0010
,
0002
0100
0003
0010
2001
0000
3100
0000
,
0002
0000
0013
0100
2000
0010
3000
0100
,
0002
0010
0003
0100
2001
0000
3010
0000
,
0002
0000
0103
0010
0002
1000
0003
0100
,
0002
0010
0003
1000
0002
0000
0103
0000
,
2000
0000
3010
0001
2000
0100
3000
0010
,
2000
0001
3000
0100
2000
0000
3100
0000
,
0001
0010
0100
1000
0001
0001
0001
0001
,
0001
0010
0100
1000
0001
0001
0001
0000
,
1000
0010
0100
0001
1000
1000
1000
1000
,
1000
0010
0100
0001
1000
1000
1000
0000
,
0001
0100
1000
0100
0010
0010
0010
0010
,
1000
0100
0001
0100
0010
0010
0010
0000
,
0001
0010
1000
0010
0100
0100
0100
0100
,
1000
0010
0001
0010
0100
0100
0100
0000
,
1001
0110
1001
0110
,
2002
0000
0000
0000
3003
0000
0000
0000
0001
0000
0001
0010
0100
0000
1000
0010
,
0100
0000
0001
0010
0100
1000
0100
1000
0002
0000
0000
0000
2003
0000
0000
0000
,
3002
0000
0000
0000
2003
0000
0000
0000
3000
0000
1000
0100
0010
0000
0001
0100
,
0010
0000
1000
0100
0010
0001
0010
0001
2000
0000
0000
0000
3002
0000
0000
0000
,
2003
3002
0103
1010
,
0100
0011
0100
1010
,
0100
0010
0001
0100
0002
0000
1003
0000
,
0002
0103
0002
0013
,
0002
1003
0010
0101
,
0010
1100
0010
0101
,
0010
0100
1000
0010
2000
0000
3001
0000
,
2000
3010
2000
3100
,
2000
0000
3001
0000
0001
0100
1000
0100
,
0001
0010
0000
0000
0010
0000
0000
0000
0001
0000
0100
0000
1000
0000
0100
0000
,
0001
0010
0000
0000
0100
0000
1000
0000
0010
0000
0000
0010
0000
0000
0010
0000
,
1000
0000
0000
1000
0000
0000
1000
0000
0001
0000
0000
0001
0000
0000
0001
0000
,
0010
0100
0010
0000
0110
0000
0000
0000
1000
0000
0010
0000
0001
0000
0010
0000
,
1000
0100
0000
0000
0100
0000
0000
0000
1000
0000
0010
0000
0001
0000
0010
0000
,
1000
0100
0000
0000
0010
0000
0001
0000
0100
0000
0000
0100
0000
0000
0100
0000
,
0001
0000
0000
0001
0000
0000
0001
0000
1000
0000
0000
1000
0000
0000
1000
0000
,
0100
0000
0000
0100
0000
0000
0100
0000
0010
0000
0001
0000
0100
0000
0001
0000
,
1000
0001
1000
0001
0010
0001
0100
0001
,
1000
0000
0001
0000
1000
0000
0001
0000
0010
0000
0000
0100
0000
0000
1000
0000
,
0010
0000
0000
0100
0000
0000
0001
0000
0010
0000
0000
0100
0000
0000
1000
0000
,
0010
0000
0000
0100
0000
0000
0001
0000
1000
0000
0100
0000
1000
0000
0010
0000
,
1000
0001
1000
0001
1000
0100
1000
0010
,
1000
0000
0001
0000
1000
0000
0001
0000
1000
0000
0000
0100
0000
0000
0010
0000
,
0001
0000
0000
0100
0000
0000
0010
0000
1000
0000
0000
0100
0000
0000
0010
0000
,
0001
0000
0000
0100
0000
0000
0010
0000
1000
0000
0000
1000
0100
0000
0000
0100
,
0010
0000
0000
0010
0001
0000
0000
0001
0100
0000
0000
0100
0001
0000
0000
0001
,
1000
0000
0000
1000
0100
0000
0010
0000
0001
0000
0000
0001
0100
0000
0000
0001
,
1000
0000
0000
0001
0010
0000
0000
0010
0100
0000
0000
0010
0001
0000
0000
0010
,
0100
0000
0010
0000
0001
0000
1000
0000
0001
0000
0000
0001
0010
0000
0000
0010
,
0100
0000
0000
0100
1000
0000
0000
1000
0010
0000
0000
0010
1000
0000
0000
1000
,
0001
0000
0000
0001
0010
0000
0100
0000
1000
0000
0000
1000
0010
0000
0000
1000
,
0001
0000
0000
1000
0100
0000
0000
0100
0010
0000
0000
0100
1000
0000
0000
0100
,
0010
0100
1000
0001
1000
0010
0100
0001
,
1000
0100
0000
1000
0010
0000
0100
0000
0001
0000
0010
0000
0100
0000
1000
0000
,
0001
0100
0000
0001
0010
0000
0100
0000
1000
0000
0000
1000
0100
0000
0010
0000
,
0001
0000
0000
0001
0100
0000
0010
0000
1000
0000
0000
1000
0000
0000
1000
0000
,
0001
0000
0000
0001
0000
0000
0001
0000
0010
0000
0100
0000
1000
0000
0010
0000
,
0100
0001
0000
1000
0010
0000
0100
0000
0001
0000
0010
0000
0100
0000
1000
0000
,
0001
0010
0000
0100
1000
0000
0010
0000
0100
0000
0000
0100
1000
0000
0100
0000
,
0010
0000
0000
0100
0010
0000
0100
0000
0001
0000
0000
0001
0010
0000
0000
0010
,
0100
0000
0000
0100
1000
0000
0000
0000
2002
0000
0000
0000
0000
0000
0000
0000
,
0000
0000
3003
0000
;

//---------------dance-single - ----------------
#NOTES:
     dance-single:
     :
     Challenge:
     10:
     0.950,1.000,0.410,0.353,0.802: // measure 1
0000
0000
0000
0000
,  // measure 2
0011
0000
1000
0000
0101
0000
0000
0000
1010
0000
0001
0000
1100
0000
0000
1000
,  // measure 3
0100
0000
0000
0100
0010
0000
0000
0010
0001
0000
0000
0001
1000
0000
0000
0000
,  // measure 4
1100
0000
0001
0000
1010
0000
0000
0000
0101
0000
1000
0000
0011
0000
0000
0001
,  // measure 5
0100
0000
0000
0100
0010
0000
0000
0010
1000
0000
1100
0000
1001
0000
0000
0000
,  // measure 6
1000
0000
0000
1000
0100
0000
0000
0100
0010
0000
0000
0010
0001
0000
0000
0001
,  // measure 7
0100
0000
0000
0100
0010
0000
0000
0010
1000
0000
0000
1000
0001
0000
0000
0000
,  // measure 8
1010
0101
0011
1100
1001
0000
0000
0000
0100
0010
0000
0000
1000
0001
0000
0000
,  // measure 9
0220
0000
0000
0330
,  // measure 10
0001
0100
1000
0100
0001
0010
1000
0010
,  // measure 11
0001
0100
1000
0100
0001
0001
0001
0001
,  // measure 12
0000
0001
1000
0100
1000
0010
0001
0010
,  // measure 13
1000
0100
0001
0100
1000
1000
1000
1000
,  // measure 14
1000
0100
0010
0001
0001
0100
0010
0001
,  // measure 15
0001
1000
0100
0010
0001
0001
0001
0001
,  // measure 16
0001
0100
0010
1000
1000
0100
0010
1000
,  // measure 17
1000
0001
0100
0010
1000
1000
1000
1000
,  // measure 18
0001
0100
0000
0101
0000
1100
0000
1000
,  // measure 19
0010
0000
0011
0000
1010
0200
0000
0301
,  // measure 20
0010
0001
0000
0011
0000
0101
0000
0100
,  // measure 21
0010
0000
0000
0000
1010
0000
0000
0000
1100
0000
0001
0000
0100
0000
0000
0001
,  // measure 22
1000
0010
0000
1010
0000
0011
0000
0001
,  // measure 23
0100
0000
1100
0000
0101
0020
0000
1030
,  // measure 24
0100
1000
0000
1100
0000
1010
0000
0010
,  // measure 25
0100
0000
0100
0000
0010
0000
0010
0000
1000
0001
1000
0001
1000
0001
1000
0001
,  // measure 26
2000
0000
0100
0100
3200
0000
0010
0010
,  // measure 27
0320
0000
0001
0001
0032
0000
2003
0000
,  // measure 28
3002
0000
0100
0100
0203
0000
0010
0010
,  // measure 29
0320
0000
1000
1000
2030
0000
3002
0000
,  // measure 30
2003
0000
0010
0001
3020
0000
0100
1000
,  // measure 31
0230
0000
0001
0010
0302
0000
2003
0000
,  // measure 32
3002
0000
0010
1000
0023
0000
0100
0001
,  // measure 33
0230
0000
1000
0010
2300
0000
3001
0000
,  // measure 34
2000
0100
0100
3100
0020
0001
0001
0031
,  // measure 35
0200
0010
0010
0310
0002
0000
1000
0003
,  // measure 36
0020
1000
1000
1030
0200
0001
0001
0301
,  // measure 37
2000
0100
0100
3100
0002
0010
0010
0003
,  // measure 38
2000
0010
0100
3100
0020
0100
0001
0031
,  // measure 39
0200
1000
0010
0310
0002
0000
1000
0003
,  // measure 40
0020
0001
1000
1030
0200
1000
0001
0301
,  // measure 41
2000
0000
0010
0000
0100
0000
3100
0000
0001
1000
0001
1000
0001
1000
0001
1000
,  // measure 42
0001
0000
0000
0000
0101
0000
0000
0000
1000
0100
0010
0001
1000
0100
0010
0001
,  // measure 43
1000
0100
1000
0000
0001
0100
0001
0000
0000
0000
0001
0010
0100
1000
0000
0000
,  // measure 44
1000
0000
0000
0000
1010
0000
0000
0000
0001
0100
0010
1000
0001
0100
0010
1000
,  // measure 45
0001
0010
0001
0000
1000
0010
1000
0000
0000
0000
1000
0010
0100
0001
0000
0000
,  // measure 46
0010
0000
0000
0000
0001
0010
0001
0100
0001
1000
0001
0100
0001
0010
0001
0000
,  // measure 47
1000
0100
1000
0100
1000
0000
0000
0000
0001
0100
0001
0100
0001
0000
0000
0000
,  // measure 48
1000
0000
0000
0000
1000
0100
1000
0010
1000
0001
1000
0010
1000
0100
1000
0000
,  // measure 49
0001
0100
0001
0100
0001
0000
0000
0000
1000
0100
1000
0100
1000
0000
0000
0000
,  // measure 50
1001
0100
0000
0000
0000
0000
0000
0000
0000
0000
0000
0000
0000
0000
0000
0000
1010
0100
0000
0000
0000
0000
0000
0000
0000
0000
0000
0000
0000
0000
0000
0000
0011
0100
0000
0000
0000
0000
0000
0000
0000
0000
0000
0000
0000
0000
0000
0000
1001
0100
0000
0000
0000
0000
0000
0000
0000
0000
0000
0000
0000
0000
0000
0000
,  // measure 51
0100
0010
0100
0010
0100
0000
0000
0000
1001
0001
0010
0100
1000
1000
0010
0100
,  // measure 52
0001
0001
0010
0100
1000
1000
0001
1000
0200
0000
0010
0010
0010
0000
1000
1000
,  // measure 53
1000
0000
0001
0001
0001
0000
0310
0000
1001
1000
0010
0100
0001
0001
0010
0100
,  // measure 54
1000
1000
0010
0100
0001
0001
1000
0001
0200
0000
0010
0010
0010
0000
1000
1000
,  // measure 55
1000
0000
0001
0001
0001
0000
0310
0000
0001
0000
0000
0001
0010
0000
0100
0000
,  // measure 56
1000
0000
0000
0001
0100
0000
0010
0000
1000
0000
0000
0001
0010
0000
0100
0000
,  // measure 57
1000
0100
0010
0001
0102
0000
0013
0000
,  // measure 58
2100
3010
0102
0013
,  // measure 59
2100
0000
0000
0000
3010
0000
0000
0000
1000
0000
0000
1000
0100
0000
0010
0000
,  // measure 60
0001
0000
0000
1000
0010
0000
0100
0000
0001
0000
0000
1000
0100
0000
0010
0000
,  // measure 61
0001
0010
0100
1000
2010
0000
3100
0000
,  // measure 62
0012
0103
2010
3100
,  // measure 63
0012
0000
0000
0000
0103
0000
0000
0000
1000
0000
1000
0100
0010
0000
0100
0010
,  // measure 64
0001
0000
0001
1000
0001
0000
1000
0000
0001
0000
0001
0100
0010
0000
0100
0010
,  // measure 65
1000
0000
0001
1000
0001
0000
0010
0000
0100
0000
0000
0100
1000
0000
0010
0000
,  // measure 66
0100
0000
0000
0100
0001
0000
0010
0000
0100
0000
0000
0100
1000
0000
0010
0000
,  // measure 67
0100
0010
0100
0000
1001
0000
0010
0100
0010
0000
1000
0010
0000
0100
0010
0000
,  // measure 68
1000
0000
0100
0001
0000
0100
1000
0000
0010
0000
0010
0100
0000
0010
0001
0000
,  // measure 69
0010
0000
0010
1000
0000
0010
0100
0000
0001
0000
0010
0001
0000
0001
0100
0000
,  // measure 70
0100
0000
0010
1000
0000
1000
0100
0000
0100
0000
0010
0001
0000
0100
0001
0000
,  // measure 71
0100
0000
0010
1000
0000
0100
1000
0000
0001
0000
0001
0100
0010
0000
0100
0010
,  // measure 72
1000
0000
0010
1000
0100
0000
0010
0001
0010
0000
0010
0100
0010
0000
0010
1000
,  // measure 73
0010
0000
0001
0100
0001
0000
0010
0000
0100
0000
1000
0100
0000
0010
0001
0000
,  // measure 74
1000
0000
0001
0100
0000
0010
1000
0000
0001
0000
0100
0001
0000
0010
0001
0000
,  // measure 75
1000
0100
1000
0000
1001
0000
0001
0100
0001
0000
0010
0001
0100
0000
0001
0000
,  // measure 76
1000
0000
0100
1000
0010
0000
1000
0000
0001
0010
0100
0000
1000
0000
0001
0000
,  // measure 77
1000
0010
0100
0000
0001
0000
1000
0000
0001
0000
0010
0001
0000
0010
0100
0000
,  // measure 78
1000
0000
0010
1000
0000
0010
0100
0000
0001
0000
1000
0100
0000
0010
0001
0000
,  // measure 79
0010
0001
1000
0000
0110
0000
0010
1000
0001
0000
0001
0100
0001
0000
1000
0100
,  // measure 80
1000
0000
1000
0010
1000
0000
0001
0010
0001
0000
1000
0001
1000
0000
0001
1000
,  // measure 81
0001
0000
0100
0010
0100
0000
0001
0010
0100
0000
0100
0010
0001
0000
1000
0010
,  // measure 82
0100
0000
0100
0010
1000
0000
0001
0100
0010
0000
1000
0100
0010
0000
0001
0010
,  // measure 83
0100
0000
1000
0010
0100
0000
0010
0000
1000
0000
0100
1000
0000
0010
1000
0000
,  // measure 84
0001
0000
0010
0001
0000
0100
0001
0000
0010
0000
1000
0010
0000
0001
0010
0000
,  // measure 85
0100
0000
1000
0100
0000
0001
0100
0000
0010
0001
0000
0001
0100
0000
0010
0000
,  // measure 86
0010
1000
0000
1000
0100
0000
0100
0000
0010
0001
0010
0000
0100
1000
0100
0000
,  // measure 87
1000
0001
1000
0000
1001
0000
1001
0000
0001
0100
0001
1000
0001
0010
0001
0000
,  // measure 88
1000
0100
1000
0001
1000
0010
1000
0000
0001
0100
0001
0100
0001
0100
0001
0000
,  // measure 89
1000
0100
1000
0100
1000
0100
1000
0000
0001
0010
0100
0010
0001
0000
0110
0000
,  // measure 90
1000
0010
0100
0010
1000
0000
0110
0000
0001
0100
0010
0100
0001
0000
0110
0000
,  // measure 91
1000
0100
0010
0100
1000
0000
0110
0000
0001
0010
0100
1000
0001
0010
0100
1000
,  // measure 92
0001
0100
0010
1000
0001
0100
0010
1000
0001
0010
0001
0010
0100
1000
0100
1000
,  // measure 93
0001
0100
0001
0100
0010
1000
0010
1000
0001
0100
0000
0001
0010
0000
0110
0000
,  // measure 94
1000
0100
0000
1000
0010
0000
0110
0000
0001
1000
0001
1000
0001
1000
0001
1000
,  // measure 95
0100
0010
0100
0010
0100
0010
0100
0010
2002
0000
0000
0000
0000
0000
0000
0000
,  // measure 96
0000
0000
3003
0000
;

//---------------dance-single - ----------------
#NOTES:
     dance-single:
     :
     Medium:
     7:
     0.500,0.506,0.226,0.346,0.035:
0000
0000
0000
0000
,
1000
0100
1000
0010
,
1000
1100
0001
1010
,
0001
0010
0001
0100
,
0001
0101
1000
0011
,
1000
0100
0001
0010
,
1000
1100
0001
0101
,
1000
0100
0010
0001
1000
0000
0000
0000
0001
0000
0000
0000
1000
0000
0000
0000
,
0001
0000
0000
0000
,
0000
1000
0100
1000
,
0010
0000
0100
0000
0001
0010
0100
1000
,
0000
0001
0100
0010
,
1000
0000
0100
0000
1000
0010
0100
0000
,
0001
0011
0000
1100
,
0001
0000
0101
0000
1000
0100
1000
0000
,
0010
0101
0000
0010
,
1100
0000
1001
0000
1000
0100
0010
0001
,
1000
0000
0000
0010
0000
0010
0000
0100
,
0001
0000
0001
0000
1000
0100
1000
0000
,
0001
0000
0000
0010
0000
0010
0000
0100
,
1000
0000
0010
0000
0100
0010
0100
0000
,
0001
0000
0000
0100
0000
0100
0000
0010
,
1000
0000
1000
0000
0001
0010
0001
0000
,
1000
0000
0000
0100
0000
0100
0000
0010
,
0001
0000
0100
0000
0010
0100
0010
0000
,
2000
0100
3002
0100
,
2003
0100
3002
1000
,
2003
0010
3002
0010
,
2003
0010
3002
1000
,
1003
0000
1000
0100
0010
0000
0010
0001
,
0100
0000
0100
0001
0010
0000
0011
0000
,
0101
0000
0001
0100
0010
0000
0010
1000
,
0100
0000
0100
1000
0001
0000
1001
0000
,
2000
3100
0020
0031
,
0200
0310
1020
0100
,
0032
0000
0023
0000
,
2030
0000
3001
1000
,
0002
0013
0200
1300
,
0020
0130
0201
0010
,
2300
0000
3200
0000
,
0302
0000
2003
0000
,
3001
0000
0010
0000
0100
1000
0100
0000
,
0010
0000
0001
0000
0000
0001
0100
0000
,
1000
0000
0100
0000
1000
0010
1000
0000
,
1000
0100
1000
0000
1000
0001
1000
0000
,
1000
0000
0100
0000
0010
0001
0010
0000
,
0100
0000
1000
0000
0000
1000
0010
0000
,
0001
0000
0100
0000
0001
0010
0001
0000
,
0001
1000
0001
0000
0001
0100
0001
0000
,
1000
0001
1000
0001
,
0110
0000
0000
0000
0000
1000
0000
1000
,
0000
1000
0000
1000
2000
0000
3200
0000
,
0320
0000
0032
0000
0003
0001
0000
0001
,
0000
0001
0000
0001
0002
0000
0203
0000
,
0320
2030
3001
0010
,
0100
1000
0001
0010
,
0100
1000
0100
0010
0200
0000
1300
0000
,
0200
0310
0200
0301
,
0200
0310
1000
0010
,
0100
0001
1000
0010
,
0100
0010
0100
1000
0200
0000
0301
0000
,
0200
0310
0200
1300
,
0200
0310
2000
0100
,
0001
3100
0002
0100
,
1000
0103
0001
0011
,
0001
0101
0001
0000
,
1000
0001
1000
0000
0002
0000
0010
0000
,
1000
0013
2000
0010
,
0001
3010
1000
1100
,
1000
1010
1000
0000
,
0001
1000
0001
0000
1000
0000
0010
0000
,
0100
0001
1000
0010
,
0100
0000
0001
0000
1000
0000
0000
1000
,
0100
0000
0000
0100
0010
0000
0000
0010
,
0001
1001
0001
0100
,
0010
1000
0001
0100
,
0010
0000
1000
0000
0001
0000
0000
0001
,
0010
0000
0000
0010
0100
0000
0000
0100
,
1000
0001
1000
0000
0010
1000
0010
1000
,
0010
1000
0010
0000
0100
0001
0100
0001
,
0100
0000
0001
0000
0100
0000
0000
0000
0001
0000
0000
0001
0000
0000
0000
0000
,
1000
0000
0000
1000
0000
0000
0000
0000
0100
0000
0000
0100
0000
0000
0000
0000
,
0010
0000
0000
0010
0000
0000
0000
0000
0001
0000
0000
0000
0010
0000
0000
0000
,
0100
0010
0100
0000
1000
0000
0001
0000
,
0100
0000
0010
0000
0100
0000
0000
0000
0002
0000
0000
1000
0003
0000
0000
0000
,
0020
0000
0000
0100
0030
0000
0000
0000
2000
0000
0000
0001
3000
0000
0000
0000
,
0200
0000
0000
0010
0300
0000
0000
0000
0001
0000
0010
0000
0001
0000
0100
0000
,
0001
1000
0001
0000
1000
0100
1000
0010
,
1000
0001
1000
0000
0001
0000
0101
0000
,
0001
0011
1000
1010
,
1000
0000
1100
0000
1000
0100
0010
0001
,
0100
0010
1000
0000
0001
0100
0010
1000
,
0100
0010
0001
0000
1010
0000
1010
0000
,
0011
0000
0011
0000
1000
0001
0000
0001
,
1000
0001
1000
0001
2002
0000
0000
0000
,
0000
0000
3003
0000
;

//---------------dance-single - Lifts----------------
#NOTES:
     dance-single:
     Lifts:
     Edit:
     10:
     0.893,1.000,1.000,0.353,0.438:
0000
0000
0000
0000
,
0001
010L
0L10
10L0
,
L100
L010
0L01
01L0
,
1000
L010
01L0
0L01
,
001L
010L
10L0
010L
,
0010
01L0
0L01
100L
,
L100
01L0
L001
01L0
,
0010
L100
0010
010L
0010
0001
0000
0000
1000
0100
0000
0000
0010
0001
0000
0000
,
2200
0000
0000
3300
,
1100
0010
010L
01L0
,
001L
0100
1000
0000
001L
0000
L010
0001
,
0000
0001
0100
0000
L100
0000
10L0
0010
,
0100
0000
010L
0000
10L0
0000
1L00
0010
,
0000
0010
1000
0000
0L21
0000
1L30
0000
,
010L
0010
0001
0000
10L0
0000
0L10
0001
,
0000
0100
0001
0000
L100
0000
010L
1000
,
0010
0001
1000
0000
0L01
0010
0100
1000
,
0021
1000
0000
0100
0000
0L30
0000
0001
,
0010
0000
1100
0000
L000
0001
0000
0010
,
0001
1000
0000
00L0
0000
000L
0000
0100
,
0110
0000
1010
0000
0100
0001
0L00
0000
,
0020
000L
0000
0100
0000
0130
0000
0100
,
1000
0000
1020
0000
0100
0L00
0000
1030
,
0001
2000
0000
000L
0000
3100
0000
0010
,
0100
1000
0100
1000
0001
0100
0001
0100
,
0002
0000
0103
0010
200L
0000
3100
0010
,
L002
0000
0103
0010
2001
0000
3L00
0000
,
L002
0000
0013
0100
200L
0000
3010
0100
,
L002
0000
0013
0100
2001
0000
30L0
0000
,
L002
0000
0103
0010
00L2
0000
1003
0100
,
0L02
0000
0013
1000
L002
0000
0103
0000
,
200L
0000
3010
0001
200L
0000
3100
0010
,
20L0
0000
3001
0100
2L00
0000
3100
0000
,
L002
0000
0103
0010
20L0
0010
3000
0100
,
0L02
0100
0003
0010
2001
0000
3100
0000
,
L002
0000
0013
0100
2L00
0100
3000
0010
,
00L2
0010
0003
0100
2001
0000
3010
0000
,
L002
0000
0103
0010
00L2
1000
L003
0100
,
0L02
0010
00L3
1000
L002
0000
0103
0000
,
2L00
0000
3010
0001
200L
0100
3L00
0010
,
20L0
0001
300L
0100
2L00
0000
3100
0000
,
0L10
0000
0000
0000
0001
0000
0010
0000
0001
0010
0100
1000
0100
0000
0010
0000
,
0001
1000
0001
1000
0001
0000
0100
0000
0010
0100
0010
0100
0010
0000
0000
0000
,
1000
0000
0000
0000
0010
0000
0100
0000
0001
1000
0010
0100
0010
0000
1000
0000
,
0100
1000
0100
0010
0100
0000
1000
0000
0001
0100
0010
0100
0001
0000
0000
0000
,
1000
0000
0000
0000
0100
0000
0010
0000
0000
0L00
L000
000L
0L10
0000
1000
0000
,
0000
00L0
L000
00L0
0L01
0000
0010
0000
0000
000L
00L0
0L00
L100
0000
0000
0000
,
0010
0000
0000
0000
0001
0000
1000
0000
0000
000L
L000
000L
0L01
0000
0010
0000
,
0000
0L00
L000
0L00
01L0
0000
1000
0000
0000
00L0
0L00
000L
0L10
0000
0100
0000
,
0001
0001
0000
0000
0000
0000
0000
0000
0000
0000
0000
0000
0000
0000
0000
0000
1000
1000
0000
0000
0000
0000
0000
0000
0000
0000
0000
0000
0000
0000
0000
0000
0010
0010
0000
0000
0000
0000
0000
0000
0000
0000
0000
0000
0000
0000
0000
0000
0100
0100
0000
0000
0000
0000
0000
0000
0000
0000
0000
0000
0000
0000
0000
0000
,
1000
0001
1000
0001
1000
0000
0010
0100
0010
0000
L000
0L00
00L0
100L
0100
0010
,
0001
0000
L000
0L00
00L0
100L
0100
0010
0001
0000
00L0
000L
0L00
L100
0010
1000
,
0001
0000
00L0
000L
0L00
L100
0010
1000
0001
0000
00L0
0L00
L000
001L
0100
1000
,
0001
0000
00L0
0L00
L000
001L
0100
1000
0001
0000
0L00
L000
0L00
010L
0010
0001
,
1000
0000
00L0
L000
0L00
010L
0010
0001
1000
0000
0000
0000
1100
0000
0000
0000
,
0001
0101
0010
1001
,
0100
0010
0001
0100
0002
0000
1003
0000
,
L002
0103
0L02
0013
,
00L2
1003
L010
0101
,
001L
1100
L010
0101
,
001L
0100
1000
0010
2000
0000
3001
0000
,
200L
3010
20L0
3100
,
2L00
0000
3001
0000
0001
0010
0100
1000
,
0010
0000
0000
0010
1000
0000
0000
1000
0100
0000
0000
0100
0010
0000
0000
0010
,
0001
0000
0000
0001
0100
0000
0000
0000
0010
0000
0000
10L0
0000
0000
L100
0000
,
0010
0000
0000
00L1
0000
0000
010L
0000
0001
0000
0000
001L
0000
0000
01L0
0000
,
1000
L001
100L
L000
0110
0000
0000
0000
1000
0000
0010
0000
L001
0000
0010
0000
,
100L
0100
0000
0000
L100
0000
0000
0000
1000
0000
0010
0000
L001
0000
0010
0000
,
100L
0100
0000
0000
L010
0000
0001
0000
0100
0000
0000
0L10
0000
0000
10L0
0000
,
L100
0000
0000
0L10
0000
0000
00L1
0000
1000
0100
0000
0100
1000
0000
1001
0000
,
0001
0100
0000
0100
0001
0000
1001
0000
0010
0000
1000
0000
0100
0000
0000
0000
,
00L0
000L
01L0
0001
0100
0000
L000
00L0
,
L010
0000
0100
0000
0001
0000
0010
0000
0100
0000
0000
1L00
0000
0000
L010
0000
,
01L0
0000
0000
0L01
0000
0000
100L
0000
L001
0010
0001
0010
0001
0000
0100
0000
,
0010
1000
0000
0010
1000
0000
1000
0000
0001
0000
0100
0000
100L
0000
0100
0000
,
L001
0010
0000
0000
001L
0000
0000
0000
0001
0000
0100
0000
100L
0000
0100
0000
,
L001
0010
0000
0000
010L
0000
0010
0000
1000
0000
0000
L010
0000
0000
01L0
0000
,
0001
0L00
0000
001L
0000
0000
00L1
0000
001L
0000
0000
01L0
0000
0000
1L00
0000
,
L010
0000
10L0
0000
L001
0010
0001
0000
100L
0000
0100
0000
0001
0000
0000
0000
,
0L00
00L0
1L00
0010
0000
0101
0000
1200
,
0000
0000
03L0
0000
L000
0000
00L1
0000
0010
0000
0000
L000
0L10
0000
0100
0000
,
1000
0000
0000
00L0
L100
0000
0010
0000
0001
0000
0000
0L00
00L1
0000
0010
0000
,
0000
0L00
001L
0000
0100
0000
1000
0000
0001
0000
0001
0010
0000
0010
0001
0000
,
0100
0000
0010
1000
0000
1000
0010
0000
0100
0000
0001
0010
0000
0010
0100
0000
,
0010
0000
0001
1000
0000
1000
0010
0000
0100
0000
0000
000L
01L0
0000
0000
0000
,
00L1
0000
0000
0L00
001L
0000
0000
0000
1L00
0000
0000
00L0
1L00
0000
0000
0000
,
0L00
00L0
L000
0000
0L10
0000
0000
000L
L001
0000
0100
0000
0001
0000
0000
0000
,
L000
0L00
L010
0100
0000
1010
0000
0101
,
0010
0000
0000
0000
L000
0000
001L
0000
0000
0L00
L100
0000
0000
00L0
001L
0000
,
0000
000L
0L01
0000
0000
L000
10L0
0000
0000
000L
10L0
0000
0000
000L
1L00
0000
,
0000
000L
1L00
0000
0000
000L
10L0
0000
0000
000L
01L0
0000
0000
0000
00L1
0000
,
0000
0L00
10L0
0000
0000
0000
100L
0000
0000
0L00
00L1
0000
0000
0000
L001
0000
,
0000
0L00
10L0
0000
0000
0000
100L
0000
0100
0000
0000
01L0
0000
0000
01L0
0000
,
0001
0000
0000
L001
0000
0000
L001
0000
0110
0000
0000
L100
0000
0000
00L1
0000
,
0110
0000
0000
010L
0000
0000
10L0
0000
2002
0000
0000
0000
0L00
0000
0000
0000
,
3003
0000
0000
0000
;

//---------------dance-single - ----------------
#NOTES:
     dance-single:
     :
     Easy:
     5:
     0.358,0.367,0.064,0.325,0.000:
0000
0000
0000
0000
,
0001
0100
1000
0000
,
1000
0100
0001
0000
,
0001
0010
1000
0000
,
1000
0010
0001
0000
,
0001
0010
0100
0000
,
1000
0010
0100
0000
,
0001
1000
0001
0000
0000
0000
0110
0000
,
0000
0000
0000
0000
,
0000
0001
0000
0001
,
0000
0001
0100
0010
,
0000
1000
0000
1000
,
0000
1000
0100
0010
,
0000
0001
0000
0001
,
0000
0001
1000
0001
,
0010
0100
0010
0000
,
0100
0010
0100
1001
,
0020
0000
0100
0000
,
1030
0100
0001
0100
,
2000
0000
0010
0000
,
3001
0010
0100
1000
,
0002
0000
0100
0000
,
1003
0100
0010
0001
,
0200
0000
0010
0000
,
0301
0010
1000
0010
,
0002
0000
0023
0000
,
0230
0000
2300
3002
,
2003
0000
3020
0000
,
0230
0000
0302
2003
,
3002
0000
0023
0000
,
0230
0000
2300
3020
,
0230
0000
0302
0000
,
0023
0000
0230
0000
,
1300
0010
1000
0000
,
0001
0010
0001
0100
,
0010
1000
0001
0000
,
0010
0001
1000
0100
,
0010
0001
0010
0000
,
0100
1000
0001
0100
,
0010
1000
0001
0000
,
0010
0000
0001
1000
,
0010
0010
1010
0000
,
0100
0100
0000
0101
,
0010
0010
0011
0000
,
0100
0100
0000
1100
,
0001
1000
0002
0100
,
1000
0010
0100
0013
,
1000
0001
2000
0100
,
0010
0100
0001
3010
,
0001
0001
0001
0001
,
2000
3000
0001
0001
,
0001
0001
0020
0030
,
0200
0300
1000
1000
,
1000
1000
0020
0030
,
0200
0300
0001
1000
,
0001
1000
0010
0100
,
0010
0100
0001
1000
,
0001
1000
0100
0010
,
0100
0000
1000
0001
,
1000
0001
0100
0010
,
0100
0010
1000
0001
,
1000
0001
0010
0100
,
0010
0000
0001
1000
,
0001
0000
1000
0010
,
1000
0000
0001
0000
,
0010
0000
0100
0000
,
1001
0010
1000
0001
,
1000
0000
0001
0100
,
0001
0000
1000
0000
,
0100
0000
0010
0000
,
1001
0100
0001
0001
,
0010
0010
0100
0100
,
1000
1000
0002
0003
,
0020
0030
0200
0300
,
2000
3000
1000
1000
,
0010
0010
0100
0100
,
0001
0001
2000
3000
,
0020
0030
0200
0300
,
0002
0003
1000
0100
,
0001
0100
1000
0100
,
0001
0100
1000
1000
,
0001
0001
1000
1000
,
0001
0001
1000
0010
,
0001
0010
1000
0010
,
0001
0010
1000
1000
,
0001
0001
1000
0001
,
1000
0001
0020
1000
,
0100
0031
0020
1000
,
0100
0031
0020
0001
,
0100
1030
0020
0001
,
0100
1030
2000
0100
,
0010
3001
0002
0100
,
0010
1003
0002
1003
,
2000
3001
0010
0010
,
0010
0010
1001
0000
;

//---------------dance-single - ----------------
#NOTES:
     dance-single:
     :
     Beginner:
     2:
     0.128,0.200,0.071,0.106,0.000:
0000
0000
0000
0000
,
1000
0000
0000
0000
,
1000
0000
0000
0000
,
0001
0000
0000
0000
,
0001
0000
0000
0000
,
0010
0000
0000
0000
,
0010
0000
0000
0000
,
0200
0300
0000
0000
,
0000
0000
0000
0000
,
0000
0000
0010
0000
,
0000
0000
0100
0000
,
0000
0000
0010
0000
,
0000
0000
0100
0000
,
0000
0000
0001
0000
,
0000
0000
1000
0000
,
0000
0000
0001
0000
,
0000
0000
1000
0000
,
1001
0000
0000
0000
,
0010
0010
0010
0000
,
1001
0000
0000
0000
,
0100
0100
0100
0000
,
0110
0000
0000
0000
,
0001
0001
0001
0000
,
0110
0000
0000
0000
,
1000
1000
1000
0000
,
0002
0000
0000
0000
,
0003
0000
0000
0000
,
2000
0000
0000
0000
,
3000
0000
0000
0000
,
0020
0000
0000
0000
,
0030
0000
0000
0000
,
0200
0000
0000
0000
,
0300
0000
0000
0000
,
2002
0000
3003
0000
,
0000
0000
0000
0000
,
0220
0000
0330
0000
,
0000
0000
0000
0000
,
2002
0000
3003
0000
,
0000
0000
0000
0000
,
0220
0000
0330
0000
,
0000
0000
0000
0000
,
0010
0000
0000
0000
,
0010
0000
0000
0000
,
0100
0000
0100
0000
,
0100
0000
0000
0000
,
0001
0000
0000
0000
,
0001
0000
0000
0000
,
1000
0000
1000
0000
,
1000
0000
0000
0000
,
2002
0000
0000
0000
,
3003
0000
0000
0000
,
0010
0000
0000
0000
,
0100
0000
0000
0000
,
0001
0000
0000
0000
,
1000
0000
0000
0000
,
0010
0000
0000
0000
,
0010
0000
0000
0000
,
0100
0000
0000
0000
,
0100
0000
0000
0000
,
0001
0000
0000
0000
,
0001
0000
0000
0000
,
1000
0000
0000
0000
,
1000
0000
1000
0000
,
0000
0000
0100
0000
,
0000
0000
0010
0000
,
0010
0000
0010
0000
,
0000
0000
0001
0000
,
0000
0000
0100
0000
,
0000
0000
0010
0000
,
0010
0000
0010
0000
,
0000
0000
1000
0000
,
0000
0000
0001
0000
,
0000
0000
0010
0000
,
0010
0000
0010
0000
,
0000
0000
0100
0000
,
0000
0000
1000
0000
,
0000
0000
0001
0000
,
0000
0000
0100
0000
,
0000
0000
0010
0000
,
0000
0000
0100
0000
,
0000
0000
1000
0000
,
1000
0000
1000
0000
,
0000
0000
0010
0000
,
0000
0000
0100
0000
,
0000
0000
0001
0000
,
0001
0000
0001
0000
,
0000
0000
0010
0000
,
0000
0000
1000
0000
,
0000
0000
0100
0000
,
0100
0000
0100
0000
,
0100
0000
0100
0000
,
0000
0000
0010
0000
,
0000
0000
0001
0000
,
0000
0000
1000
0000
,
0000
0000
1001
0000
;

//---------------dance-double - ----------------
#NOTES:
     dance-double:
     :
     Challenge:
     10:
     0.704,0.816,0.261,0.290,0.321:
00000000
00000000
00000000
00000000
,
00100000
00011000
00000010
00011000
,
00100000
00000000
00000000
00100000
00001000
00000000
00000000
00001000
00000010
00000000
00000000
00000010
00000001
00000000
00000000
00000000
,
00000100
00011000
01000000
00011000
,
00000100
00000000
00000000
00000100
00010000
00000000
00000000
00010000
01000000
00000000
00000000
01000000
10000000
00000000
00000000
00000000
,
00100000
01001000
00000100
00010010
,
00001001
00011000
10010000
00011000
,
10000000
00010000
00001000
00000001
00001000
00100000
00000000
00000000
00010000
00000100
00000000
00000000
00001000
00000000
00010000
00000000
,
00022000
00000000
00000000
00000000
,
00033000
00000000
00010000
00100000
01000000
10000000
00100000
10000000
,
01000000
10000000
00100000
01000000
00001000
00100000
00001000
00010000
,
00000000
00010000
00000010
00000100
00000001
00000010
00000100
00001000
,
00000010
00000001
00000010
00001000
00000100
00010000
00001000
00010000
,
00000000
00010000
01000000
10000000
00100000
00000000
00110000
00000000
,
10000000
00000000
11000000
00000000
00100000
00010000
00000010
00000100
,
00000000
00001000
00000010
00001000
00000001
00000000
00000101
00000000
,
00001000
00000000
00001010
00000000
00000100
00010000
00001000
00100000
,
01000000
10000000
00000000
10100000
00000000
00110000
00000000
00010000
,
00001000
00000000
00001100
00000000
00000101
00000020
00000000
00000130
,
00000010
00000001
00000000
00000101
00000000
00001100
00000000
00001000
,
00010000
00000000
00110000
00000000
10100000
02000000
00000000
03100000
,
00010000
00001000
00000000
00010100
00000000
00101000
00000000
00010000
,
00001100
00000000
00000011
00000000
00010100
00000020
00000000
00000130
,
00001000
00010000
00000000
01001000
00000000
00010010
00000000
00001000
,
00010000
00100000
10000000
00100000
00001000
00000100
00000001
00000100
,
00020000
00130000
20000000
31000000
,
00200000
00301000
00000020
00010030
,
00000002
00000103
00002000
00013000
,
00200000
01300000
00002000
00103000
,
20000000
31000000
00200000
00301000
,
00000200
00010300
00000020
00001030
,
00000200
00000301
00020000
00031000
,
02000000
13000000
00200000
00310000
,
00001000
00000000
00000100
00000000
00000010
00000001
00000000
00000100
,
00000000
00001000
00000000
00010000
00001000
00000000
00100000
00000000
,
01000000
00000000
00010000
00000000
10000000
01000000
00000000
00100000
,
00000000
00001000
00000000
00010000
01000000
00000000
10000000
00000000
,
00100000
00000000
00010000
00000000
00001000
00000100
00000000
00000010
,
00000000
00001000
00000000
00000001
00000010
00000000
00000100
00000000
,
00010000
00000000
00000010
00000000
00000100
00001000
00000000
00100000
,
00000000
10000000
00000000
00010000
00100000
00000000
01000000
00000000
,
10000000
01000000
00100000
00010000
00000010
00000100
00001000
00000001
,
00000100
00001000
00010000
01000000
10000000
00100000
01000000
00000000
,
00001000
00000000
00010000
00001000
00000010
00000100
00001000
00000001
,
00000100
00010000
00100000
00010000
00000100
00000010
00001000
00000000
,
00000010
00000000
00000001
00000010
00000100
00001000
01000000
00100000
,
00010000
10000000
00100000
00010000
00001000
00000010
00000001
00000100
,
00000010
00000000
00010000
00000000
00001000
00010000
01000000
00100000
,
00010000
10000000
00100000
00001000
00000100
00000010
00010000
01000000
,
10000000
00010000
00001000
00000001
,
00022000
00000000
00000000
00000000
00033000
00000000
00000000
00000000
00000010
00000000
00000010
00001000
00000100
00000000
00000010
00000001
,
00000100
00000000
00000010
00001000
00000100
00000010
00000001
00000100
00002000
00000000
00000000
00000000
00023000
00000000
00000000
00000000
,
00230000
00000000
00000000
00000000
20300000
00000000
00000000
00000000
31000000
00000000
01000000
10000000
00100000
00000000
01000000
00010000
,
00100000
00000000
01000000
10000000
00100000
01000000
00010000
00100000
00020000
00000000
00000000
00000000
00030020
00000000
00000000
00000000
,
00000230
00000000
00000000
00000000
00002300
00000000
00000001
00000000
00003001
00000000
00000000
00000001
00000100
00000000
00010000
00000000
,
00000100
00000000
00000000
00000010
00000100
00000000
00001000
00000000
00000100
00000000
00000000
00000001
00000100
00000000
00010000
00000000
,
00000100
00000010
00001000
00000100
00002000
00000000
00003100
00000000
,
00002000
00013000
00002000
00103000
,
00002000
00000000
00000000
00000000
01003000
00000000
00000000
00000000
10000000
00000000
00000000
10000000
00100000
00000000
00001000
00000000
,
00100000
00000000
00000000
01000000
00100000
00000000
00010000
00000000
00100000
00000000
00000000
10000000
00100000
00000000
00001000
00000000
,
00100000
01000000
00010000
00100000
00020000
00000000
00130000
00000000
,
00020000
00031000
00020000
00030100
,
00020000
00000000
00030010
00000000
00000001
00000100
00010000
00000100
,
00000010
00001000
00000000
00000000
00000100
00010000
00000000
00000000
00010000
00001000
00000000
00000000
00001000
01000000
00000000
00000000
,
01000000
00000000
00100000
00000000
00010000
00000000
00100000
00000000
10000000
00000000
00000000
10000000
00000000
00000000
01000000
00000000
,
00100000
00000000
00000000
00100000
00000000
00000000
00001000
00000000
00010000
00000000
00000000
00010000
00000000
00000000
00000010
00000000
,
00000100
00010000
00100000
00000000
10000000
00100000
00001000
00100000
,
01000000
00010000
00000000
00000000
00100000
00001000
00000000
00000000
00001000
00010000
00000000
00000000
00010000
00000010
00000000
00000000
,
00000010
00000000
00000100
00000000
00001000
00000000
00000100
00000000
00000001
00000000
00000000
00000001
00000000
00000000
00000010
00000000
,
00000100
00000000
00000000
00000100
00000000
00000000
00010000
00000000
00001000
00000000
00000000
00001000
00000000
00000000
01000000
00000000
,
00100000
00001000
00000100
00000010
00000001
00001000
00000010
00010000
,
00001000
00000000
00001000
01000000
00000000
10100000
00000000
00110000
,
00000000
00000000
10000000
00000000
00010000
00000000
10000000
00000000
00100000
00000000
00000000
00100000
10000000
00000000
01000000
00000000
,
00100000
00000000
00000000
00100000
00001000
00000000
01000000
00000000
00100000
00000000
00000000
00100000
01000000
00000000
00010000
00000000
,
00100000
00001000
01000000
00100000
10000000
00010000
01000000
00001000
,
00010000
00000000
00000000
00010000
00000000
00000000
00000010
00000000
00000100
00000000
00000000
00000001
00000000
00000000
00001000
00000000
,
00000001
00000000
00000000
00000010
00000000
00000000
00000001
00000000
00000100
00000000
00000000
00000100
00000001
00000000
00000010
00000000
,
00000100
00000000
00000000
00000100
00010000
00000000
00000010
00000000
00000100
00000000
00000000
00000100
00000010
00000000
00001000
00000000
,
00000100
00010000
00000010
00000100
00001000
00010000
00100000
01000000
,
00010000
10000000
00000000
00010000
10000000
00000000
00100000
00000000
01000000
00000000
00010000
00000000
00100000
00000000
00001000
00000000
,
00000010
00000100
00000000
00000010
00000100
00000000
00001000
00000000
00000001
00000000
00000000
00000001
00000000
00000000
00000001
00000000
,
00000100
00000000
00000000
00000100
00000000
00000000
00000100
00000000
00010000
00000000
00000000
00010000
00000000
00000000
00010000
00000000
,
00100000
01000000
00100000
00000000
10010000
00000000
01100000
00000000
10000000
00000000
01000000
00000000
00100000
00000000
00001000
00000000
,
00010000
00000100
00000000
00001000
00000010
00000000
00000100
00000000
00000001
00000000
00000010
00000000
00000100
00000000
00010000
00000000
,
00000010
00001000
00000000
00000100
00010000
00000000
00001000
00000000
01000000
00100000
01000000
00100000
01000000
00000000
00001000
00000000
,
00010000
00000100
00010000
00000100
00010000
00000000
00000010
00000000
00001000
00000001
00001000
00000000
00000001
00000000
00000010
00000000
,
00000100
00000000
00001000
00000000
00000100
00000000
00000010
00000000
00000001
00000000
00000001
00000100
00000001
00000000
00000010
00000000
,
00000100
00000000
00010000
00001000
00010000
00000000
00001000
00000000
01000000
00000000
00010000
01000000
00010000
00000000
10000000
01000000
,
10000000
00000000
00100000
10000000
00010000
00000000
00100000
00001000
00010000
00000000
00010000
00001000
00000000
00010000
00001000
00000000
,
00000010
00000000
00000001
00000100
00000000
00000001
00000100
00000000
00001000
00000000
00010000
00000100
00000000
00010000
00000100
00000000
,
00001000
00100000
00001000
00000000
01010000
00000000
00101000
00000000
00010000
00000000
00001000
01000000
00001000
00000000
00100000
00010000
,
00100000
00000000
01000000
00000000
10000000
00000000
00100000
00000000
01000000
00000000
00010000
10000000
00010000
00000000
01000000
00001000
,
01000000
00000000
00010000
00000000
00000010
00000000
00000100
00000000
00001000
00000100
00001000
00000010
00001000
00000000
00000100
00000000
,
00010000
00001000
00010000
01000000
00010000
00000000
00001000
00000000
00100000
00000000
00010000
00100000
00000000
00100000
10000000
00000000
,
00100000
00000000
00010000
00001000
00000000
00001000
00000100
00000000
00000020
00000000
00000000
00000000
00000200
00000000
00000000
00000000
,
00000000
00000000
00000000
00000000
,
00000000
00000330
00000000
00000000
;
