#TITLE:WORD OF THE VOICE;
#SUBTITLE:-PERSONA Opening Mix-;
#ARTIST:FLOW;
#TITLETRANSLIT:;
#SUBTITLETRANSLIT:;
#ARTISTTRANSLIT:;
#GENRE:;
#CREDIT:Frozen_Heat || AznPunk07;
#MENUCOLOR:#ff8a00;
#BANNER:WORD OF THE VOICE-bn.png;
#BACKGROUND:WORD OF THE VOICE-bg.png;
#LYRICSPATH:WORD OF THE VOICE.lrc;
#CDTITLE:!cdtitle.png;
#MUSIC:WORD OF THE VOICE -PERSONA Opening Mix-.mp3;
#OFFSET:-0.256;
#SAMPLESTART:49.000;
#SAMPLELENGTH:25.000;
#SELECTABLE:YES;
#LISTSORT:;
#BPMS:0.000=164.980,40.000=159.620,42.000=164.980;
#STOPS:;
#TICKCOUNT:0.000=2;
#BGCHANGES:;
#KEYSOUNDS:;
#ATTACKS:;

//---------------dance-single - ----------------
#NOTES:
     dance-single:
     :
     Hard:
     7:
     0.545,0.550,0.510,0.170,0.000:
0000
0000
0000
0000
,
0000
1000
0100
0010
,
0102
0000
1000
0000
,
0100
0000
0000
0000
1003
0000
0001
0010
,
0100
0000
1000
0100
0010
0000
0001
0100
,
0010
0100
0001
0010
,
2100
0000
0001
0000
,
0010
0000
0000
0000
3001
0000
1000
0010
,
0100
0000
0001
0100
0010
0000
1000
0100
,
0010
0001
0011
1001
,
1010
0000
0000
0000
1000
0100
0000
1000
,
0001
0000
0001
0100
0000
0001
0010
0000
,
0220
0000
0330
0000
0001
1000
0000
0001
,
0100
0000
0100
0010
0000
1000
0000
0100
,
0000
1000
0010
1000
0100
0010
0000
0001
,
0000
0100
0010
0100
0001
1000
0000
0001
,
0000
0001
0010
0100
1000
0001
0000
0100
,
0000
0010
1000
0010
0100
0001
1000
0100
,
0010
0001
0101
0000
0010
1000
1001
0000
,
0010
0100
1100
0000
1000
0010
0110
0000
,
1000
0010
1001
0000
0001
0010
0000
0010
,
0001
0000
0001
1000
0000
1010
0000
1001
,
0000
0001
0100
1000
0100
0001
0000
1001
,
0000
1000
0100
0001
0100
1000
0000
1010
,
0000
1000
0010
0100
0001
1000
0000
0011
,
0000
0001
0010
0100
1000
0001
0001
0100
,
0010
0000
1000
0010
0000
0010
0100
0001
,
0000
0011
0000
0001
1000
1000
0010
0000
,
1000
0000
0001
0010
0000
0010
0100
1000
,
0000
1010
0000
0010
0100
0100
0001
0000
,
1001
0000
0001
0010
0000
0010
0001
0100
,
0000
0110
0000
0010
1000
0001
0101
0000
,
1001
0000
1100
0000
0010
0100
0000
1100
,
0000
1000
0010
0000
0101
0000
0011
0000
,
1002
0103
2001
3100
,
0020
0001
0100
1030
,
0010
0000
0002
0100
0000
0100
0000
0103
,
0010
1000
1100
1001
,
0101
0000
0001
0010
0000
0110
0000
1100
,
0000
0010
0101
0010
,
1100
0000
0001
1000
0000
1000
0001
0010
,
0000
0010
0001
1000
0001
1000
0001
1000
,
2001
3010
1002
0013
,
0200
1000
0010
0301
,
0100
0000
2000
0010
0000
0100
0000
3001
,
0000
0001
0011
1001
,
1010
0000
1000
0100
1000
0000
0100
0001
,
0100
0000
0001
0010
0001
0000
0010
1000
,
0010
0000
1000
0100
1000
0001
0010
0001
,
0000
0100
0010
1000
0001
1000
0001
1000
,
0200
0000
0020
0330
,
1001
0000
0001
0101
0000
1000
1100
0000
,
1002
0000
0100
0000
,
0010
0000
0000
0000
0103
0000
0001
0100
,
1000
0000
1000
0100
0001
0000
0001
0100
,
0010
1000
0001
0010
,
2001
0000
0010
0000
,
0100
0000
0000
0000
3010
0000
1000
0010
,
0001
0000
0001
0010
1000
0000
1000
0010
,
0100
0001
1000
0100
,
0010
0001
1001
0010
1000
1001
0100
0110
;

//---------------dance-single - ----------------
#NOTES:
     dance-single:
     :
     Medium:
     6:
     0.418,0.421,0.181,0.383,0.000:
0000
0000
0000
0000
,
0000
1000
0100
0010
,
0002
0000
0000
0000
,
0000
0000
0000
0000
0000
0000
1000
1000
,
0000
0000
0010
0010
0000
0000
0100
0203
,
0000
1000
0010
0301
,
2000
0000
0000
0000
,
0000
0000
0000
0000
0000
0000
0001
0001
,
0000
0000
0100
0100
0000
0000
0010
3020
,
0000
0001
0100
1030
,
0220
0000
0330
0000
1000
0100
0000
1000
,
0100
0000
1000
0100
0000
0000
0010
0000
,
0110
0000
0000
0000
0001
0100
0000
0100
,
0001
0000
0100
0001
0000
0010
0000
0100
,
0000
1000
0200
0000
0310
0000
0000
0001
,
0000
0100
0020
0000
0130
0000
0000
1000
,
0000
0001
0002
0000
0013
0000
0000
0100
,
0000
1000
2000
0000
3020
0000
0100
0000
,
0031
0000
0000
0000
1000
0010
0000
0010
,
0100
0000
0100
0001
0000
0001
1000
0000
,
1001
0000
0000
0000
0001
0010
0000
0010
,
0100
0000
0100
0010
0000
0001
0000
1000
,
0000
0020
0100
0000
0031
0000
0000
2000
,
0000
0000
0100
0000
3001
0000
0000
0100
,
0000
0002
0100
0000
1003
0000
0000
0200
,
0000
0010
0301
0010
,
1100
0010
0101
0010
,
1001
0000
0000
0000
0100
0010
0100
0000
,
0100
1100
0100
0101
,
0110
0000
0000
0000
0001
1000
0001
0000
,
1000
1100
0001
0101
,
1001
0000
0000
0000
0010
0100
0010
0000
,
0002
0000
2003
0000
3100
0020
0000
0200
,
0000
0330
0001
0100
,
2000
0000
3200
0000
,
0302
0010
1003
0010
,
0100
0000
0001
1000
0000
0001
0000
1000
,
0200
0310
0002
1003
,
0010
0000
0200
0001
0000
0010
0000
1300
,
0000
1000
0100
0001
,
0010
0000
0100
2000
0000
0010
0000
3001
,
0000
1001
1000
0010
,
0002
0000
0023
0000
,
2030
0100
3001
0100
,
0010
0000
1000
0001
0000
1000
0000
0002
,
0000
0100
0010
1003
,
0100
0000
0010
0001
0100
0000
0010
1000
,
0100
0000
0010
0001
1000
0000
0010
1000
,
0001
0000
0010
0000
0100
2000
0000
0001
,
3000
0002
1000
0000
0103
0000
0010
0000
,
1001
0000
0010
0100
,
0110
0000
0000
1001
0000
0000
0110
0000
,
2000
0000
0100
0000
,
0000
0000
3001
0100
,
0010
1000
0001
0010
,
0200
0001
0010
1300
,
0002
0000
0010
0000
,
0000
0000
1003
0010
,
0100
0001
1000
0100
,
0020
1000
0100
0031
,
1000
0010
0100
0001
0000
0010
0100
1000
;

//---------------dance-single - ----------------
#NOTES:
     dance-single:
     :
     Easy:
     4:
     0.358,0.485,0.372,0.372,0.000:
0000
0000
0000
0000
,
0000
0000
0000
0000
,
0020
0000
0000
0000
,
0030
0000
0000
1000
,
1000
0001
0001
0100
,
0220
0000
0330
0000
,
0200
0000
0000
0000
,
0300
0000
0000
0001
,
0001
1000
1000
0010
,
0220
0000
0330
0000
,
0000
0000
1000
0100
,
0010
0000
0001
0100
,
1001
0000
0010
1000
,
0001
0010
0001
0100
,
0020
1000
0130
0000
,
0200
0001
0310
0000
,
0020
1000
0130
0000
,
0200
0001
0010
0301
,
0110
0000
0001
0010
,
0100
0010
0001
1000
,
1001
0000
1000
0010
,
1000
0100
0010
0001
,
2100
0001
3010
0000
,
0102
0010
1003
0000
,
2100
0001
3010
0000
,
0102
0010
1000
0013
,
0101
0101
1100
1100
,
0110
0000
1000
1001
,
1100
1100
0101
0101
,
0110
0000
0010
1001
,
0001
0101
0100
1100
,
1010
0000
1000
1100
,
0010
0011
0001
1000
,
1001
0000
0200
0320
,
0230
0000
1000
0000
,
0001
0000
0310
1000
,
0001
0010
0100
0010
,
0002
1000
1000
1003
,
0020
0000
0100
0000
,
0001
0000
0100
0000
,
1030
0100
0010
0001
,
1000
0010
0100
0001
,
2000
0000
0100
0000
,
3001
0101
1000
1100
,
0010
0100
1000
0010
,
0100
0000
0001
0100
,
2000
3000
0200
0300
,
0002
0003
0020
0030
,
0200
1000
0010
0001
,
0310
0000
0001
1000
,
1001
0000
0110
0000
,
2002
0000
0000
3003
,
0200
0000
0000
0000
,
0310
0000
0000
0001
,
0001
1000
1000
0010
,
0220
0000
0330
0000
,
0020
0000
0000
0000
,
0130
0000
0000
1000
,
1000
0001
0001
0100
,
0220
0000
0330
0000
,
1000
0000
0001
0000
1000
0000
2002
3003
;

//---------------dance-single - ----------------
#NOTES:
     dance-single:
     :
     Beginner:
     2:
     0.181,0.226,0.021,0.000,0.000:
0000
0000
0000
0000
,
0000
0000
0000
0000
,
0010
0000
0000
0000
,
0010
0000
0000
0000
,
0100
0000
0100
0100
,
0100
0000
0000
0000
,
1000
0000
0000
0000
,
1000
0000
0000
0000
,
0001
0000
0001
0001
,
0001
0000
0000
0000
,
0000
0000
1000
0000
,
1000
0000
1000
0000
,
0000
0000
0001
0000
,
0001
0000
0001
0000
,
0100
0100
0100
0000
,
0010
0010
0010
0000
,
0100
0100
0100
0000
,
0010
0010
0010
0000
,
1000
0000
0100
0000
,
0010
0000
0001
0000
,
0100
0000
0010
0000
,
1000
0000
0001
0000
,
1000
1000
1000
0000
,
0001
0001
0001
0000
,
1000
1000
1000
0000
,
0001
0001
0001
0000
,
0100
0000
0010
0000
,
0100
0000
0000
0000
,
0010
0000
0100
0000
,
0010
0000
0000
0000
,
1000
0000
0001
0000
,
1000
0000
0000
0000
,
0001
0000
1000
0000
,
0001
0000
0100
0100
,
0100
0000
0000
0000
,
0010
0000
1000
0000
,
0001
0000
0010
0000
,
0100
0000
0010
0010
,
0010
0000
0000
0000
,
0001
0000
1000
0000
,
0010
0000
0100
0000
,
0001
0000
1000
1000
,
1000
0000
0000
0000
,
0100
0000
0010
0000
,
0001
0000
0100
0000
,
0010
0000
1000
0000
,
0001
0000
0010
0000
,
0100
0000
1000
0000
,
0010
0000
0001
0001
,
0001
0000
0010
0000
,
1000
0000
0100
0000
,
0010
0000
0000
0000
,
0100
0000
0000
0000
,
0100
0000
0000
0000
,
0010
0000
0010
0010
,
0010
0000
0110
0000
,
0001
0000
0000
0000
,
0001
0000
0000
0000
,
1000
0000
1000
1000
,
1000
0000
1001
0000
,
0010
0000
0010
0000
0010
0000
0000
0010
;

//---------------dance-single - LIFTS----------------
#NOTES:
     dance-single:
     LIFTS:
     Edit:
     8:
     0.597,0.582,0.733,0.255,0.000:
0000
0000
0000
0000
,
0000
1000
0100
0010
,
1002
0000
L003
00L0
,
2001
0000
300L
00L0
,
0100
0000
0001
0010
0100
0000
1000
0010
,
0100
0000
0000
0000
0000
0000
0000
0000
0000
0000
0000
0000
0000
0000
0000
0000
0002
0003
0000
0000
0000
0000
0000
0000
0000
0000
0000
0000
0000
0000
0000
0000
0200
0300
0000
0000
0000
0000
0000
0000
0000
0000
0000
0000
0000
0000
0000
0000
2000
3000
0000
0000
0000
0000
0000
0000
0000
0000
0000
0000
0000
0000
0000
0000
,
0020
0000
0001
0000
0L30
0000
000L
1000
,
0200
0000
1000
0000
03L0
0000
L000
0010
,
0001
0000
0010
1000
0001
0000
0010
0001
,
1000
0100
1100
0000
0011
0000
1001
0000
,
0200
0000
0000
0000
0310
1000
0000
1000
,
0100
0000
1000
0100
0000
1000
LL00
0000
,
0010
0000
0001
0000
0100
0001
0000
0100
,
0001
0000
0001
0010
0000
0011
0000
1100
,
0000
0L10
0000
000L
0L00
10L0
0000
1001
,
0000
L100
0000
L000
0L00
00L1
0000
0011
,
0000
010L
0000
00L0
L000
001L
0000
0110
,
0000
00L1
0000
L000
00L0
001L
0000
L010
,
1001
0010
0100
0000
1001
0100
0000
0010
,
1000
0000
0010
0001
0000
0100
1001
0000
,
0101
0000
1010
0000
1000
0100
0000
0001
,
0010
0000
0010
0100
0000
1100
0000
0011
,
0000
100L
0000
00L0
000L
01L0
0000
1010
,
0000
L001
0000
00L0
L000
01L0
0000
1001
,
0000
010L
0000
00L0
0L00
10L0
0000
0110
,
0000
0L01
0000
00L0
0L00
L100
0010
0001
,
0100
0001
0010
0001
0000
1000
0100
1000
,
0000
0010
0001
0010
1000
0010
0100
0010
,
1000
0100
0010
0001
0000
1000
0010
1000
,
0000
0001
0100
0001
0010
0100
1001
0000
,
0001
0000
0L00
L100
0000
1000
0000
0L01
,
0000
0001
0010
0100
1000
0001
1000
0000
,
1100
0000
0011
0000
1000
0001
0000
1001
,
0000
0010
0100
0000
1001
0000
0110
0000
,
1000
0100
2000
0000
0L00
0000
300L
0000
,
0102
0010
L000
0L03
,
0010
1000
0100
0000
0010
0001
0100
0000
,
1001
0110
1001
0110
,
0001
0010
0002
0000
0L00
0000
L003
0000
,
1000
0100
2000
0000
000L
0000
30L0
0000
,
0100
0010
0100
0000
0010
0001
0000
1001
,
0000
0001
1000
0010
0010
0010
0100
0100
,
0002
0010
0L00
L003
,
2000
0010
0L00
300L
,
1001
0000
0010
0100
0000
1100
0000
0011
,
0000
0001
0100
0000
1010
0000
0101
0000
,
1001
0000
1000
0100
0001
0000
0001
0100
,
1000
0000
0001
0100
1000
0000
1000
0100
,
0001
0000
1000
0000
0L01
000L
0L00
L002
,
0000
0100
0103
0010
1000
0001
0010
0100
,
2000
0000
00L0
0000
,
0002
0000
0000
3003
,
1002
0000
L003
00L0
,
2001
0000
300L
00L0
,
0100
0000
0001
0010
0100
0000
1000
0010
,
0100
0000
0000
0000
0000
0000
0000
0000
0000
0000
0000
0000
0000
0000
0000
0000
0002
0003
0000
0000
0000
0000
0000
0000
0000
0000
0000
0000
0000
0000
0000
0000
0200
0300
0000
0000
0000
0000
0000
0000
0000
0000
0000
0000
0000
0000
0000
0000
2000
3000
0000
0000
0000
0000
0000
0000
0000
0000
0000
0000
0000
0000
0000
0000
,
0020
0000
0001
0000
0L30
0000
000L
1000
,
0200
0000
1000
0000
03L0
0000
L000
0010
,
0001
0000
0010
1000
0001
0000
0010
0001
,
1000
0100
1100
0000
0011
0000
1001
0000
,
0100
1001
0010
1001
0100
1001
0010
1001
;

//---------------dance-single - ----------------
#NOTES:
     dance-single:
     :
     Challenge:
     9:
     0.714,0.744,0.319,0.563,0.149:
0000
0000
0000
0000
,
0000
0002
0203
0320
,
2030
0100
3000
0100
1000
0010
0001
0010
,
0100
0001
0000
0001
0010
1000
0010
0100
,
2000
0100
0000
3001
0200
0001
0000
0310
,
0002
0010
2000
0003
3200
0000
0302
0000
,
0023
0100
0030
0100
0010
1000
0010
0001
,
0200
0010
0300
0010
0100
0001
0100
1000
,
0200
1000
0000
0301
0020
0001
0000
0130
,
2000
0100
0001
3000
0101
0000
1100
0000
,
1001
0000
0000
0000
0001
0100
0000
0001
,
0100
0000
0001
0010
0000
0010
0001
0000
,
1010
0000
0000
0000
1000
0100
0100
1000
,
0100
0100
0100
1000
0001
1001
0000
0201
,
0000
0010
1300
0010
0001
1000
0000
0102
,
0000
0010
0103
1000
0010
0001
0000
1020
,
0000
0100
0031
1000
0100
0001
0000
2010
,
0000
0100
3001
0100
0010
0001
1000
0100
,
0010
0000
0001
0000
0100
0000
0000
0001
0100
0000
0001
0000
1000
0000
0000
1000
,
0100
0000
1000
0000
0010
0000
0000
0100
0001
0000
0010
0000
0100
0000
0000
0100
,
0010
0000
0001
0000
1000
0000
0000
1000
0010
0000
0001
0000
0010
0000
0000
0100
,
0001
0000
0010
0000
0100
0000
0000
1000
0100
0000
1001
0000
0000
0000
0021
0000
,
0000
0100
1030
0100
0001
1000
0000
0012
,
0000
0100
0013
1000
0100
0001
0000
1200
,
0000
0010
0301
1000
0010
0001
0000
2100
,
0000
0000
0100
0000
3001
0000
0010
0000
0001
1000
0001
1000
0001
1000
0001
1000
,
0001
0010
0100
0100
0000
1000
0010
1000
,
0000
0001
0010
0001
0001
1000
0010
1000
,
0100
0010
0001
0001
0000
0100
0001
0100
,
0000
0010
1000
1000
0100
0001
0100
0000
,
1000
0010
0010
0100
0000
1000
0100
1000
,
0000
0001
0001
0100
0001
0010
1000
0000
,
0011
0100
1010
0100
1001
0101
0000
1100
,
0000
0000
1000
0000
0001
0000
1000
0000
0001
0000
1000
0001
1000
0001
1000
0001
,
0100
0001
0100
0000
1000
0100
1000
0000
,
0020
0032
0203
2300
,
3020
0000
0100
0000
0130
0000
0000
0000
0001
0000
0010
0000
0001
0000
0000
0001
,
0100
0000
0000
0100
0001
0000
0000
0001
1000
0000
0000
1000
0010
0000
0000
0010
,
1000
0100
1000
0000
0010
0001
0010
0000
,
1000
0010
2000
0000
3200
0000
0302
0000
,
0023
0000
2030
0100
3000
0100
1000
2002
,
3003
0000
0010
0000
0100
0000
0010
0000
0100
0000
0010
0100
0010
0100
0010
0100
,
0001
0010
0100
0000
1000
0010
0100
0000
,
0200
0302
0023
2030
,
3200
0000
0301
1000
0000
1000
0100
1000
,
0000
1000
0100
0000
0010
0000
0001
0000
,
1010
0000
1000
0010
0001
0010
0100
0000
,
0101
0000
0001
0010
1000
0010
0100
0000
,
1100
0000
0010
0001
1000
0010
0001
1000
,
0000
0000
0100
0000
0001
0000
0010
0000
0100
0000
1000
0001
1000
0000
0010
0100
,
0020
0000
0230
0000
,
0301
1000
0001
1000
0001
0000
1000
0001
1000
0001
1000
0000
1001
0000
0000
0000
,
1000
0100
0000
0100
1000
0010
0001
0010
,
0100
0001
0000
0001
0010
1000
0010
0100
,
2000
0100
0000
3001
0200
0001
0000
0310
,
0002
0010
2000
0003
3200
0000
0302
0000
,
0023
0100
0030
0100
0010
1000
0010
0001
,
0200
0010
0300
0010
0100
0001
0100
1000
,
0200
1000
0000
0301
0020
0001
0000
0130
,
2000
0100
0001
3000
0101
0000
1100
0000
,
1001
0001
0100
1001
1000
0010
1001
1001
;

//---------------dance-double - ----------------
#NOTES:
     dance-double:
     :
     Challenge:
     8:
     0.588,0.550,0.287,0.319,0.000: // measure 1
00000000
00000000
00000000
00000000
,  // measure 2
00000000
00000000
00000000
00000000
,  // measure 3
00200000
10000000
00000000
10300000
01000000
00010000
00001000
00000000
,  // measure 4
00000020
00000001
00000000
00000031
00000100
00001000
00010000
00000000
,  // measure 5
00001000
00100000
00000000
00010000
00000100
00000000
00001000
00000010
,  // measure 6
00010000
00200000
20300000
30020000
,  // measure 7
02030000
00100000
03000000
00100000
00001000
00010000
00000010
00001000
,  // measure 8
00000002
00000100
00000000
00000103
00000010
00010000
00001000
00100000
,  // measure 9
01000000
00000000
10000000
00100000
00010000
00000000
00001000
00000100
,  // measure 10
00000001
00000000
00000010
00000000
00000100
00000010
00000100
00000000
,  // measure 11
00000110
00000000
00000000
00000000
00000001
00000100
00000000
00000001
,  // measure 12
00000100
00000000
00000010
00001000
00000000
00000000
00011000
00000000
,  // measure 13
00010000
00000000
00000000
00000000
00010000
00100000
00000000
00010000
,  // measure 14
00100000
00000000
10000000
00100000
00000000
10100000
00000000
01010000
,  // measure 15
00000000
00100000
00010000
00001000
00010000
00100000
00000000
10010000
,  // measure 16
00000000
00001000
00010000
01000000
00010000
00001000
00000000
00000101
,  // measure 17
00000000
00000010
00001000
00100000
00001000
00000010
00000000
00011000
,  // measure 18
00000000
00000100
00000010
00000100
00000001
00000010
00000100
00001000
,  // measure 19
00000001
00000100
00000001
00000000
00000010
00000100
00000010
00000000
,  // measure 20
00000100
00000000
00010000
00000010
00000000
00000010
00010000
00000000
,  // measure 21
00001000
01000000
00001000
00000000
00100000
00010000
00100000
00000000
,  // measure 22
01000000
00000000
10000000
00100000
00000000
00110000
00000000
00101000
,  // measure 23
00000000
00010000
00000100
00001000
00000100
00010000
00000000
00101000
,  // measure 24
00000000
00000100
00010000
01000000
00010000
00000100
00000000
00000011
,  // measure 25
00000000
00001000
00000010
00010000
00000010
00001000
00000000
00010100
,  // measure 26
00000000
00100000
00001000
00000010
00001000
00100000
01000000
10000000
,  // measure 27
00100000
00010000
00100000
00010000
00000000
00001000
01000000
00001000
,  // measure 28
00000000
00010000
00000100
00000100
00000010
00000001
00001000
00000000
,  // measure 29
00000001
00000100
00000001
00000100
00000000
00000010
00001000
00000010
,  // measure 30
00000000
00010000
00010000
00001000
00100000
01000000
10000000
00000000
,  // measure 31
00100000
00100000
01000000
00001000
00000000
00010000
00010000
00000100
,  // measure 32
00000000
00000010
00000010
00000001
00001000
00000001
00000100
00000100
,  // measure 33
00001000
00000000
00010000
00000000
00000100
00000010
00000000
00001000
,  // measure 34
00000000
00000001
00000010
00000000
00001100
00000000
00000011
00000000
,  // measure 35
00000001
00000100
00001000
00000000
00000001
00000100
00000010
00000000
,  // measure 36
00000001
00000100
00001000
00000000
00000001
00000100
00000010
00000000
,  // measure 37
00010000
00001000
01000000
00000000
01000000
00001000
00010000
00001000
,  // measure 38
02000000
23000000
32000000
03020000
,  // measure 39
00130000
00000000
10000000
01000000
00010000
00000000
01100000
00000000
,  // measure 40
00101000
00000000
10000000
00100000
00010000
00000000
01100000
00000000
,  // measure 41
01001000
00000000
00100000
00010000
00001000
00000100
00000010
00001000
,  // measure 42
00000000
00000001
00000010
00000001
00000100
00001000
01000000
00010000
,  // measure 43
00200000
00000000
01300000
00000000
10000000
00100000
10000000
00000000
,  // measure 44
00002000
00000000
00013000
00000000
00000010
00000100
00000010
00000000
,  // measure 45
00020000
00000000
00001000
00031000
00000000
00011000
00000000
00001010
,  // measure 46
00000000
00010100
00101000
01010000
,  // measure 47
10100000
00000000
10000000
01000000
00100000
00000000
01000000
00100000
,  // measure 48
00010000
00000000
01000000
00100000
00001000
00000000
00100000
00001000
,  // measure 49
00000100
00000000
00001000
00000100
00000010
00000001
00000100
00000010
,  // measure 50
00000000
00000010
00000100
00000000
00000001
00000001
00001000
00001000
,  // measure 51
00000020
00000030
00000200
00000300
,  // measure 52
00020000
00000000
00000000
00001000
00000000
00000000
00031000
00000000
,  // measure 53
00000200
00000001
00000000
00000301
00000010
00001000
00010000
00000000
,  // measure 54
02000000
10000000
00000000
13000000
00100000
00010000
00001000
00000000
,  // measure 55
00010000
00000100
00000000
00001000
00100000
00000000
00010000
01000000
,  // measure 56
00001000
00000200
00000302
00002003
,  // measure 57
00003020
00000100
00000030
00000100
00010000
00001000
01000000
00010000
,  // measure 58
20000000
00100000
00000000
30100000
01000000
00001000
00010000
00000100
,  // measure 59
00000010
00000000
00000001
00000100
00001000
00000000
00010000
00100000
,  // measure 60
10000000
00000000
01000000
00000000
00100000
01000000
00100000
00000000
,  // measure 61
02200000
03300000
00000000
00000220
00000330
00000000
02200000
03300000
;
