#TITLE:とおせんぼ;
#SUBTITLE:;
#ARTIST:wowaka feat. 腹話 + 秋赤音;
#TITLETRANSLIT:Toosenbo (Standing in your way);
#SUBTITLETRANSLIT:;
#ARTISTTRANSLIT:wowaka feat. Fukuwa + Akiakane;
#GENRE:;
#CREDIT:Frozen_Heat/Azn_Punk_07/GuardianFrozen;
#MENUCOLOR:#f4f602;
#METERTYPE:DDR;
#BANNER:Toosenbo-bn.png;
#BACKGROUND:Toosenbo-bg.png;
#LYRICSPATH:Toosenbo.lrc;
#CDTITLE:!cdtitle.png;
#MUSIC:Toosenbo.mp3;
#OFFSET:-0.039;
#SAMPLESTART:71.360;
#SAMPLELENGTH:17.300;
#SELECTABLE:YES;
#LISTSORT:;
#BPMS:0.000=222.000,295.500=258.000,296.000=222.000,327.000=217.000,328.000=222.000;
#STOPS:;
#BGCHANGES:;
#ATTACKS:;

//---------------dance-single - ----------------
#NOTES:
     dance-single:
     :
     Challenge:
     9:
     0.803,0.819,0.551,0.184,0.000:
0000
0000
0000
0000
,
0000
0000
0000
0000
,
0000
0000
0000
0000
,
0000
0000
0000
0000
,
0000
0000
0000
0000
,
0000
0000
0000
0000
,
1001
0000
0110
0000
0001
0010
0100
1000
,
0000
1000
0001
0000
0000
0000
0000
0000
,
0000
0011
0000
0000
1010
0000
0000
0101
,
0000
1100
0000
0000
,
1001
0000
0010
0000
0101
0000
0001
0010
,
0000
0010
1000
0000
0010
0000
0100
0000
,
1100
0000
0010
0000
1001
0000
1000
0010
,
0000
0010
0001
0000
0010
0000
0101
0000
,
1001
0000
0010
0000
0110
0000
0001
0100
,
0000
0110
0000
0010
1000
0000
0100
0000
,
0011
0000
0100
0000
1100
0000
1000
0010
,
0000
0110
0000
0100
0010
0000
1000
0000
,
0001
0000
0001
0100
0001
0000
0001
0100
,
0000
0101
0000
0100
0010
0100
0010
1000
,
0100
0000
0100
1000
0100
0000
0100
1000
,
0000
1001
0000
1000
0100
1000
0100
0010
,
0001
0000
0001
0100
0000
0001
0010
0100
,
1000
1010
0101
1001
,
0010
0100
1000
0010
0100
0001
0010
0100
,
1000
0001
0100
0010
1000
0001
0010
0000
,
0100
0000
0000
0100
1000
0000
1000
0001
,
0000
1000
0001
1000
0010
0100
0010
0100
,
0001
0000
0000
0001
0010
0000
0010
0100
,
0000
1000
1100
0101
,
0010
0000
1100
0000
1000
0100
1000
0001
,
0000
0010
0001
0000
0100
0000
0100
0000
,
0010
0000
1000
0010
0000
0100
0001
0100
,
0000
0001
0000
0010
0100
1000
0100
0010
,
0001
0000
1000
0000
0101
0000
0001
0010
,
0000
0001
0100
0010
1000
0100
1000
0100
,
0010
0000
0100
0000
1000
0000
0001
0100
,
0000
1000
0100
0010
0100
0001
0010
0001
,
0010
0000
0100
0000
0010
0001
1000
0010
,
0000
1000
0010
0000
0100
0000
0001
0000
,
1000
0000
0100
0010
0000
0001
0100
1000
,
0000
0100
0000
0010
1000
0100
0001
0100
,
1000
0000
0100
0000
0010
0001
0010
0001
,
0100
0010
1000
0010
1000
0001
1000
0001
,
0100
0000
0100
0000
0001
1000
0001
1000
,
0100
0010
0100
1000
0001
1000
0001
0010
,
0100
0000
0100
0000
0010
0100
0010
0100
,
1000
0100
1000
0100
0010
0001
1000
0001
,
1000
0000
0010
0000
0100
0010
0100
0001
,
0010
1000
0010
1000
0010
0001
0010
0001
,
0100
0000
0011
0000
1100
0000
0001
1000
,
0000
0001
1000
0001
0100
0100
1000
0100
,
0010
0000
0101
0000
1010
0000
0001
1000
,
0000
0001
2000
0000
3200
0000
0302
0000
,
0103
0000
0000
0010
0001
0000
0100
0010
,
0000
0010
1000
0000
0011
0000
1010
0000
,
0010
0100
0010
0100
0010
0100
0010
0100
,
0001
1000
0001
1000
0001
0010
0100
0000
,
1010
0000
0011
0000
1000
0010
0001
0010
,
0000
0010
0100
0001
0001
0010
1000
0010
,
0100
0000
1100
0000
0011
0000
0001
0100
,
0000
0010
1000
0000
0100
0000
0001
0000
,
1100
0000
0011
0000
1001
0000
1000
0010
,
0000
0100
0001
0000
1010
0000
0101
0000
,
1002
0000
0013
0100
1000
0100
0010
0000
,
2001
0000
3100
0010
0001
0010
0100
0000
,
1001
0000
0010
0000
0101
0000
0001
0010
,
0000
0010
1000
0000
1010
0000
0011
0000
,
1001
0000
0010
0000
0101
0000
0001
0100
,
0000
0100
1000
0000
1100
0000
0101
0000
,
1001
0000
0010
0000
1100
0000
0010
0001
,
0000
0100
0001
0000
0100
0000
0010
0000
,
2000
0000
3100
0010
0001
0010
0200
0000
,
0320
0000
0031
1000
0001
1000
0010
0100
,
0010
0000
1010
0000
0101
0000
0001
1000
,
0000
1000
0001
0001
0010
1000
0010
0100
,
1000
0000
1100
0000
0011
0000
1000
0100
,
0000
0001
0100
0001
1000
1000
0100
0001
,
0100
0000
0010
0000
1000
0000
0001
1000
,
0000
0001
1000
0000
0100
0010
0100
0000
,
1000
0010
0002
0000
0013
0100
0002
0000
,
0103
0010
2000
0000
3001
0100
2000
0000
,
3100
0010
0001
0010
0100
0000
0001
0010
,
0000
0010
1000
0010
0100
0010
0001
1000
,
0010
0001
0010
0100
0001
0000
0001
1000
,
0000
1000
0100
1000
0010
0001
0010
0100
,
0001
0010
0100
1000
0100
0000
0100
1000
,
0000
1000
0010
0000
0001
0010
0100
0001
,
2000
0000
3100
0010
0001
0010
0200
0000
,
0320
0000
0031
1000
0001
1000
0010
0100
,
0010
1000
0100
0000
1000
0000
0001
0100
,
0000
1000
0100
1000
0001
0010
1000
0010
,
0100
1000
0010
0000
0001
0000
0010
0100
,
0000
0001
0010
1000
0010
0100
1000
0001
,
0100
0001
0010
1000
0010
0100
0010
0100
,
0000
0100
0001
0000
0100
1000
0100
1000
,
0200
0010
0301
0000
0020
0100
1030
0000
,
0200
0010
0301
0000
0020
0100
1030
0000
,
1100
0000
0101
0000
1000
0010
0001
0010
,
1000
0100
0001
0100
1000
0010
0001
0010
,
1000
0100
0010
0001
1000
0010
0100
0001
,
1000
0100
0001
0010
0001
0100
1000
0010
,
0101
0000
1100
0000
1001
0000
0010
0100
,
0000
0100
0010
0000
2002
0000
0003
0000
,
3000
0000
0000
0000
;

//---------------dance-single - ----------------
#NOTES:
     dance-single:
     :
     Hard:
     8:
     0.545,0.681,0.297,0.192,0.000:
0000
0000
0000
0000
,
0000
0000
0000
0000
,
0000
0000
0000
0000
,
0000
0000
0000
0000
,
0000
0000
0000
0000
,
0000
0000
0000
0000
,
0001
0000
1000
0000
0001
1000
0002
2000
,
0000
3003
0000
0000
,
0000
0100
0000
0000
0100
0000
0000
0100
,
0000
0100
0000
0000
,
0001
0000
0000
0000
0010
0000
0000
0001
,
0000
0001
0000
0001
0010
0000
0000
0000
,
1000
0000
0000
0000
0010
0000
0000
1000
,
0000
1000
0000
1000
0010
0000
0000
0000
,
0001
0000
0000
0000
0100
0000
0000
0001
,
0000
0001
0000
0100
0001
0000
0000
0000
,
1000
0000
0000
0000
0100
0000
0000
1000
,
0000
1000
0000
0100
1000
0000
0000
0000
,
0010
0000
0000
0000
0100
0000
0000
0001
,
0000
1000
0000
0100
0010
0000
0100
0000
,
1000
0000
0000
0000
0001
0000
0000
0100
,
0000
0010
0000
0100
0001
0000
1000
0000
,
0100
0000
0000
0010
0000
0000
0001
0000
,
1000
0000
0010
0000
0100
0000
0001
1000
,
0001
2000
0002
0000
,
0000
0000
0000
3003
,
0001
0000
0000
0000
1000
0000
0000
1001
,
0000
1000
0100
0010
,
0001
0000
0000
0000
1000
0000
0000
1001
,
0000
0100
0010
0100
,
0001
0000
0000
0000
0010
0000
0001
1000
,
0000
1000
0001
0000
0010
0000
0100
0000
,
1000
0000
0000
0010
0000
0100
0010
0100
,
0000
0100
0100
0100
,
0001
0000
0000
0000
0101
0000
0000
1001
,
0000
1000
0100
0000
1000
0001
1000
0000
,
0010
0000
0000
0000
1010
0000
0000
1001
,
0000
0000
0001
0000
0001
0100
0001
0000
,
0010
0000
0010
0000
0100
0000
1000
0001
,
0000
0001
0100
0000
0010
0000
1000
0000
,
0100
0000
0010
0100
0000
0010
0100
0010
,
0000
0001
1001
1000
,
0010
0010
0100
0001
,
0010
0010
0100
1000
,
0010
0010
0100
0001
,
2000
0100
0002
3003
,
0010
0010
0001
0100
,
0010
0010
1000
0001
,
0010
0010
0100
1000
,
0002
0100
1000
0103
,
0001
0000
0000
0000
1001
0000
0000
0110
,
0000
0001
0010
0000
0001
0100
0001
0000
,
1000
0000
0000
0000
1001
0000
0000
0110
,
0000
1000
0100
0010
,
0100
0000
0000
0000
0110
0000
0000
1001
,
0000
1000
0001
0010
,
2002
0000
0000
3003
,
0010
0010
0100
0000
,
1000
0000
0010
0000
0001
0000
0010
0100
,
0000
0100
0010
0000
1000
0001
1000
0000
,
0100
0000
0001
0000
0100
0000
1000
0001
,
0000
1001
0010
0100
,
0001
0000
0010
0000
0100
0000
1000
0010
,
0000
0010
0001
0000
0010
0000
0100
0000
,
0002
0010
1003
1000
,
2000
0100
0002
3003
,
0100
0000
0100
0000
0010
0000
0000
1000
,
0000
0010
0100
0000
0001
0000
0001
0000
,
0010
0000
0010
0000
0100
0000
0000
1000
,
0000
0100
0010
0000
0001
1000
0001
0000
,
0100
0000
0100
0000
0010
0000
0000
1000
,
0000
1000
0001
0000
0010
0000
0100
0000
,
0020
0000
0031
1000
0100
0000
0010
0000
,
0200
0000
1300
0001
0100
0000
0001
0000
,
0010
0000
0001
0000
1000
0000
0010
0001
,
0000
0010
0100
0000
0001
0000
0001
0000
,
0010
0000
0100
0000
1000
0000
0010
0100
,
0000
0010
1000
0000
0100
0000
0100
0000
,
0010
0000
0001
0000
1000
0000
0010
0100
,
0000
0100
0001
0000
0010
0000
0100
0000
,
0020
0030
0200
0300
,
2000
3000
0002
0003
,
0011
0000
1100
0000
0011
0000
1000
0001
,
0000
1000
0001
0000
0100
0000
0000
0000
,
1001
0000
0110
0000
1001
0000
0010
0100
,
0000
0010
0100
0000
0010
0000
0000
0000
,
0011
0000
1100
0000
0011
0000
1000
0100
,
0000
0100
1000
0000
0010
0000
0100
0000
,
0002
0000
0013
0100
1000
0000
0001
0000
,
2000
0000
3100
0010
0001
0000
1000
0000
,
0101
0000
1010
0000
0101
0000
0001
0100
,
0000
0010
1000
0010
1000
0000
0000
0000
,
1100
0000
0011
0000
1100
0000
1000
0100
,
0000
1000
0100
0010
0001
0000
0000
0000
,
0100
0000
0100
0000
0010
0000
0010
0100
,
0000
0100
0010
0000
1000
0001
1000
0000
,
0100
0010
0001
0000
0010
0100
1000
0000
,
0100
0010
0001
0000
0010
0100
1000
0000
,
1001
0000
1001
0000
0001
1000
0001
0000
,
1000
0001
1000
0000
0001
1000
0001
0000
,
0110
0000
1000
0010
0100
0000
0001
0010
,
0100
0000
1000
0100
0010
0001
1000
0100
,
0010
0000
0010
0000
0010
0000
0000
0100
,
0000
0000
0100
0000
2002
0000
0000
3003
;

//---------------dance-single - ----------------
#NOTES:
     dance-single:
     :
     Medium:
     6:
     0.396,0.407,0.096,0.175,0.000:
0000
0000
0000
0000
,
0000
0000
0000
0000
,
0000
0000
0000
0000
,
0000
0000
0000
0000
,
0000
0000
0000
0000
,
0000
0000
0000
0000
,
0010
0010
0200
0320
,
0000
0000
0000
0030
,
0000
2000
0000
0000
0002
0000
0000
3000
,
0000
0003
0000
0000
,
0001
0000
1000
0000
,
0001
0010
0100
0000
,
1000
0000
0001
0000
,
1000
0010
0100
0000
,
0001
0000
0010
0000
,
0001
0100
0010
0000
,
1000
0000
0100
0000
,
1000
0010
0100
0000
,
0001
0000
0010
0000
,
0100
0010
0001
0000
,
0100
0000
0010
0000
,
1000
0010
0100
0000
,
0001
0000
0000
1000
0000
0000
0001
0000
,
1000
0001
1000
0000
,
0200
0000
0020
0000
,
0000
0000
0000
0330
,
0001
0000
0000
0000
0001
0000
0000
0001
,
0000
0001
0010
0100
,
1000
0000
0000
0000
1000
0000
0000
1000
,
0000
1000
0010
0100
,
0001
0000
0000
0000
0010
0000
0000
0001
,
0000
0010
0100
1000
,
0010
0000
0000
0000
1000
0000
0000
0010
,
0000
1000
0100
0010
,
0001
0000
0101
0000
,
1001
0000
1000
0001
,
1000
0000
1100
0000
,
1001
0000
0001
1000
,
0001
0100
0001
0000
,
1000
0100
1000
0000
,
0010
0100
0010
0100
,
0001
0010
0100
1000
,
0001
0001
0100
0000
,
0010
0010
1000
0000
,
1000
0100
0010
0001
,
1000
0100
0010
0001
,
1000
1000
0010
0000
,
0100
0100
0001
0000
,
0001
0010
0100
1000
,
0001
0010
0100
1000
,
0001
0000
0000
0000
0101
0000
0000
1001
,
0000
0001
1000
0001
,
1000
0000
0000
0000
1100
0000
0000
1001
,
0000
0010
0100
0010
,
0100
0000
0000
0000
1100
0000
0000
0101
,
0000
0100
0010
0100
,
0002
0000
0000
0000
,
2000
0000
3003
0000
,
0010
0010
0100
0001
,
0010
0000
0100
1000
,
0100
0000
0010
0100
,
1000
0000
0010
0100
,
0001
0001
1000
1000
,
0001
0010
0100
1000
,
2000
0000
0000
0000
,
0002
0000
0000
3003
,
0010
0010
0100
0000
,
0001
0010
0100
0000
,
0010
0010
0100
0000
,
1000
0010
0100
0000
,
0001
0010
1000
0010
,
0001
0100
1000
0100
,
0020
0100
0130
0000
,
2000
0001
3001
0000
,
0010
0100
1000
0100
,
0010
0001
0100
0000
,
0001
0100
0010
1000
,
0010
0100
0001
0000
,
1000
0100
0001
1000
,
0010
0001
1000
0010
,
0002
0000
0023
0000
,
2030
0000
3200
0000
,
0310
0001
1000
0000
,
0010
0100
0001
0000
,
1000
0100
0010
0000
,
0001
1000
0010
0000
,
0100
0001
0100
0000
,
0010
1000
0001
0000
,
0010
0001
0010
0100
,
0010
0001
1000
0000
,
0010
1000
0001
0000
,
0100
0001
0010
0000
,
0100
1000
0001
0000
,
1000
0010
1000
0000
,
0001
0100
0001
1000
,
0100
0010
0100
1000
,
0002
0000
0023
0000
,
2030
0000
3020
0000
,
0130
1000
0100
0010
,
0001
0100
0001
0100
,
0010
1000
0001
0010
,
0100
1000
0010
0100
,
0001
0000
0001
0000
0001
0000
0000
1001
,
0000
1000
1000
0000
;

//---------------dance-single - ----------------
#NOTES:
     dance-single:
     :
     Beginner:
     3:
     0.127,0.317,0.070,0.000,0.000:
0000
0000
0000
0000
,
0000
0000
0000
0000
,
0000
0000
0000
0000
,
0000
0000
0000
0000
,
0000
0000
0000
0000
,
0000
0000
0000
0000
,
0001
0000
0000
0000
,
0000
0000
0000
0000
,
0000
0000
0000
0000
,
0000
0000
0000
0000
,
0010
0000
0000
0000
,
0000
0000
0000
0000
,
0100
0000
0000
0000
,
0000
0000
0000
0000
,
1000
0000
0000
0000
,
0000
0000
0000
0000
,
0001
0000
0000
0000
,
0000
0000
0000
0000
,
1000
0000
0000
0000
,
0000
0000
0000
0000
,
0100
0000
0000
0000
,
0000
0000
0000
0000
,
0010
0000
0000
0000
,
0000
0000
0000
0000
,
0001
0000
0000
0000
,
0000
0000
0000
0000
,
0100
0000
0000
0000
,
0000
0000
0000
0000
,
0000
0000
0000
0000
,
0000
0000
0000
0000
,
0010
0010
0010
0000
,
0000
0000
0000
0000
,
0000
0000
0000
0000
,
0000
0000
0000
0000
,
1001
0000
0000
0000
,
0000
0000
0000
0000
,
0000
0000
0000
0000
,
0000
0000
0000
0000
,
1000
1000
1000
0000
,
0000
0000
0000
0000
,
0000
0000
0000
0000
,
0000
0000
0000
0000
,
0001
0000
0000
0000
,
1000
0000
0000
0000
,
0001
0000
0000
0000
,
0000
0000
0000
0000
,
0010
0000
0000
0000
,
0000
0000
0000
0000
,
0110
0000
0000
0000
,
0110
0000
0000
0000
,
1001
0000
0000
0000
,
0000
0000
0000
0000
,
0000
0000
0000
0000
,
0000
0000
0000
0000
,
0100
0100
0100
0000
,
0000
0000
0000
0000
,
0000
0000
0000
0000
,
0000
0000
0000
0000
,
0010
0000
0000
0000
,
0000
0000
0000
0000
,
0000
0000
0000
0000
,
0000
0000
0000
0000
,
0001
0001
0001
0000
,
0000
0000
0000
0000
,
0000
0000
0000
0000
,
0000
0000
0000
0000
,
1000
0000
0000
0000
,
0001
0000
0000
0000
,
1000
0000
0000
0000
,
0001
0000
0000
0000
,
1000
0000
0000
0000
,
0001
0000
0000
0000
,
1000
0000
0000
0000
,
0001
0000
0000
0000
,
0010
0010
0010
0000
,
0000
0000
0000
0000
,
0110
0000
0000
0000
,
0000
0000
0000
0000
,
0010
0000
0000
0000
,
0100
0000
0000
0000
,
0010
0000
0000
0000
,
0100
0000
0000
0000
,
1000
1000
1000
0000
,
0001
0000
0000
0000
,
1000
1000
1000
0000
,
0001
0000
0000
0000
,
0010
0010
0010
0000
,
0100
0000
0000
0000
,
0010
0010
0010
0000
,
0100
0000
0000
0000
,
0001
0001
0001
0000
,
0100
0000
0000
0000
,
1000
1000
1000
0000
,
0100
0000
0000
0000
,
0010
0010
0010
0000
,
0100
0100
0100
0000
,
0001
0001
0001
0000
,
1000
1000
1000
0000
,
0001
0000
0010
0000
,
0100
0000
1000
0000
,
0001
0000
0010
0000
,
0100
0000
1000
0000
,
1001
0000
0000
0000
,
0110
0000
0110
0000
;

//---------------dance-single - ----------------
#NOTES:
     dance-single:
     :
     Easy:
     4:
     0.229,0.407,0.079,0.000,0.000:
0000
0000
0000
0000
,
0000
0000
0000
0000
,
0000
0000
0000
0000
,
0000
0000
0000
0000
,
0000
0000
0000
0000
,
0000
0000
0000
0000
,
0110
0000
0000
0000
,
0110
0000
0000
0000
,
1000
0000
0000
0000
,
0000
0000
0000
0000
,
0001
0000
0100
0000
,
1000
0000
0000
0000
,
1000
0000
0100
0000
,
0001
0000
0000
0000
,
0001
0000
0100
0000
,
1000
0000
0000
0000
,
1000
0000
0100
0000
,
0001
0000
0000
0000
,
0010
0000
0000
0000
,
0100
0000
0000
0000
,
0010
0000
0000
0000
,
0100
0000
1001
0000
,
0010
0000
0000
0000
,
0100
0000
0000
0000
,
1000
0000
1000
0000
,
0001
0000
0000
0000
,
0010
0010
0100
0000
,
0000
0000
0000
0000
,
1000
1000
0001
0000
,
0000
0000
0000
0000
,
0100
0000
0010
0000
,
1000
0000
0001
0000
,
0010
0000
0100
0000
,
0010
0000
0000
0000
,
0001
0001
0100
0000
,
0000
0000
0000
0000
,
0010
0010
1000
0000
,
0000
0000
0000
0000
,
0100
0000
0010
0000
,
0100
0000
1000
0000
,
0010
0000
0100
0000
,
0001
0000
0000
0000
,
1001
0000
0010
0000
,
0100
0000
0010
0000
,
0100
0000
0010
0000
,
0100
0100
0100
0000
,
1001
0000
0010
0000
,
0100
0000
0010
0000
,
0100
0000
0010
0000
,
0100
0100
0100
0000
,
1100
0000
0000
0000
,
0000
0000
0000
0000
,
0010
0000
0100
0000
,
0010
0000
0000
0000
,
1000
0000
0000
0000
,
0001
0000
0000
0000
,
0010
0010
0010
0000
,
0100
0100
0100
0000
,
0101
0000
0000
0000
,
0000
0000
0000
0000
,
0010
0000
1000
0000
,
0001
0000
0010
0000
,
0100
0100
0100
0000
,
0010
0010
0010
0000
,
0001
0000
1000
0000
,
1001
0000
0000
0000
,
0010
0010
0010
0000
,
0100
0000
1000
0000
,
0010
0000
0100
0000
,
0001
0000
0010
0000
,
0001
0000
1000
0000
,
0010
0000
0100
0000
,
0001
0000
0000
0000
,
1000
0000
0000
0000
,
0001
0001
0001
0000
,
0010
0000
0100
0000
,
1000
0000
0010
0000
,
0100
0000
0001
0000
,
1000
0000
0000
0000
,
0100
0000
0000
0000
,
0010
0000
0010
0000
,
0001
0000
0001
0000
,
1000
1000
1000
0000
,
0010
0000
0000
0000
,
0100
0100
0100
0000
,
0001
0000
0000
0000
,
0010
0000
0100
0000
,
1000
0000
0010
0000
,
0100
0100
0100
0000
,
0010
0010
0010
0000
,
0001
1000
0001
0000
,
0000
0000
0000
0000
,
0010
0100
0010
0000
,
0000
0000
0000
0000
,
0100
0000
1000
0000
,
0010
0000
0100
0000
,
0001
0000
0010
0000
,
0100
0000
1000
0000
,
0001
0001
0001
0000
,
1000
1000
1000
0000
,
0100
0010
0100
0010
,
0100
0010
0100
0010
,
0100
0000
0000
0000
,
0100
0000
1001
0000
;

//---------------dance-double - ----------------
#NOTES:
     dance-double:
     :
     Challenge:
     7:
     0.507,0.591,0.114,0.166,0.000: // measure 1
00000000
00000000
00000000
00000000
,  // measure 2
00000000
00000000
00000000
00000000
,  // measure 3
00000000
00000000
00000000
00000000
,  // measure 4
00000000
00000000
00000000
00000000
,  // measure 5
00000000
00000000
00000000
00000000
,  // measure 6
00000000
00000000
00000000
00000000
,  // measure 7
00010000
00000000
00001000
00000000
00010000
00001000
00010000
00001000
,  // measure 8
00000000
00011000
00000000
00000000
,  // measure 9
00000000
00011000
00000000
00000000
00011000
00000000
00000000
00011000
,  // measure 10
00000000
00011000
00000000
00000000
,  // measure 11
00100000
00010000
01000000
00000000
,  // measure 12
00001000
00010000
00001000
00000000
,  // measure 13
00000010
00001000
00000100
00000000
,  // measure 14
00010000
00001000
00010000
00000000
,  // measure 15
01000000
00001000
00010000
00000000
,  // measure 16
00001000
00010000
00001000
00000000
,  // measure 17
00000010
00010000
00001000
00000000
,  // measure 18
00010000
00001000
00010000
00000000
,  // measure 19
00100000
00000000
00000000
00000000
00001000
00000000
00000000
01000000
,  // measure 20
00000000
01000000
00000000
00001000
00010000
00000000
00000000
00000000
,  // measure 21
00000100
00000000
00000000
00000000
00010000
00000000
00000000
00000100
,  // measure 22
00000000
00000100
00000000
00010000
00001000
00000000
01000000
00000000
,  // measure 23
00100000
00000000
00000000
10010000
00000000
00000000
00010000
00000000
,  // measure 24
00001000
00000010
00000010
00000000
,  // measure 25
00000100
00000010
00000001
00000100
,  // measure 26
00000010
00010000
00001000
01000000
,  // measure 27
00100000
00000000
10000000
00000000
00100000
00000000
10000000
01000000
,  // measure 28
00000000
01000000
01000000
00100000
,  // measure 29
00001000
00000000
00010000
00000000
00000010
00000000
00000100
00000001
,  // measure 30
00000000
00000001
00000001
00000010
,  // measure 31
00000100
00000000
00001000
00000000
00000100
00000000
00010000
00001000
,  // measure 32
00000000
00001000
00010000
00001000
,  // measure 33
01000000
00000000
00010000
00000000
00100000
00000000
00010000
01000000
,  // measure 34
00000000
01000000
00010000
00000000
00100000
00000000
00100000
00000000
,  // measure 35
00001000
00000000
00000100
00000000
00000010
00000000
00000100
00001000
,  // measure 36
00000000
00000010
00001000
00000001
,  // measure 37
00000010
00000000
00000100
00000000
00010000
00000000
00000100
00010000
,  // measure 38
00000000
00010000
00000010
00000100
,  // measure 39
00000001
00000000
00001000
00000000
00000001
00000000
00000010
00000100
,  // measure 40
00000000
00000100
00000100
00010000
,  // measure 41
00001000
00000000
00100000
00000000
00010000
00000000
01000000
00001000
,  // measure 42
00000000
00010000
01000000
10000000
,  // measure 43
00100000
00000000
01000000
00000000
00010000
00100000
00001000
00010000
,  // measure 44
00000100
00000000
00000100
00000000
00000100
00010000
00001000
00100000
,  // measure 45
01000000
00000000
01000000
00000000
01000000
00010000
00001000
00000010
,  // measure 46
00000100
00000000
00000100
00000000
00000100
00000010
00000001
00000100
,  // measure 47
00010000
00000000
00010000
00000000
00010000
00000100
00000001
00001000
,  // measure 48
00000100
00000000
00000100
00000000
00000100
00010000
00001000
00100000
,  // measure 49
01000000
00000000
01000000
00000000
01000000
10000000
01000000
00100000
,  // measure 50
00002000
00100000
00020000
00033000
,  // measure 51
00001000
00000000
00000100
00000000
00000010
00000000
00000100
00001000
,  // measure 52
00000000
00010000
00001000
00001000
,  // measure 53
00010000
00000000
00100000
00000000
01000000
00000000
00100000
00010000
,  // measure 54
00000000
00001000
00010000
00010000
,  // measure 55
00001000
00000000
00000000
00000000
00000010
00000000
00000000
00000100
,  // measure 56
00000000
00000001
00000010
00000100
,  // measure 57
00020000
00001000
00001000
00001000
,  // measure 58
00032000
00100000
01000000
00003000
,  // measure 59
00000100
00000010
00000100
00000010
,  // measure 60
00001000
00000001
00000010
00000100
,  // measure 61
00020000
00000000
00031000
01000000
,  // measure 62
00001000
00010000
01000000
10000000
,  // measure 63
00010000
00010000
10000000
10000000
,  // measure 64
00100000
00001000
00100000
01000000
,  // measure 65
00002000
00010000
00010000
00023000
,  // measure 66
00000100
00000100
00000010
00030000
,  // measure 67
00000001
00000010
00000100
00000000
,  // measure 68
00010000
00000010
00000100
00000000
,  // measure 69
00000100
00001000
00010000
00000000
,  // measure 70
00001000
00010000
00100000
00000000
,  // measure 71
01000000
00010000
10000000
01000000
,  // measure 72
00100000
00001000
00010000
00000010
,  // measure 73
00000200
00001000
00001000
00001000
,  // measure 74
00000302
00000010
00000100
00000003
,  // measure 75
00010000
00000100
00001000
00000000
,  // measure 76
00000010
00010000
00001000
00000000
,  // measure 77
01000000
00010000
00100000
00000000
,  // measure 78
01000000
10000000
00010000
00000000
,  // measure 79
10000000
00100000
00001000
00100000
,  // measure 80
01000000
00001000
00010000
00000100
,  // measure 81
00000020
00000130
00000200
00001300
,  // measure 82
00002000
00003001
00000002
00000103
,  // measure 83
00000010
00001000
00000100
00010000
,  // measure 84
00001100
00010100
00001100
00000000
,  // measure 85
01000000
00010000
00100000
00001000
,  // measure 86
00011000
00010100
00011000
00000000
,  // measure 87
01000000
00000000
00100000
00000000
10000000
00000000
01000000
00100000
,  // measure 88
00000000
00100000
01000000
00000000
00100000
00000000
00001000
00000000
,  // measure 89
00010000
00000000
00000010
00000100
00000010
00000000
00010000
00000000
,  // measure 90
00001000
00000000
00100000
01000000
00100000
00000000
00001000
00000000
,  // measure 91
00010000
00000000
00000010
00000000
00000100
00000000
00000001
00001000
,  // measure 92
00000000
00000001
00001000
00000000
00000001
00000000
00000000
00000000
,  // measure 93
00000010
00000000
00000100
00000000
00010000
00000000
00001000
01000000
,  // measure 94
00000000
00001000
01000000
00000000
01001000
00000000
00000000
00000000
,  // measure 95
10000000
00000000
01000000
00000000
00100000
00000000
00010000
10000000
,  // measure 96
00000000
00010000
10000000
00000000
00100000
00000000
01000000
00000000
,  // measure 97
00002000
00010000
00010000
00023000
,  // measure 98
00000100
00000010
00000100
00030010
,  // measure 99
01000000
10000000
00100000
01000000
,  // measure 100
00001000
00010000
00000100
00000010
,  // measure 101
00000002
00000100
00001000
00000100
,  // measure 102
00002003
00010000
00100000
00010000
,  // measure 103
00003010
00000000
00000010
00000000
00000100
00000000
00000000
00001000
,  // measure 104
00000000
00200000
00002000
00300000
,  // measure 105
00003000
00000000
00000000
00000000
;
