#TITLE:Thunderbolt;
#SUBTITLE:;
#ARTIST:雷龍;
#TITLETRANSLIT:;
#SUBTITLETRANSLIT:;
#ARTISTTRANSLIT:Rairyuu;
#GENRE:Ravers Dance Speed;
#CREDIT:AznPunk07/Frozen_Heat/GuardianFrozen;
#MENUCOLOR:#504d7c;
#METERTYPE:DDR;
#BANNER:Thunderbolt-bn.png;
#BACKGROUND:Thunderbolt-bg.png;
#LYRICSPATH:;
#CDTITLE:!cdtitle.png;
#MUSIC:Thunderbolt.mp3;
#OFFSET:0.053;
#SAMPLESTART:38.180;
#SAMPLELENGTH:10.200;
#SELECTABLE:YES;
#LISTSORT:;
#BPMS:0.000=188.000;
#STOPS:;
#BGCHANGES:;
#ATTACKS:;

//---------------dance-single - ----------------
#NOTES:
     dance-single:
     :
     Challenge:
     10:
     0.963,0.996,0.628,0.294,0.717:
0000
0000
0000
0000
,
0000
0000
0000
0000
,
0000
0000
0000
0000
,
0000
0000
0000
0000
,
2002
0000
0000
0000
,
0000
0000
0000
3003
,
0001
0010
0100
1000
0000
0001
0100
0000
,
0001
0000
0010
0000
0100
0000
1000
0000
0000
0000
0001
0000
0010
0001
0010
0000
,
0001
0010
0100
1000
0000
0001
0100
0001
,
1000
0000
0100
0010
0000
0010
0000
0010
0100
0000
1000
0000
0001
0000
0000
0000
,
1000
0010
0100
0001
0000
1000
0010
0000
,
1000
0000
0010
0000
0100
0000
0001
0000
0000
0000
1000
0000
0010
0100
0010
0000
,
1000
0010
0100
0001
0000
0010
0100
0010
,
0001
0000
0100
0010
0000
0010
0000
0010
0100
0000
0001
0000
1000
0000
0000
0000
,
0001
0000
0010
0000
1000
0000
0000
0010
0000
0100
1000
0000
0001
0000
0000
0000
,
1000
0000
0010
0000
0001
0000
0000
0010
0000
0100
0001
0000
1000
0001
1000
0000
,
0001
0000
0100
0000
1000
0000
0000
0100
0000
0001
0100
0000
0010
0000
0010
0000
,
1000
0000
0100
1000
0000
1000
0000
0010
0100
0000
0100
0000
0001
0000
0000
0000
,
1000
0000
0100
0000
0001
0000
0000
0100
0000
0010
0001
0000
1000
0000
0000
0000
,
0001
0000
0100
0000
1000
0000
0000
0100
0000
0010
1000
0000
0001
1000
0001
0000
,
1000
0000
0010
0000
0001
0000
0000
0010
0000
1000
0010
0000
0100
0000
0100
0000
,
0001
0000
0010
0001
0000
0001
0000
0100
0010
0000
0010
0000
1000
0100
1000
0000
,
0001
0000
0010
0000
0000
0001
0000
0010
0001
0000
0100
0010
0000
0010
1000
0000
,
0010
0000
0100
0000
0000
0001
0000
1000
0100
0000
0100
1000
0001
0010
0100
1000
,
0000
0000
0100
0000
0000
1000
0000
0001
1000
0000
1000
0010
0000
0100
0010
0000
,
1000
0000
0001
1000
0000
0110
0000
0001
1000
0000
0001
0000
0110
0000
0000
0000
,
1000
0000
0100
0000
0000
1000
0000
0100
1000
0000
0010
0100
0000
0100
0001
0000
,
0100
0000
0010
0000
0000
1000
0000
0001
0010
0000
0010
0001
1000
0100
0010
0001
,
0000
0000
0010
0000
0000
0001
0000
1000
0001
0000
0001
0100
0000
0010
0100
0000
,
0001
0000
1000
0001
0000
0110
0000
1000
0001
0000
1000
0000
1001
0000
0000
0000
,
0001
0000
0010
0100
1000
0000
0010
0100
1000
0000
0100
0000
0001
0000
1000
0000
,
0001
0000
0100
0010
1000
0000
0100
0010
1000
0000
0010
0000
0001
0000
0100
0000
,
1000
0000
0001
0010
1000
0000
0001
0010
1000
0000
0010
0000
0100
0000
0010
0000
,
0001
0011
0000
1100
0000
1001
0100
0000
,
1000
0000
0100
0010
0001
0000
0100
0010
0001
0000
0010
0000
1000
0000
0001
0000
,
1000
0000
0010
0100
0001
0000
0010
0100
0001
0000
0100
0000
1000
0000
0010
0000
,
0001
0000
1000
0100
0001
0000
1000
0100
0001
0000
0100
0000
0010
0000
0100
0000
,
1000
1100
0000
0011
0000
1001
0010
0000
,
0000
0000
1000
0000
0000
1200
0000
0000
0310
0000
0000
0012
0000
0000
1003
0000
,
0000
2010
0000
0000
3001
0000
0000
0201
0000
0000
0301
0000
0010
0000
0100
0000
,
0010
0000
0001
0000
0000
0021
0000
0000
0130
0000
0000
1200
0000
0000
0310
0000
,
0000
2010
0000
0000
3001
0000
0000
0102
0000
0000
1003
0000
0100
0000
0010
0000
,
0100
0000
1000
0000
0000
0021
0000
0000
0130
0000
0000
1020
0000
0000
1030
0000
,
0000
0201
0000
0000
0310
0000
0000
2100
0000
0000
3010
0000
0100
0000
0001
0000
,
1000
0000
0101
0000
0000
1002
0000
0003
1100
0000
0000
2001
0000
3000
0011
0000
,
0000
1002
0000
0003
1010
0000
0000
2001
0000
3000
0011
0000
1000
0000
1000
0000
,
0001
0010
0100
0000
0010
0000
0001
1000
0000
1000
0001
0000
0100
0000
0010
0000
,
0000
0000
0100
0000
0001
0000
1000
0000
0010
0000
0100
0010
0100
0000
0001
0000
,
0010
0100
1000
0000
0100
0000
0010
0001
0000
0001
0100
0000
0010
0000
1000
0000
,
0001
0100
0001
1000
0000
1100
0000
0011
,
1000
0100
1000
0100
1000
0000
0100
0010
0000
0010
0100
0000
0010
0000
0001
0000
,
0000
0001
0010
0100
1001
0101
1001
0000
,
0001
0100
0001
0100
0001
0000
0010
0100
0000
1000
0100
0000
0011
0000
1001
0000
,
0000
0001
0100
1000
0000
0100
0010
0100
,
0001
0010
1000
0000
0010
0000
1000
0010
0000
0010
0001
0000
1000
0000
0001
0000
,
0000
1000
0001
0010
1010
0011
1001
0000
,
1000
0100
0001
0000
0100
0000
1000
0001
0000
0001
0100
0000
1000
0000
0100
0000
,
0000
0001
0100
1100
0000
0101
0000
1001
,
0001
0100
1000
0100
0010
0000
1000
0010
0000
0010
0001
0000
0010
0000
0100
0000
,
0000
0001
0010
1000
0110
1100
1001
0000
,
1000
0100
0001
0100
0010
0000
0100
1000
0000
0001
0100
0000
1000
0000
0100
0000
,
0000
0010
0100
0010
0000
1000
0001
1000
,
0200
0000
0000
0010
0000
0000
1300
0000
0001
0100
0000
0100
0001
0000
1000
0000
,
0020
0000
0100
0000
1030
0001
0000
0000
0020
0000
0001
0000
0130
1000
0000
0000
,
0002
0000
0000
1000
0000
0000
0103
0000
0010
0001
0000
0001
0010
0000
0100
0000
,
2000
0000
0001
0000
3100
0010
0000
0000
2000
0000
0010
0000
3001
0100
0000
0000
,
0020
0000
0000
0100
0000
0000
0031
0000
1000
0010
0000
0010
1000
0000
0001
0000
,
0200
0000
0010
0000
0301
1000
0000
0000
0200
0000
1000
0000
0310
0001
0000
0000
,
2000
0000
0000
0000
0000
0000
0000
0000
0000
0000
0000
0000
0000
0000
0000
0000
0000
0000
0000
0000
0000
0000
0000
0000
0000
0000
0000
0000
0000
0000
0000
0000
0000
0000
0000
0000
0001
0000
0000
0000
0000
0000
0000
0000
0000
0000
0000
0000
0000
3000
0000
0000
0000
0000
0000
0000
0000
0000
0000
0000
0000
0000
0000
0000
0000
0000
0000
0000
0000
0000
0000
0000
1000
0000
0000
0000
0000
0000
0000
0000
0000
0000
0000
0000
0000
0000
0000
0000
0000
0000
0000
0000
0000
0000
0000
0000
0001
0000
0000
0000
0000
0000
0000
0000
0000
0000
0000
0000
0100
0000
0000
0000
0000
0000
0000
0000
0000
0000
0000
0000
0000
0000
0000
0000
0000
0000
0000
0000
0000
0000
0000
0000
0100
0000
0000
0000
0000
0000
0000
0000
0000
0000
0000
0000
0001
0000
0000
0000
0000
0000
0000
0000
0000
0000
0000
0000
0000
0000
0000
0000
0000
0000
0000
0000
0000
0000
0000
0000
1000
0000
0000
0000
0000
0000
0000
0000
0000
0000
0000
0000
0000
0000
0000
0000
0000
0000
0000
0000
0000
0000
0000
0000
,
0020
0000
0100
0000
1030
0001
0000
0000
0020
0000
0001
0000
0130
1000
0000
0000
,
0001
0000
0010
0000
0100
0000
0000
1000
0000
0000
0001
0000
1001
0000
0000
0000
,
1000
0000
0100
0000
0010
0000
0000
0001
0000
0000
1000
0000
0001
1000
0001
0000
,
1000
0000
0100
0000
0010
0000
0000
0001
0000
0000
0010
0000
0001
0000
1000
0000
,
0001
0000
1000
0010
0000
0110
0000
0010
1000
0000
0100
0000
0010
0001
0010
0000
,
0100
0000
1000
0000
0001
0000
0000
0010
0001
0000
0010
0000
0011
0000
0000
0000
,
0100
0000
1000
0000
0001
0000
0000
0100
0010
0000
1000
0000
0010
1000
0010
0000
,
1000
0000
0001
0000
0100
0000
0000
0010
1000
0000
0100
0000
1100
0000
1000
0000
,
0100
0000
0010
0001
0000
0001
0000
0100
0010
0000
0010
0000
1000
0010
1000
0000
,
0001
0000
0100
0010
0000
0010
0000
1000
0001
0000
0001
0000
0010
0000
0000
0000
,
0100
1000
0100
0000
1100
0000
1000
0010
0000
1000
0001
0000
0100
0000
0010
0000
,
1000
0000
0100
0000
0010
0000
0001
0000
0100
0000
0001
0100
0001
0000
1000
0100
,
1000
0001
0100
0000
0101
0000
0001
0010
0000
0001
0100
0000
0010
0000
1000
0000
,
0110
1000
0001
0010
0011
0100
1000
1001
,
0010
0001
0010
0000
0101
0000
0010
1000
0000
0010
0100
0000
0001
0000
0011
0000
,
0100
1000
0010
0100
0101
0010
1010
0000
,
1000
0100
0010
0100
1000
0000
0001
0010
0100
0010
0001
0000
1000
0000
0001
0000
,
0000
1000
0010
0001
0000
0001
0010
1000
,
0001
0010
0100
0000
0011
0000
0010
0100
1000
0000
1100
0000
0010
0000
0001
0000
,
1000
0000
0010
0000
0001
0000
0010
0000
0110
0000
0001
1000
0001
0000
0110
0000
,
1000
0100
0010
0000
1100
0000
0100
0010
0001
0000
0011
0000
0100
0000
1100
0000
,
0011
1000
1000
0001
0001
0100
0100
0010
,
0010
1000
0100
0010
0001
0000
0001
0010
0100
1000
0010
0000
0100
0000
0110
0000
,
0001
0101
0010
1000
1100
1001
1100
0010
,
1000
0010
0100
0001
0010
0000
0010
0001
0100
0010
1000
0000
0001
0000
1000
0000
,
0110
2000
0100
3001
0110
0002
0100
1003
,
0110
2000
0100
3001
0110
0002
0010
1003
,
0110
2000
0010
3001
0110
0002
0010
1003
,
0220
0000
0000
0000
,
0000
0000
0000
0000
0000
0000
0000
0330
;

//---------------dance-single - ----------------
#NOTES:
     dance-single:
     :
     Hard:
     9:
     0.798,0.805,0.217,0.077,0.581:
0000
0000
0000
0000
,
0000
0000
0000
0000
,
0000
0000
0000
0000
,
0000
0000
0000
0000
,
0002
0000
2003
0000
,
3002
0000
0003
0000
,
1000
0100
0010
0001
0000
0001
1000
0000
,
1000
0100
0010
0001
0000
0001
1000
0010
,
1000
0100
0010
0001
0000
0001
1000
0010
,
1000
0000
0001
1000
0000
0001
0000
1000
0001
0000
1000
0000
1001
0000
0000
0000
,
0001
0010
0100
1000
0000
1000
0001
0000
,
0001
0010
0100
1000
0000
1000
0001
0100
,
0001
0010
0100
1000
0000
1000
0001
0100
,
0001
0000
1000
0001
0000
1000
0000
0001
1000
0000
0001
0000
1001
0000
0000
0000
,
1000
0000
0100
0000
0010
0000
0000
0001
0000
0000
0001
0000
1000
0000
0000
0000
,
1000
0000
0100
0000
0010
0000
0000
0001
0000
0000
0001
0000
1000
0010
1000
0000
,
1000
0000
0100
0000
0010
0000
0000
0001
0000
0000
0001
0000
1000
0000
0010
0000
,
1000
0000
0001
1000
0000
0001
0000
1000
0001
0000
1000
0000
1001
0000
0000
0000
,
0001
0000
0010
0000
0100
0000
0000
1000
0000
0000
1000
0000
0001
0000
0000
0000
,
0001
0000
0010
0000
0100
0000
0000
1000
0000
0000
1000
0000
0001
0100
0001
0000
,
0001
0000
0010
0000
0100
0000
0000
1000
0000
0000
1000
0000
0001
0000
0100
0000
,
0001
0000
1000
0001
0000
1000
0000
0001
1000
0000
0001
0000
1001
0000
0000
0000
,
0000
0000
0001
0000
0000
0011
0000
0000
0100
0000
0000
1100
0000
0000
1000
0000
,
0000
0000
0010
0000
0000
1010
0000
0000
0100
0000
0000
0101
0000
0000
0001
0000
,
0000
0000
1001
0000
0000
0100
0000
0000
1001
0000
0000
0100
0000
0000
1001
0000
,
0010
0000
0100
1000
0000
1000
0000
1000
0100
0000
0010
0000
0001
0000
0000
0000
,
0000
0000
1100
0000
0000
0001
0000
0000
1010
0000
0000
0001
0000
0000
0100
0000
,
0000
0000
0011
0000
0000
1000
0000
0000
0101
0000
0000
0010
0000
0000
0001
0000
,
0000
0000
0110
0000
0000
1000
0000
0000
0110
0000
0000
0001
0000
0000
1000
0000
,
0100
0000
0010
0001
0000
0001
0000
0001
0010
0000
0100
0000
1000
0000
0000
0000
,
0001
0000
0010
0001
0010
0000
0001
0000
1000
0000
1000
0000
0001
0000
0100
0000
,
0010
0000
1000
0010
1000
0000
0010
0000
0010
0000
0100
0000
0001
0000
1000
0000
,
0001
0000
1000
0100
1000
0000
0001
0000
0001
0000
1000
0000
0001
0000
0100
0000
,
0010
2000
0000
3020
0000
0230
0001
0300
,
0010
0000
1000
0010
1000
0000
0001
0100
0001
0000
1000
0000
0100
0000
0010
0000
,
0001
0000
0010
0001
0010
0000
0100
1000
0100
0000
0010
0000
0001
0000
1000
0000
,
0001
0000
0100
0001
0100
0000
0010
1000
0010
0000
0100
0000
0001
0000
1000
0000
,
0001
0020
0000
0032
1000
0003
0200
0000
,
0300
0000
0010
0000
0000
1000
0000
0000
0100
0000
0000
0010
0000
0000
0001
0000
,
1000
0000
0000
0001
0000
0000
0100
0000
0000
0000
0010
0000
0100
0000
0001
0000
,
1000
0000
0100
0000
0000
0010
0000
0000
0001
0000
0000
1000
0000
0000
0001
0000
,
0000
0100
0000
0000
1000
0000
0000
0100
0000
0000
0010
0000
1000
0000
0100
0000
,
0010
0000
0001
0000
0000
1000
0000
0000
0100
0000
0000
0001
0000
0000
0100
0000
,
0000
0010
0000
0000
0001
0000
0000
1000
0000
0000
0010
0000
0100
0000
0001
0000
,
1000
0000
0100
0000
0000
1000
0000
0000
0001
0000
0000
0010
0000
0000
0001
0000
,
1000
0000
0000
0010
0000
0000
0100
0000
0000
0001
0000
0000
1000
0000
0001
0000
,
0010
0001
0010
0000
0100
0000
0000
0100
0010
0000
0001
0000
0010
0000
0100
0000
,
0000
1000
0010
0001
0010
0100
0010
0000
,
1000
0010
1000
0000
0001
0000
0000
0001
1000
0000
0100
0000
0010
0000
0100
0000
,
0000
1000
0010
0001
0000
0110
0000
1001
,
1000
0100
0010
0000
0100
0000
1000
0100
0000
0000
0010
0000
0100
0000
1000
0000
,
0000
0001
1000
0001
0100
0100
0110
0000
,
0001
0100
0010
0000
0100
0000
0001
0100
0000
0000
0010
0000
0100
0000
0001
0000
,
0000
1000
0100
0001
0000
1000
0010
0001
,
1000
0100
1000
0000
0010
0000
0100
1000
0100
0000
0010
0000
1000
0000
0100
0000
,
0000
0010
0100
1000
0001
1000
1001
0000
,
0001
0010
0001
0000
0100
0000
0010
0001
0010
0000
0100
0000
0001
0000
0010
0000
,
0100
1000
0100
0001
0000
0110
0000
1001
,
0001
0010
0100
0000
0001
0000
0100
0010
0001
0000
1000
0000
0001
0000
0100
0000
,
0000
0010
1000
0001
0010
0010
0110
0000
,
1000
0010
0100
0000
1000
0000
0100
0010
1000
0000
0100
0000
0001
0000
0100
0000
,
0000
0010
0001
0010
0000
0100
1000
0100
,
0010
0000
0000
0010
0001
0000
0000
0001
1000
0000
0000
1000
0010
0000
0000
0010
,
1000
0000
0010
0000
0100
0001
0000
0000
1000
0000
0010
0000
0100
0001
0000
0000
,
1000
0000
0000
1000
0100
0000
0000
0100
0010
0000
0000
0010
0001
0000
0000
0001
,
0100
0000
0001
0000
1000
0010
0000
0000
0100
0000
0001
0000
1000
0010
0000
0000
,
0100
0000
0000
0100
0001
0000
0000
0001
0010
0000
0000
0010
0100
0000
0000
0100
,
1000
0010
1000
0000
0010
0100
0000
0000
1000
0010
1000
0000
0010
0100
0000
0000
,
0001
0000
0000
0001
0010
0000
0000
0010
0100
0000
0000
0100
1000
0000
0000
1000
,
0001
0100
0001
0000
0010
0100
0000
0000
0001
0100
0001
0000
0010
0100
0000
0000
,
0001
0000
0010
0000
0100
0000
0000
1000
0000
0000
1000
0000
0001
0000
0000
0000
,
0001
0000
0010
0000
0100
0000
0000
1000
0000
0000
1000
0000
0001
0100
0001
0000
,
0001
0000
0010
0000
0100
0000
0000
1000
0000
0000
1000
0000
0001
0000
0100
0000
,
0001
0000
1000
0001
0000
1000
0000
0001
1000
0000
0001
0000
1001
0000
0000
0000
,
1000
0000
0100
0000
0010
0000
0000
0001
0000
0000
0001
0000
1000
0000
0000
0000
,
1000
0000
0100
0000
0010
0000
0000
0001
0000
0000
0001
0000
1000
0010
1000
0000
,
1000
0000
0100
0000
0010
0000
0000
0001
0000
0000
0001
0000
1000
0000
0010
0000
,
1000
0000
0001
1000
0000
0001
0000
1000
0001
0000
1000
0000
0001
1000
0001
0000
,
0100
0000
0010
0100
0000
0010
0000
0100
0010
0000
0100
0000
0110
0000
0000
0000
,
0001
0010
0001
0000
1000
0000
0000
1000
0001
0100
0001
0000
1000
0000
0100
0000
,
0000
0100
1000
0100
0010
0100
1000
0000
,
1000
0010
1000
0000
0001
0000
0000
0001
1000
0100
1000
0000
0010
0000
0100
0000
,
0000
0100
0001
0010
0000
1100
0000
0011
,
0010
0100
0010
0000
0001
0000
0000
0001
1000
0100
1000
0000
0001
0000
0100
0000
,
0000
0001
0010
0100
1000
0001
0010
0000
,
0100
0010
0100
0000
1000
0000
0000
1000
0001
0010
0001
0000
1000
0000
0010
0000
,
0000
1000
0010
0100
0000
0100
0001
0010
,
0001
0010
0100
0000
0010
0000
0100
0010
0001
0010
0100
0000
0010
0000
0100
0000
,
0000
0100
1000
0100
0010
0100
1000
0000
,
1000
0010
0100
0000
0010
0000
0100
0010
1000
0010
0100
0000
0010
0000
0100
0000
,
0000
0100
0001
0100
0010
0100
1000
0100
,
0010
1000
0010
1000
0010
0000
1000
0010
1000
0010
1000
0000
0001
0000
0100
0000
,
0000
1000
0100
0010
0001
1000
0001
0000
,
0010
0001
0010
0001
0010
0000
0001
0010
0001
0010
0001
0000
1000
0000
0100
0000
,
0000
0010
0100
1000
0000
0001
0010
0100
,
0000
0010
0100
1000
0000
0001
0010
0100
,
0000
0010
0100
1000
0000
0001
0010
0100
,
2000
0000
0000
0000
,
0000
0000
0000
0000
0000
0000
0000
3000
;

//---------------dance-single - ----------------
#NOTES:
     dance-single:
     :
     Easy:
     5:
     0.374,0.460,0.201,0.147,0.000:
0000
0000
0000
0000
,
0000
0000
0000
0000
,
0000
0000
0000
0000
,
0000
0000
0000
0000
,
0200
0000
0300
0000
,
0000
0000
0000
0000
,
1000
0100
1000
0000
,
0001
0100
0001
0000
,
1000
0100
1000
0000
,
0001
0100
1000
0100
,
0001
0010
0001
0000
,
1000
0010
1000
0000
,
0001
0010
0001
0000
,
1000
0010
0001
0010
,
1000
0100
0010
0100
,
1000
0100
0010
0100
,
1000
0100
0010
0100
,
1000
1000
0001
0000
,
0001
0010
0100
0010
,
0001
0010
0100
0010
,
0001
0010
0100
0010
,
0001
0001
1000
1000
,
0000
0001
0100
0101
,
0000
1000
0100
1100
,
0000
0001
0010
0011
,
1000
1000
0001
0000
,
0000
1000
0010
1010
,
0000
0001
0010
0011
,
0000
1000
0100
1100
,
0001
0001
1000
0000
,
0001
0001
0100
0100
,
0001
0100
0101
0000
,
0010
0010
1000
1000
,
0010
1000
1010
0000
,
1000
1000
0100
0100
,
1000
0100
1100
0000
,
0001
0001
0010
0010
,
0001
0010
0011
0000
,
2000
0000
3000
0000
,
0002
0000
0003
0000
,
0200
0000
0300
0000
,
0020
0000
0030
0000
,
2000
0000
3000
0000
,
0002
0000
0003
0000
,
0020
0000
0030
0000
,
0200
0000
0300
0000
,
1000
1000
0100
0100
,
1000
0100
0010
0010
,
0001
0001
0100
0100
,
0001
0010
0100
0000
,
0010
0010
0001
0001
,
1000
0010
0100
0010
,
1000
1000
0100
0100
,
1000
0001
0100
0000
,
0010
1000
0001
0010
,
0001
1000
0100
0010
,
0100
1000
0001
0100
,
0010
0100
0001
0000
,
1000
0010
0100
0001
,
1000
0100
0010
0001
,
1000
0001
0100
0001
,
0010
0010
0100
0100
,
0020
0000
0030
0000
,
0002
0000
0003
0000
,
2000
0000
3000
0000
,
0200
0000
0300
0000
,
2000
0000
3000
0000
,
0002
0000
0003
0000
,
0200
0000
0300
0000
,
0020
0000
0030
0000
,
1000
1000
0001
0000
,
1000
1000
0100
0000
,
1000
1000
0010
0000
,
1000
0100
0010
0001
,
1000
0010
1000
0010
,
1000
0001
1000
0001
,
1000
0100
1000
0100
,
1000
0100
0010
0001
,
1000
0010
0100
0001
,
1000
1000
0001
0001
,
1000
0100
1100
1001
,
0001
0001
0100
0100
,
0001
1000
0101
1001
,
0001
0001
0010
0010
,
0001
1000
0011
1001
,
1000
1000
0010
0010
,
1000
1010
1001
1010
,
0001
0010
0100
0010
,
0001
1000
0110
0110
,
1000
0001
0010
0100
,
1000
0001
0110
0110
,
0001
0010
0100
1000
,
0001
0100
0110
0110
,
1000
0001
0010
0100
,
1000
1000
0100
0100
,
1000
1000
0100
0100
,
1000
1000
0100
0100
,
2002
0000
0000
0000
,
0000
0000
0000
0000
0000
0000
0000
3003
;

//---------------dance-single - Copied from----------------
#NOTES:
     dance-single:
     Copied from:
     Medium:
     8:
     0.593,0.613,0.209,0.139,0.000:
0000
0000
0000
0000
,
0000
0000
0000
0000
,
0000
0000
0000
0000
,
0000
0000
0000
0000
,
0020
0000
0000
0000
,
0030
0000
0000
0000
,
0001
0010
0100
0000
0010
0000
0000
0000
,
0001
0010
0100
0000
0010
0000
0000
0000
,
0001
0010
0100
0000
0010
0000
0000
0000
,
0001
0100
0001
0000
1000
0100
1000
0000
,
1000
0010
0100
0000
0010
0000
0000
0000
,
1000
0010
0100
0000
0010
0000
0000
0000
,
1000
0010
0100
0000
0010
0000
0000
0000
,
1000
0100
1000
0000
0001
0100
0001
0000
,
1000
0100
0001
0000
0010
0000
0001
0000
,
1000
0100
0001
0000
0010
0000
0001
0000
,
1000
0100
0001
0000
0010
0000
0001
0000
,
1000
0010
0001
0010
1000
0010
0100
0000
,
0001
0010
1000
0000
0100
0000
1000
0000
,
0001
0010
1000
0000
0100
0000
1000
0000
,
0001
0010
1000
0000
0100
0000
1000
0000
,
0001
0100
1000
0100
0001
0100
0010
0000
,
1000
0000
1010
0000
0001
1000
0001
0000
,
0100
0000
0101
0000
1000
0001
1000
0000
,
0001
0000
0011
0000
0100
1000
0100
0000
,
0010
0010
0011
1100
,
0001
0000
0101
0000
1000
0001
1000
0000
,
0010
0000
1010
0000
0001
1000
0001
0000
,
1000
0000
1100
0000
0010
0001
0010
0000
,
0100
0100
1100
0011
,
1000
0100
0010
0000
0100
0010
0001
0000
,
1000
0100
0010
0001
1000
0100
0010
0000
,
0100
0010
0001
0000
1000
0100
0010
0000
,
0100
0010
0001
0010
0100
1000
0001
0000
,
0001
0100
0010
0000
0100
0010
1000
0000
,
0001
0100
0010
1000
0001
0100
0010
0000
,
0100
0010
1000
0000
0001
0100
0010
0000
,
0100
0010
1000
0010
0100
0001
1000
0000
,
0002
0010
1000
0010
,
0100
0010
1000
0103
,
0020
0001
1000
0100
,
0001
0100
0001
1030
,
0200
1000
0010
0001
,
0010
0001
1000
0310
,
2000
0100
0001
0010
,
3001
0100
0001
0100
0001
0000
0000
0000
,
1000
0100
0001
0000
0001
0100
1000
0000
,
0010
0100
0001
1000
,
0001
0010
1000
0000
1000
0010
0001
0000
,
0100
0010
1000
0001
,
1000
0010
0001
0000
0001
0010
1000
0000
,
0001
0010
0100
1000
,
0001
0100
1000
0000
1000
0100
0001
0000
,
0100
0010
1000
0001
,
1000
0100
0001
0100
1000
0100
0010
0000
,
0001
1000
0010
0100
,
0001
0010
1000
0010
0001
0010
0100
0000
,
1000
0010
0110
0000
,
0001
0100
1000
0100
0001
0100
0010
0000
,
1000
0001
1000
0100
,
1000
0010
0001
0010
1000
0010
0100
0000
,
0001
1000
0100
0010
,
2100
3001
2100
3010
,
2100
0100
0001
3001
,
0102
1003
0102
0013
,
0102
0100
1000
1003
,
0201
0310
0201
1300
,
0201
0010
1000
0310
,
1020
0130
1020
0031
,
1020
0100
1000
0130
,
1000
0100
0010
0000
0010
0100
1000
0000
,
1000
0100
0010
0000
0010
0100
1000
0000
,
1000
0100
0010
0000
0010
0100
1000
0000
,
1000
0100
0010
0001
0010
0100
1000
0000
,
0001
0100
0010
0000
0010
0100
0001
0000
,
0001
0100
0010
0000
0010
0100
0001
0000
,
0001
0100
0010
0000
0010
0100
0001
0000
,
0001
0100
0010
1000
0010
0100
0001
0000
,
1000
0010
0100
0001
0100
0010
1000
0000
,
0001
0010
1000
0000
0010
0100
1000
0100
,
0010
0000
0001
0000
1000
0010
0001
0000
,
0010
1000
0001
0000
0010
0001
1000
0000
,
0001
0010
0100
1000
0001
1000
0001
0000
,
1000
0100
0001
0000
0100
0010
0001
0010
,
0100
0000
1000
0000
0001
0100
1000
0000
,
0100
0001
1000
0000
0100
1000
0001
0000
,
1000
0100
0010
0001
1000
0001
1000
0000
,
0001
0100
0001
0100
0010
1000
0010
1000
,
0100
0010
0011
1001
,
1000
0010
1000
0010
0100
0001
0100
0001
,
1000
1100
0001
0101
,
1000
0100
1000
0100
0010
0100
0010
0001
,
1000
0001
1000
0000
0001
1000
0001
0000
,
0001
0100
0001
0100
0010
1000
0010
1000
,
0000
0001
0100
0001
0000
1000
0010
1000
,
0000
0001
0100
0001
0000
1000
0010
1000
,
0000
0001
0100
0001
0000
1000
0010
1000
,
0002
0000
0000
0000
,
0000
0000
0000
0000
0000
0000
0000
0003
;

//---------------dance-single - ----------------
#NOTES:
     dance-single:
     :
     Beginner:
     3:
     0.201,0.301,0.093,0.000,0.000:
0000
0000
0000
0000
,
0000
0000
0000
0000
,
0000
0000
0000
0000
,
0000
0000
0000
0000
,
0000
0000
0000
0000
,
0000
0000
0000
0000
,
0001
0000
0000
0000
,
0001
0000
0000
0000
,
0001
0000
0000
0000
,
0001
0000
0000
0000
,
1000
0000
0000
0000
,
1000
0000
0000
0000
,
1000
0000
0000
0000
,
1000
0000
0000
0000
,
0001
0001
0000
0000
,
0001
0001
0000
0000
,
0001
0001
0000
0000
,
0001
0001
0000
0000
,
1000
1000
0000
0000
,
1000
1000
0000
0000
,
1000
1000
0000
0000
,
1000
1000
1000
0000
,
0001
0000
0100
0000
,
1000
0000
0100
0000
,
0001
0000
0100
0000
,
1000
0000
0100
0000
,
0001
0000
0010
0000
,
1000
0000
0010
0000
,
0001
0000
0010
0000
,
1000
0000
0010
0000
,
0001
0001
0100
0000
,
0001
0000
0000
0000
,
1000
1000
0100
0000
,
1000
0000
0000
0000
,
0001
0001
0010
0000
,
0001
0000
0000
0000
,
1000
1000
0010
0000
,
1000
0000
0000
0000
,
0001
0000
0000
0000
,
1000
0000
0000
0000
,
0001
0000
0000
0000
,
1000
0000
0000
0000
,
0001
0000
0000
0000
,
1000
0000
0000
0000
,
0001
0000
0000
0000
,
1000
0000
0000
0000
,
0001
0000
0010
0000
,
0011
0000
0000
0000
,
1000
0000
0100
0000
,
1100
0000
0000
0000
,
0001
0000
0100
0000
,
0101
0000
0000
0000
,
1000
0000
0010
0000
,
1010
0000
0000
0000
,
0011
0000
0100
0000
,
0011
0000
0000
0000
,
1010
0000
0100
0000
,
1010
0000
0000
0000
,
0101
0000
0010
0000
,
0101
0000
0000
0000
,
1100
0000
0010
0000
,
1100
0000
0000
0000
,
0001
0100
1000
0000
,
0000
0000
0000
0000
,
0001
0100
1000
0000
,
0000
0000
0000
0000
,
0001
0010
1000
0000
,
0000
0000
0000
0000
,
0001
0010
1000
0000
,
0000
0000
0000
0000
,
1000
0000
0000
0000
,
0001
0000
0000
0000
,
1000
0000
0000
0000
,
0001
0000
0000
0000
,
1000
0001
1000
0000
,
0001
1000
0001
0000
,
1000
0001
1000
0000
,
0001
1000
0001
1000
,
0001
1000
0001
0000
,
0001
0001
0001
0000
,
1000
1000
1000
0000
,
0100
0100
0100
0000
,
0010
0010
0010
0000
,
0001
0001
0001
0000
,
0100
0100
0100
0000
,
0010
0010
0010
0000
,
1000
1000
1000
0000
,
0001
0001
0010
0000
,
0100
0000
1000
0000
,
0010
0010
0100
0000
,
0001
0000
1000
0000
,
0010
0010
0100
0000
,
0001
0000
0010
0000
,
1000
1000
0001
0000
,
0100
0000
0010
0000
,
0100
0000
0010
0000
,
0100
0000
0010
0000
,
0100
0000
0000
0000
;

//---------------dance-double - ----------------
#NOTES:
     dance-double:
     :
     Challenge:
     10:
     0.852,0.805,0.364,0.085,0.682: // measure 1
00000000
00000000
00000000
00000000
,  // measure 2
00000000
00000000
00000000
00000000
,  // measure 3
00000000
00000000
00000000
00000000
,  // measure 4
00000000
00000000
00000000
00000000
,  // measure 5
00002000
00000000
00023000
00000000
,  // measure 6
00032000
00000000
00003000
00000000
,  // measure 7
00100000
00000000
00010000
00000000
01000000
00000000
00000000
00100000
00000000
00000000
00100000
00000000
00100000
00000000
00000000
00000000
,  // measure 8
00100000
00000000
10000000
00000000
01000000
00000000
00000000
00100000
00000000
00000000
00100000
00000000
00100000
01000000
00100000
00000000
,  // measure 9
00100000
00000000
00001000
00000000
01000000
00000000
00000000
00100000
00000000
00000000
00100000
00000000
00100000
00000000
00100000
00000000
,  // measure 10
01000000
00000000
01000000
00001000
00000000
00001000
00000000
00010000
00000100
00000000
00000100
00000000
00000010
00000000
00000000
00000000
,  // measure 11
00000100
00000000
00001000
00000000
00000010
00000000
00000000
00000100
00000000
00000000
00000100
00000000
00000100
00000000
00000000
00000000
,  // measure 12
00000100
00000000
00000001
00000000
00000010
00000000
00000000
00000100
00000000
00000000
00000100
00000000
00000100
00000010
00000100
00000000
,  // measure 13
00000100
00000000
00010000
00000000
00000010
00000000
00000000
00000100
00000000
00000000
00000100
00000000
00000100
00000000
00000100
00000000
,  // measure 14
00000010
00000000
00000010
00010000
00000000
00010000
00000000
00001000
00100000
00000000
00100000
00000000
01000000
00000000
00000000
00000000
,  // measure 15
00010000
00000000
01000000
00000000
10000000
00000000
00000000
01000000
00000000
00000000
00010000
00000000
00001000
00000000
00000000
00000000
,  // measure 16
00010000
00000000
00001000
00000000
00000100
00000000
00000000
00000001
00000000
00000000
00000100
00000000
00001000
00010000
00001000
00000000
,  // measure 17
00010000
00000000
00001000
00000000
00000100
00000000
00000000
00000001
00000000
00000000
00000100
00000000
00001000
00000000
00010000
00000000
,  // measure 18
00001000
00000000
01000000
00001000
00000000
00001000
00000000
00010000
00000100
00000000
00000100
00000000
00011000
00000000
00000000
00000000
,  // measure 19
00101000
00000000
00010000
00000000
00100000
00000000
00000000
00010000
00000100
00000000
00010000
00000000
00101000
00000000
00000000
00000000
,  // measure 20
00010100
00000000
00001000
00000000
00000100
00000000
00000000
00001000
00100000
00000000
00001000
00000000
00010000
00000100
00010000
00000000
,  // measure 21
00101000
00000000
00010000
00000000
00100000
00000000
00000000
00010000
00000100
00000000
00010000
00000000
00101000
00000000
00010000
00000000
,  // measure 22
00002000
00023000
02030000
03200000
00320000
00030000
00000000
00000000
,  // measure 23
00000000
00000000
00000101
00000000
00000000
00010000
00000000
00000000
00000101
00000000
00000000
00000010
00000000
00000000
00001010
00000000
,  // measure 24
00000000
00000000
00011000
00000000
00000000
10000000
00000000
00000000
01001000
00000000
00000000
00000000
10000000
01000000
10000000
00000000
,  // measure 25
00000000
00000000
10100000
00000000
00000000
00001000
00000000
00000000
10100000
00000000
00000000
01000000
00000000
00000000
01010000
00000000
,  // measure 26
00100000
00000000
00001000
00010000
00000000
00010000
00000000
00000010
00001000
00000000
00001000
00000000
00000100
00000000
00000000
00000000
,  // measure 27
00000000
00000000
00010000
00000000
00000000
00001010
00000000
00000000
00010000
00000000
00000000
00001010
00000000
00000000
00000100
00000000
,  // measure 28
00000000
00000000
00101000
00000000
00000000
00010000
00000000
00000000
00101000
00000000
00000000
01000000
00000000
00000000
10100000
00000000
,  // measure 29
00000000
00000000
10010000
00000000
00000000
01000000
00000000
00000000
10010000
00000000
00000000
00100000
00000000
00000000
00011000
00000000
,  // measure 30
00000100
00000000
00001000
00010000
00000000
00010000
00000000
00000010
00000100
00000000
00000100
00000000
00000001
00000000
00000000
00000000
,  // measure 31
00000010
00000000
00000010
00000001
00000010
00000000
00000100
00001000
00000100
00000000
00010000
00000000
00001000
00000000
01000000
00000000
,  // measure 32
00010000
00000000
10000000
00100000
10000000
00000000
00010000
01000000
00010000
00000000
00100000
00000000
00001000
00000000
00001000
00000000
,  // measure 33
00010000
00000000
00000100
00010000
00001000
00000000
01000000
00001000
00010000
00000000
00000100
00000000
00000010
00000000
00000001
00000000
,  // measure 34
00001000
00000000
00000010
00010000
00000100
00000000
00010000
00001000
01000000
00000000
00010000
00000000
20000000
00000000
00000000
00000000
,  // measure 35
30010000
00000000
00010000
00100000
00010000
00000000
10000000
01000000
10000000
00000000
00010000
00000000
00100000
00000000
00001000
00000000
,  // measure 36
00100000
00000000
00000100
00001000
00000100
00000000
00000010
00000001
00000010
00000000
00000100
00000000
00010000
00000000
00000010
00000000
,  // measure 37
00000100
00000000
00000001
00000010
00000100
00000000
00010000
00000010
00000100
00000000
00001000
00000000
00100000
00000000
00010000
00000000
,  // measure 38
01000000
00000000
00001000
10000000
01000000
00000000
10000000
00010000
01000000
00000000
00001000
00000000
00010000
00000000
00000000
00000000
,  // measure 39
00000000
00000000
01000000
00000000
00000000
00000100
00000000
00000000
01000000
00000000
00000000
00000100
00000000
00000000
01000000
00000000
,  // measure 40
00000000
00000100
00000000
00000000
01000000
00000000
00000000
00000100
00000000
00000000
01000000
00000000
00000100
00000000
01000100
00000000
,  // measure 41
00000000
00000000
00000010
00000000
00000000
00100000
00000000
00000000
00000010
00000000
00000000
00100000
00000000
00000000
00000010
00000000
,  // measure 42
00000000
00100000
00000000
00000000
00000010
00000000
00000000
00100000
00000000
00000000
00000010
00000000
00100000
00000000
00100010
00000000
,  // measure 43
00000000
00000000
01000000
00000000
00000000
00000100
00000000
00000000
01000000
00000000
00000000
00000010
00000000
00000000
00100000
00000000
,  // measure 44
00000000
00000010
00000000
00000000
01000000
00000000
00000000
00000100
00000000
00000000
00100000
00000000
00000010
00000000
00100010
00000000
,  // measure 45
00000000
00000000
00000100
00000000
00000000
01000000
00000000
00000000
01000100
00000000
00000000
00100000
00000000
00000000
00000010
00000000
,  // measure 46
00000000
00100010
00000000
00000000
00000100
00000000
00000000
01000000
00000000
00000000
01000100
00000000
01000100
00000000
00000000
00000000
,  // measure 47
00000001
00000000
00000100
00000000
00001000
00000000
00000000
00010000
00001000
00000000
00000100
00000000
00000001
00000000
00000100
00000000
,  // measure 48
00000000
00000000
00001000
00000000
00010000
00000000
01000000
00000000
00100000
00000000
00010000
10000000
00000000
10000000
00010000
00000000
,  // measure 49
10000000
00100000
10000000
00000000
00001000
00000000
01000000
00010000
00000000
00010000
00100000
00000000
00001000
00000000
00010000
00000000
,  // measure 50
00000000
00000100
00000010
00000100
00000000
00011000
00000000
00011000
,  // measure 51
10000000
00000000
01000000
00000000
00010000
00000000
00000000
00001000
00010000
00000000
01000000
00000000
10000000
00000000
01000000
00000000
,  // measure 52
00000000
00100000
00001000
00010000
00000010
00001010
00010010
00000000
,  // measure 53
00000001
00000100
00000001
00000000
00000010
00000000
00000100
00010000
00000000
00010000
00000010
00000000
00001000
00000000
00000100
00000000
,  // measure 54
00000000
00100000
01000000
00100000
00000000
00001000
00010000
00001000
,  // measure 55
01000000
00100000
00010000
00000000
00100000
00000000
01000000
00001000
00000000
00001000
00010000
00000000
00000100
00000000
00000010
00000000
,  // measure 56
00000000
00000000
00000100
00000000
00010000
00000000
00001000
00000000
00100000
00000000
00000000
00100000
00001000
00000000
00010000
00000000
,  // measure 57
00000010
00000100
00001000
00000000
00000100
00000000
00000010
00010000
00000000
00010000
00001000
00000000
00100000
00000000
00010000
00000000
,  // measure 58
00000000
01000000
00001000
01001000
00000000
00011000
00000000
00001010
,  // measure 59
00000100
00000010
00010000
00000000
00000100
00000000
00000010
00000001
00000000
00000010
00000100
00000000
00010000
00000000
00001000
00000000
,  // measure 60
00000000
01000000
00001000
00100000
00010000
10000000
10010000
00000000
,  // measure 61
00010000
00100000
01000000
00100000
00010000
00000000
00010000
01000000
00001000
01000000
00010000
00000000
00100000
00000000
00100000
00000000
,  // measure 62
00000000
00001000
00010000
00001000
00000000
00010000
00001000
00010000
,  // measure 63
00000100
00000000
00000000
00000100
00001000
00000000
00000010
00000000
00010000
00000010
00000000
00000010
00000001
00000000
00000010
00000000
,  // measure 64
00001000
00000000
00000100
00000000
00001000
00000001
00000000
00000000
00001000
00000000
00000100
00000000
00010000
00001000
00000000
00001000
,  // measure 65
01000000
00000000
00000000
01000000
00010000
00000000
00100000
00000000
00001000
00100000
00000000
00100000
10000000
00000000
00100000
00000000
,  // measure 66
00010000
00000000
01000000
00000000
00010000
10000000
00000000
00000000
00010000
00000000
01000000
00000000
00001000
00010000
00000000
00010000
,  // measure 67
00000010
00000000
00000000
00001000
00000000
00000000
00000100
00000000
00000010
00000001
00000000
00001000
00000100
00000000
00010000
00000000
,  // measure 68
00001000
00000000
01000000
00000000
00100000
01000000
00000000
00001000
00010000
00000000
00010000
00000000
00001000
00100000
00000000
01000000
,  // measure 69
00100000
00000000
00000000
00010000
00000000
00000000
01000000
00000000
00100000
10000000
00000000
00010000
01000000
00000000
00001000
00000000
,  // measure 70
00010000
00000000
00000100
00000000
00000010
00000100
00000000
00010000
00001000
00000000
00010000
00000000
00001000
00010000
00000000
00000100
,  // measure 71
00000010
00000000
00000100
00000000
00001000
00000000
00000000
00001010
00000000
00000000
00000001
00000000
00000100
00000000
00000000
00000000
,  // measure 72
00000010
00000000
00010000
00000000
00001000
00000000
00000000
00000010
00000000
00000000
00000001
00000000
00001000
00000010
00001000
00000000
,  // measure 73
00000100
00000000
00010000
00000000
00001000
00000000
00000000
01000000
00000000
00000000
00100000
00000000
10000000
00000000
01000000
00000000
,  // measure 74
10000000
00000000
00010000
01000000
00000000
01000000
00000000
00001000
00010000
00000000
00010000
00000000
01000000
00000000
00000000
00000000
,  // measure 75
10000000
00000000
00100000
00000000
01000000
00000000
00000000
01000000
00001000
00000000
00010000
00000000
00000100
00000000
00000000
00000000
,  // measure 76
00000100
00000000
00010000
00000000
00000010
00000000
00000000
00000010
00000100
00000000
00000001
00000000
00001000
00000100
00001000
00000000
,  // measure 77
00000100
00000000
00000010
00000000
00000001
00000000
00000000
00000001
00000100
00000000
00000010
00000000
00010000
00000000
00010000
00000000
,  // measure 78
00001000
00000000
01000000
00001000
00000000
00001000
00000000
00010000
00000100
00000000
00000100
00000000
00000010
00000001
00000010
00000000
,  // measure 79
00000100
00000000
00000100
00010000
00000000
00010000
00000000
00001000
01000000
00000000
01000000
00000000
10100000
00000000
00000000
00000000
,  // measure 80
00010000
00100000
01000000
00100000
00010000
00000000
00001000
00000100
00000010
00000100
00001000
00000000
00000001
00000000
00001000
00000000
,  // measure 81
00000000
00000001
00000100
00001000
00010000
00000100
00000010
00000000
,  // measure 82
00001000
00000100
00000010
00000100
00001000
00000000
00010000
00100000
01000000
00100000
00010000
00000000
10000000
00000000
00010000
00000000
,  // measure 83
00000000
01000000
00100000
01000000
00000000
01100000
00000000
10010000
,  // measure 84
10000000
01000000
00100000
00001000
00010000
00000000
00010000
00001000
01000000
00100000
10000000
00000000
00010000
00000000
10000000
00000000
,  // measure 85
00000000
00100000
00010000
00001000
00000100
00000010
00000110
00000000
,  // measure 86
00000001
00000010
00000100
00010000
00001000
00000000
00001000
00010000
00000010
00000100
00000001
00000000
00001000
00000000
00000001
00000000
,  // measure 87
00000000
00000100
00001000
00000000
00010000
00100000
01000000
00000000
,  // measure 88
10000000
00010000
01000000
00010000
10000000
00000000
00001000
00100000
00010000
00100000
00001000
00000000
00010000
00000000
00000010
00000000
,  // measure 89
00000000
00000000
00001000
00000000
00000001
00000000
00000010
00000000
00000100
00000000
00000000
00010100
00000000
00000000
00001010
00000000
,  // measure 90
00000001
00001000
00000010
00001000
00000001
00000000
00010000
00000100
00001000
00000100
00010000
00000000
00001000
00000000
01000000
00000000
,  // measure 91
00000000
00010000
00010000
10000000
10000000
01000000
00100000
00010000
,  // measure 92
00001000
00000100
00000010
00000100
00001000
00000000
00010000
00001000
00000000
00001000
00010000
00000000
00000010
00000000
00000100
00000000
,  // measure 93
00000000
00000001
00000010
00000100
00001000
00011000
00101000
00000000
,  // measure 94
00010000
00100000
01000000
00100000
00010000
00000000
00001000
00000100
00000010
00000100
00001000
00000000
00010000
00000000
00100000
00000000
,  // measure 95
00000000
10000000
00100000
00010000
00000000
00001000
00000010
00000001
,  // measure 96
00000000
10000000
01000000
00010000
00000000
00001000
00000100
00000001
,  // measure 97
00000000
10000000
00100000
00010000
00000000
00001000
00000010
00000001
,  // measure 98
00022000
00000000
00000000
00000000
,  // measure 99
00000000
00000000
00000000
00000000
00000000
00000000
00000000
00033000
;
