#TITLE:Somnia;
#SUBTITLE:;
#ARTIST:REDALiCE;
#TITLETRANSLIT:;
#SUBTITLETRANSLIT:;
#ARTISTTRANSLIT:;
#GENRE:;
#CREDIT:;
#MENUCOLOR:#d63fb1;
#BANNER:Somnia-bn.png;
#BACKGROUND:Somnia-bg.png;
#LYRICSPATH:;
#CDTITLE:!cdtitle.png;
#MUSIC:somnia.mp3;
#OFFSET:-0.115;
#SAMPLESTART:65.320;
#SAMPLELENGTH:20.000;
#SELECTABLE:YES;
#LISTSORT:;
#BPMS:0.000=161.000;
#STOPS:;
#TICKCOUNT:0.000=2;
#BGCHANGES:;
#KEYSOUNDS:;
#ATTACKS:;

//---------------dance-single - ----------------
#NOTES:
     dance-single:
     :
     Hard:
     8:
     0.506,0.526,0.321,0.165,0.087: // measure 1
0000
0000
0000
0000
,  // measure 2
0000
0000
0000
0000
,  // measure 3
0000
0000
0000
0000
,  // measure 4
0000
0000
0000
0000
,  // measure 5
0000
0000
0000
0000
,  // measure 6
0000
0000
0000
0000
,  // measure 7
0000
0000
0000
0000
,  // measure 8
0000
0000
0000
0000
,  // measure 9
2000
0000
3001
0200
0000
0301
2000
0000
,  // measure 10
3100
0000
0000
0000
1000
0000
0100
0000
0010
0000
0000
0001
0000
0000
0100
0000
,  // measure 11
0001
0000
0000
0000
0100
0000
0010
0000
1000
0000
0000
0001
0000
0000
1000
0000
,  // measure 12
0100
0000
0000
0000
0010
0000
0100
0000
1000
0000
0000
1000
0000
0000
0001
0000
,  // measure 13
0100
0000
0000
0000
0001
0000
0010
0000
0100
0000
0000
1000
0000
0000
0010
0000
,  // measure 14
0100
0000
0000
0000
0010
0000
0100
0000
0001
0000
0000
0001
0000
0000
0100
0000
,  // measure 15
0010
0000
0000
0000
1000
0000
0001
0000
0010
0000
0000
0100
0000
0000
1000
0000
,  // measure 16
0001
0000
0000
0000
1000
0000
0100
0000
1000
0000
0000
0001
0000
0000
0100
0000
,  // measure 17
0010
0010
0100
0100
0000
0000
1000
0100
,  // measure 18
0001
0000
0001
0100
1000
0000
0100
1000
,  // measure 19
0010
0000
0100
0000
0001
0000
0010
0001
,  // measure 20
0010
0000
1000
0010
1000
0000
0100
1000
,  // measure 21
0200
1000
0301
0010
,  // measure 22
0102
1000
0003
0010
,  // measure 23
2100
0000
0001
0000
3000
0000
0100
0010
,  // measure 24
0001
0000
0000
0001
0100
0000
0000
0100
,  // measure 25
0010
0000
1001
0000
0110
0000
0010
1000
,  // measure 26
0001
0000
0010
0001
1000
0000
1000
0100
,  // measure 27
0010
0000
0011
0000
0101
0000
0001
1000
,  // measure 28
0100
0000
0110
0000
0010
0001
1000
0000
,  // measure 29
1020
0100
0030
0001
,  // measure 30
1000
0000
0001
1000
0001
0000
0010
0000
,  // measure 31
0100
0000
0010
0100
0010
0000
1000
0100
,  // measure 32
0001
0000
0000
0001
0100
0000
0000
0100
,  // measure 33
1000
0000
0000
0000
1001
0000
0001
0100
,  // measure 34
1000
0100
0010
0100
0001
0000
0010
0000
,  // measure 35
1000
0010
0001
0010
0100
0000
0010
0001
,  // measure 36
0200
1000
0001
0320
,  // measure 37
0230
0000
0000
0000
0300
0000
1000
0010
,  // measure 38
0001
0010
0100
0010
1000
0000
0100
0000
,  // measure 39
0001
0100
1000
0100
0010
0000
0001
0100
,  // measure 40
0010
0000
0000
0010
0000
0000
0010
0000
0100
0000
0000
0100
0000
0000
0100
0000
,  // measure 41
1001
0000
0000
0110
0000
0000
1001
0000
,  // measure 42
0101
0000
0000
1010
0000
0000
1100
0000
,  // measure 43
0011
0000
0000
0110
0000
0000
1001
0100
,  // measure 44
0000
0000
0000
0000
0000
0000
0001
1000
,  // measure 45
1002
0000
0103
0010
2000
0000
3100
0010
,  // measure 46
0001
0100
0000
0100
0000
0010
1000
0001
,  // measure 47
2000
0000
0000
0000
3100
0000
0010
0000
0002
0000
0000
0100
0000
0000
1003
0000
,  // measure 48
1000
0010
0000
0010
0100
0000
0001
1000
,  // measure 49
0001
0000
0000
0000
0010
0000
0100
0000
1000
0000
0000
0100
0000
0000
1000
0000
,  // measure 50
0001
0100
0000
1000
0100
0000
0010
1000
,  // measure 51
0001
0010
0001
0200
0000
0010
0000
0301
,  // measure 52
0020
0000
1000
0000
0130
0000
0010
0001
,  // measure 53
0100
0000
0000
0000
0100
0000
0001
0000
0010
0000
0000
0100
0000
0000
1000
0000
,  // measure 54
0001
0100
0000
0001
0010
0000
0100
1000
,  // measure 55
0010
0000
0000
0000
0010
0000
1000
0000
0100
0000
0000
0010
0000
0000
0001
0000
,  // measure 56
1000
0010
0000
1000
0100
0000
1000
1000
,  // measure 57
0010
0000
0100
0001
0100
0000
0001
0010
,  // measure 58
0100
1000
0000
1000
0001
0000
0100
0001
,  // measure 59
1000
0100
1000
0020
0000
0100
0000
1030
,  // measure 60
0200
0001
0320
0130
,  // measure 61
1001
0000
0000
0000
0001
0000
0100
0000
1000
0000
0000
0100
0000
0000
0001
0000
,  // measure 62
0011
0000
0000
0000
0010
0000
0100
0000
1000
0000
0000
0010
0000
0000
1000
0000
,  // measure 63
1001
0000
0000
0000
0001
0000
0100
0000
0010
0000
0000
1000
0000
0000
0100
0000
,  // measure 64
0110
0000
0000
0000
0010
0000
0001
0000
1000
0000
0000
0001
0000
0000
1000
0000
,  // measure 65
1010
0000
0000
0000
1000
0000
0010
0000
0001
0000
0000
0010
0000
0000
1000
0000
,  // measure 66
1100
0000
0000
0000
0100
0000
0010
0000
0001
0000
0000
0100
0000
0000
0001
0000
,  // measure 67
1001
0000
0000
0000
1000
0000
0010
0000
0100
0000
0000
0001
0000
0000
0010
0000
,  // measure 68
0110
0000
0100
1000
0000
0100
0001
0000
,  // measure 69
1000
0000
1001
0000
0000
0001
0100
0000
,  // measure 70
0010
0000
1010
0000
0000
1000
0100
0000
,  // measure 71
0010
0000
0101
0000
0000
0001
1000
0000
,  // measure 72
0100
0000
1000
1010
0000
0001
0011
0000
,  // measure 73
0001
0000
1100
0000
0000
0001
0010
0000
,  // measure 74
0100
0000
1010
0000
0000
1000
0100
0000
,  // measure 75
0001
0000
0110
0000
0000
1000
0010
0000
,  // measure 76
1001
0000
0010
0100
0000
0000
1001
0000
;

//---------------dance-single - ----------------
#NOTES:
     dance-single:
     :
     Medium:
     7:
     0.417,0.461,0.295,0.261,0.004: // measure 1
0000
0000
0000
0000
,  // measure 2
0000
0000
0000
0000
,  // measure 3
0000
0000
0000
0000
,  // measure 4
0000
0000
0000
0000
,  // measure 5
0000
0000
0000
0000
,  // measure 6
0000
0000
0000
0000
,  // measure 7
0000
0000
0000
0000
,  // measure 8
0000
0000
0000
0000
,  // measure 9
0100
0000
0000
0100
0000
0000
0100
0000
,  // measure 10
0010
0000
1000
0100
1000
0000
0001
0000
,  // measure 11
1100
0000
0001
0100
0001
0000
1000
0000
,  // measure 12
0101
0000
0010
0001
0010
0000
0100
0000
,  // measure 13
1100
0000
0010
1000
0010
0000
0100
0000
,  // measure 14
0101
0000
0010
0001
1000
0000
1000
0001
,  // measure 15
0010
0000
0100
1000
0001
0000
0001
1000
,  // measure 16
0100
0000
0000
0000
0010
0000
0100
0000
0010
0000
0000
0010
0000
0000
0010
0000
,  // measure 17
0200
0000
0300
0000
,  // measure 18
1000
0000
0100
0000
1000
0000
0001
1000
,  // measure 19
0002
0000
0000
0000
0103
0000
0010
0100
,  // measure 20
0010
0000
1000
0001
1000
0000
0100
0000
,  // measure 21
2000
0000
3010
0001
,  // measure 22
0101
0001
0000
1000
,  // measure 23
1100
1000
0000
0010
,  // measure 24
0110
0100
0110
1000
,  // measure 25
2002
0000
3003
0000
,  // measure 26
0001
1000
0001
1000
,  // measure 27
0010
0100
0010
0100
,  // measure 28
0001
0000
0010
0000
0100
0010
0100
0000
,  // measure 29
2000
0000
0010
0000
3100
0000
0001
1000
,  // measure 30
0001
0000
0010
0000
0100
0000
1000
0001
,  // measure 31
1000
0000
0010
0000
0100
0000
0001
0100
,  // measure 32
0001
0000
0100
0010
0100
0000
0010
0100
,  // measure 33
0010
0000
1000
0010
1000
0000
0001
0000
,  // measure 34
1000
0000
0100
0100
0100
0000
0000
0000
,  // measure 35
0001
0000
0100
0100
0100
0000
0010
0100
,  // measure 36
0010
0000
1001
0110
,  // measure 37
1001
0000
0000
0000
0000
0000
0001
0010
,  // measure 38
0100
0000
0100
0000
0100
0000
0100
1000
,  // measure 39
0010
0000
0010
0000
0010
0000
0010
0100
,  // measure 40
0001
0001
1000
1000
,  // measure 41
0001
0000
0000
0001
0000
0000
0001
0000
,  // measure 42
1000
0000
0000
1000
0000
0000
1000
0000
,  // measure 43
0110
0000
0000
0110
0000
0000
0220
0330
,  // measure 44
0000
0000
0000
0000
0000
0000
1000
0010
,  // measure 45
0102
1000
0100
0010
,  // measure 46
1000
0000
0100
0000
0013
0000
0001
0010
,  // measure 47
2100
0001
0100
0010
,  // measure 48
0001
0000
0100
0000
3010
0000
0001
0100
,  // measure 49
1002
0010
1000
0010
,  // measure 50
1000
0000
0100
0000
1003
0000
0100
0010
,  // measure 51
0100
0000
1000
0000
0001
0000
1000
0001
,  // measure 52
1000
0000
0110
0000
1001
0000
0001
0100
,  // measure 53
2010
0001
0010
0100
,  // measure 54
0001
0000
0010
0000
3100
0000
1000
0100
,  // measure 55
0012
1000
0010
0100
,  // measure 56
1000
0000
0010
0000
0103
0000
1000
0010
,  // measure 57
2001
0100
0001
0100
,  // measure 58
0001
0000
0010
0000
3001
0000
0010
0100
,  // measure 59
0010
0000
0001
0000
1000
0000
0001
1000
,  // measure 60
2002
0000
0000
3003
,  // measure 61
0110
0000
0010
1000
0100
0000
0100
1000
,  // measure 62
0010
0000
0100
0001
0010
0000
0010
0001
,  // measure 63
0100
0000
0001
0100
0001
0000
0010
0000
,  // measure 64
1001
0000
1000
0010
1000
0000
0100
0000
,  // measure 65
1001
0000
0010
0001
1000
0000
0010
1000
,  // measure 66
0001
0000
0100
0001
1000
0000
0100
1000
,  // measure 67
0001
0000
1000
0010
1000
0000
0001
0000
,  // measure 68
1100
0000
0001
0100
0001
0000
1000
0000
,  // measure 69
0022
0000
0000
0033
,  // measure 70
2020
0000
0000
3030
,  // measure 71
2200
0000
0000
3300
,  // measure 72
0202
0000
0000
0303
,  // measure 73
2002
0000
0000
3003
,  // measure 74
0220
0000
0000
0330
,  // measure 75
2000
0000
0000
3000
,  // measure 76
0002
0000
0000
0003
;

//---------------dance-single - ----------------
#NOTES:
     dance-single:
     :
     Easy:
     4:
     0.289,0.358,0.269,0.130,0.000: // measure 1
0000
0000
0000
0000
,  // measure 2
0000
0000
0000
0000
,  // measure 3
0000
0000
0000
0000
,  // measure 4
0000
0000
0000
0000
,  // measure 5
0000
0000
0000
0000
,  // measure 6
0000
0000
0000
0000
,  // measure 7
0000
0000
0000
0000
,  // measure 8
0000
0000
0000
0000
,  // measure 9
0010
0000
0100
0010
,  // measure 10
0110
0000
1000
0001
,  // measure 11
1000
0000
0001
1000
,  // measure 12
0001
0000
0010
0100
,  // measure 13
0010
0000
0100
0010
,  // measure 14
0100
0000
0001
0100
,  // measure 15
0010
0000
1000
0100
,  // measure 16
0010
0000
0001
1000
,  // measure 17
0001
0000
0000
0000
,  // measure 18
0100
0000
0010
0000
,  // measure 19
1000
0000
0001
0010
,  // measure 20
0001
0000
1000
0010
,  // measure 21
1000
0000
1001
0100
,  // measure 22
0100
0000
0000
0010
,  // measure 23
0010
0000
0000
0001
,  // measure 24
0101
1000
1100
0010
,  // measure 25
1001
0000
0100
0000
0010
0000
1000
0100
,  // measure 26
1000
0000
0010
0000
,  // measure 27
0101
0000
0000
0000
0010
0000
0001
0100
,  // measure 28
0001
0000
0010
0000
,  // measure 29
1100
0000
0010
1001
,  // measure 30
0110
0000
0000
1001
,  // measure 31
0110
0000
0000
1000
,  // measure 32
1100
0001
0101
0100
,  // measure 33
0110
0000
0010
0100
0010
0000
1000
0000
,  // measure 34
0001
0001
0001
0000
,  // measure 35
1000
1000
1000
0100
,  // measure 36
0020
0000
0230
0000
,  // measure 37
0320
0000
0030
0000
,  // measure 38
0001
0001
0001
0000
,  // measure 39
1000
1000
1000
0000
,  // measure 40
0010
0000
0100
0000
,  // measure 41
0110
0000
1001
0000
,  // measure 42
0110
0000
1001
0000
,  // measure 43
0100
0000
0100
0000
,  // measure 44
0110
0000
0000
0000
,  // measure 45
0002
0100
1003
0000
,  // measure 46
0002
0100
1003
0000
,  // measure 47
2000
0010
3001
0000
,  // measure 48
2000
0010
3001
0000
,  // measure 49
0020
0001
0130
0000
,  // measure 50
0020
0001
0130
0000
,  // measure 51
0200
1000
0310
0000
,  // measure 52
0200
1000
0310
0000
,  // measure 53
0002
0100
1000
0100
,  // measure 54
0010
0100
1000
0103
,  // measure 55
2000
0100
0010
0001
,  // measure 56
0010
0100
0010
3001
,  // measure 57
0020
1000
0100
0001
,  // measure 58
0100
1000
0100
0031
,  // measure 59
0200
0001
0010
1000
,  // measure 60
0010
0001
0010
1300
,  // measure 61
0001
0000
1000
0001
,  // measure 62
1001
0000
0001
1000
,  // measure 63
1001
0000
0100
0010
,  // measure 64
0110
0000
0010
0100
,  // measure 65
0110
0000
1000
0001
,  // measure 66
1100
0000
0001
1000
,  // measure 67
0101
0000
0010
0100
,  // measure 68
0010
0010
0100
0100
,  // measure 69
1001
0000
0000
0000
,  // measure 70
0110
0000
0000
0000
,  // measure 71
1001
0000
0000
0000
,  // measure 72
0110
0000
0000
0000
,  // measure 73
1000
0000
0000
0000
,  // measure 74
0001
0000
0000
0000
,  // measure 75
1001
0000
0000
0000
,  // measure 76
0110
0000
0000
0000
;

//---------------dance-single - ----------------
#NOTES:
     dance-single:
     :
     Beginner:
     2:
     0.149,0.263,0.148,0.000,0.000: // measure 1
0000
0000
0000
0000
,  // measure 2
0000
0000
0000
0000
,  // measure 3
0000
0000
0000
0000
,  // measure 4
0000
0000
0000
0000
,  // measure 5
0000
0000
0000
0000
,  // measure 6
0000
0000
0000
0000
,  // measure 7
0000
0000
0000
0000
,  // measure 8
0000
0000
0000
0000
,  // measure 9
0010
0000
0010
0010
,  // measure 10
0010
0000
0000
0000
,  // measure 11
0100
0000
0000
0000
,  // measure 12
1000
0000
0000
0000
,  // measure 13
0001
0000
0000
0000
,  // measure 14
0010
0000
0000
0000
,  // measure 15
0100
0000
0000
0000
,  // measure 16
0010
0000
0000
0000
,  // measure 17
1001
0000
0000
0000
,  // measure 18
0100
0000
0000
0000
,  // measure 19
0010
0000
0000
0000
,  // measure 20
1000
0000
0000
0000
,  // measure 21
0001
0000
0000
0000
,  // measure 22
0010
0010
0000
0000
,  // measure 23
0100
0100
0000
0000
,  // measure 24
1001
0000
0110
0000
,  // measure 25
1001
0000
0000
0000
,  // measure 26
0001
0000
0000
0000
,  // measure 27
0001
0000
0000
0000
,  // measure 28
1000
0000
0000
0000
,  // measure 29
1000
0000
0000
0000
,  // measure 30
0001
0001
0000
0000
,  // measure 31
1000
1000
0000
0000
,  // measure 32
0100
0000
0010
0000
,  // measure 33
0110
0000
1001
0000
,  // measure 34
1001
0000
0000
0000
,  // measure 35
0000
0000
0000
0000
,  // measure 36
0010
0000
0010
0000
,  // measure 37
0010
0000
0000
0000
,  // measure 38
0000
0000
0000
0000
,  // measure 39
0000
0000
0000
0000
,  // measure 40
0100
0000
0100
0000
,  // measure 41
1001
0000
0000
0000
,  // measure 42
0110
0000
0000
0000
,  // measure 43
0001
0000
1000
0000
,  // measure 44
1001
0000
0000
0000
,  // measure 45
0100
0100
0100
0100
,  // measure 46
0100
0000
0000
0000
,  // measure 47
0010
0010
0010
0010
,  // measure 48
0010
0000
0000
0000
,  // measure 49
1000
0000
0001
0000
,  // measure 50
1000
0000
0001
0000
,  // measure 51
1000
1000
1000
0000
,  // measure 52
0001
0001
0001
0000
,  // measure 53
0010
0000
0100
0000
,  // measure 54
0010
0010
0010
0000
,  // measure 55
0100
0000
0010
0000
,  // measure 56
0100
0100
0100
0000
,  // measure 57
1000
0000
0001
0000
,  // measure 58
1000
1000
1000
0000
,  // measure 59
0001
0000
1000
0000
,  // measure 60
0001
0001
0001
0001
,  // measure 61
0001
0000
0000
0000
,  // measure 62
1001
0000
0000
0000
,  // measure 63
1000
0000
0000
0000
,  // measure 64
1001
0000
0000
0000
,  // measure 65
0010
0000
0000
0000
,  // measure 66
0110
0000
0000
0000
,  // measure 67
0100
0000
0000
0000
,  // measure 68
0110
0000
0000
0000
,  // measure 69
1001
0000
0000
0000
,  // measure 70
0001
0000
0000
0000
,  // measure 71
1001
0000
0000
0000
,  // measure 72
1000
0000
0000
0000
,  // measure 73
0100
0000
0000
0000
,  // measure 74
0100
0000
0000
0000
,  // measure 75
0010
0000
0000
0000
,  // measure 76
0010
0000
0000
0110
;

//---------------dance-double - ----------------
#NOTES:
     dance-double:
     :
     Challenge:
     8:
     0.527,0.559,0.096,0.096,0.096:
00000000
00000000
00000000
00000000
,
00000000
00000000
00000000
00000000
,
00000000
00000000
00000000
00000000
,
00000000
00000000
00000000
00000000
,
00000000
00000000
00000000
00000000
,
00100000
00000000
00000000
00010000
00000000
00000000
00010000
00000000
,
00000010
00000000
00000000
00001000
00000000
00000000
00001000
00000000
,
01000000
00000000
00000000
00010000
00000000
00000000
00001000
00000000
,
00000100
00000000
00000001
00000010
00000100
00001000
00010000
00000000
,
00001000
00000000
00000000
00000000
00000010
00000000
00000001
00000000
00000010
00000000
00000000
00010000
00000000
00000000
00000010
00000000
,
00000100
00000000
00000000
00000000
00000000
00000000
00010000
00000000
00001000
00000000
00000000
01000000
00000000
00000000
00001000
00000000
,
00100000
00000000
00000000
00000000
01000000
00000000
10000000
00000000
01000000
00000000
00000000
00001000
00000000
00000000
01000000
00000000
,
00100000
00000000
00000000
00000000
00000000
00000000
00001000
00000000
00010000
00000000
00000000
00000010
00000000
00000000
00010000
00000000
,
00000100
00000000
00000000
00000000
00010000
00000000
00000010
00000000
00010000
00000000
00000000
00000100
00000000
00000000
00001000
00000000
,
00000001
00000000
00000000
00000000
00000000
00000000
00000100
00000000
00000000
00010000
00000000
00000000
00010000
00000000
00001000
00000000
,
01000000
00000000
00000000
00000000
00100000
00000000
10000000
00000000
00010000
00000000
00000000
00100000
00000000
00000000
00001000
00000000
,
00000100
00000010
00010000
00001000
00000000
00000000
00000001
00000100
,
00001000
00000000
00001000
00000100
00000010
00000000
00000010
00010000
,
00002000
00000000
00010000
00000000
00103000
00000000
10000000
00100000
,
00010000
00000000
00010000
00100000
01000000
00000000
01000000
00001000
,
00020000
00001000
00030100
00000010
,
00000102
00000000
00001003
00000100
00000001
00000000
00000100
00000000
,
00020100
00000000
00031000
00010000
01000000
00000000
10000000
00100000
,
10000000
00000000
00010000
01000000
00010000
00000000
00100000
00001000
,
00100000
00000000
00001000
00000000
00000110
00001000
00010000
00001000
,
00000100
00000000
00000001
00000010
00000001
00000000
00001000
00000100
,
00001000
00000000
00000001
00000000
00000100
00001000
00010000
00001000
,
00100000
00000000
01000000
10000000
00100000
10000000
00010000
00000000
,
01001000
00000000
00110000
00000000
00001000
00010000
00001000
00000000
,
00000010
00000000
00001000
00000001
00001000
00000000
00000100
00000000
,
00000010
00000000
00000001
00000100
00000001
00000000
00001000
00010000
,
00100000
00000000
00100000
10000000
01000000
00000000
01000000
00010000
,
00001000
00000010
00000001
00000100
00001000
00010000
00100000
00000000
,
10000000
00000000
01000000
00000000
10000000
00000000
01000000
00000000
00200000
00000000
00000000
00001000
00000000
00000000
00301000
00000000
,
00010000
00000000
00000010
00000000
00010000
00000000
00000010
00000000
00000200
00000000
00000000
00000001
00000000
00000000
00000301
00000000
,
00000010
00000100
00001000
00000000
00011000
00000000
01010000
00000000
,
10200000
00000000
01000000
00000000
00310000
00000000
00010000
00000010
,
00010000
00000000
00001000
00000000
00010000
00000000
00001000
00000000
00000200
00000000
00000000
00000010
00000000
00000000
00000310
00000000
,
00000001
00000000
00001000
00000000
00000001
00000000
00001000
00000000
00000020
00000000
00000000
00010000
00000000
00000000
00010030
00000000
,
00001000
00000000
00000000
01000000
00000000
00000000
10000000
00000000
01000000
00000000
00000000
00010000
00000000
00000000
00001000
00000000
,
00000100
00000000
00000100
00001000
00000000
00001000
00000010
00000001
,
00000010
00000000
00000010
00010000
00000000
00010000
00001000
00100000
,
10000000
00000000
10000000
00100000
00000000
00100000
01000000
10000000
,
00000000
00000000
00000000
00000000
00000000
00000000
00010000
01000000
,
10000000
00000000
00000000
00000000
10000000
00000000
01000000
00000000
00020000
00000000
00000000
00100000
00000000
00000000
01030000
00000000
,
00001000
00010000
00000000
00000010
00001000
00000000
00001000
00000010
,
00000001
00000000
00000000
00000000
00000001
00000000
00000010
00000000
00002000
00000000
00000000
00000100
00000000
00000000
00003010
00000000
,
00010000
00001000
00000000
01000000
00010000
00000000
10000000
01000000
,
10000000
00000000
00100000
00010000
00001000
00010000
00000000
00000100
,
00000010
00000001
00000000
00000001
00000100
00000000
00000010
00010000
,
00000100
00001000
00000001
00000010
00000000
00001100
00000000
00010000
,
00000100
00000000
01000000
00001000
00000000
00010000
00100000
00000000
,
00001000
00000000
01000000
10000000
01000000
00000000
00001000
00100000
,
00001000
00000010
00000001
00001000
00000000
00001000
00000010
00000000
,
00010000
00000000
00000010
00000001
00000010
00000000
00010000
00000100
,
00010000
01000000
10000000
00010000
00000000
00010000
01000000
00000000
,
00001000
00000000
01000000
00100000
10000000
00000000
00001000
00100000
,
00001000
00000100
00000001
00000010
00000000
00000010
00000100
00000000
,
00010000
00000010
00000100
00000001
00000000
00010000
00000000
00000100
,
00010000
01000000
10000000
01000000
00100000
00001000
00000100
00000010
,
00010000
00000000
00000000
00000000
00001000
00000000
00000010
00000000
00000001
00000000
00000000
00000010
00000000
00000000
00001000
00000000
,
00010000
00000000
00000000
00000000
01000000
00000000
10000000
00000000
01000000
00000000
00000000
00100000
00000000
00000000
00010000
00000000
,
01000000
00000000
00000000
00000000
00100000
00000000
00010000
00000000
00001000
00000000
00000000
00000100
00000000
00000000
00000001
00000000
,
00000010
00000000
00000000
00000000
00001000
00000000
00000010
00000000
00000001
00000000
00000000
00001000
00000000
00000000
00000100
00000000
,
00010000
00000000
00000000
00000000
00001000
00000000
01000000
00000000
00001000
00000000
00000000
00010000
00000000
00000000
01000000
00000000
,
10000000
00000000
00000000
00000000
00100000
00000000
10000000
00000000
01000000
00000000
00000000
00001000
00000000
00000000
01000000
00000000
,
00100000
00000000
00000000
00000000
00001000
00000000
00100000
00000000
00000100
00000000
00000000
00000010
00000000
00000000
00000001
00000000
,
00001000
00010000
00100000
00010000
00001000
00000100
00000001
00000000
,
00000010
00000000
00000010
00000100
00000000
00000100
00010000
00000000
,
00010000
00000000
00001000
01000000
00000000
00100000
10000000
00000000
,
10000000
00000000
01000000
00100000
00000000
00100000
00001000
00000000
,
00001000
00000000
00010000
00000010
00000000
00000100
00000001
00000000
,
00000010
00000000
00001000
00010000
00000000
00010000
00001000
00000000
,
01000000
00000000
00100000
00010000
00001000
00000000
00000100
00000000
,
00000010
00000000
00001000
00000100
00010000
00001000
00100000
00010000
,
01100000
00000000
10000000
00100000
00010000
00000000
00011000
00000000
;

//---------------dance-single - LIFTS----------------
#NOTES:
     dance-single:
     LIFTS:
     Edit:
     7:
     0.454,0.526,0.243,0.226,0.069: // measure 1
0000
0000
0000
0000
,  // measure 2
0000
0000
0000
0000
,  // measure 3
0000
0000
0000
0000
,  // measure 4
0000
0000
0000
0000
,  // measure 5
0000
0000
0000
0000
,  // measure 6
0000
0000
0000
0000
,  // measure 7
0000
0000
0000
0000
,  // measure 8
0000
0000
0000
0000
,  // measure 9
0001
0000
0001
0010
0000
1000
0100
0000
,  // measure 10
0011
0000
0000
0000
0000
0000
0001
0000
0100
0000
0000
0100
0000
0000
0100
0000
,  // measure 11
0010
0000
0000
0000
0000
0000
1000
0000
0010
0000
0000
0010
0000
0000
0010
0000
,  // measure 12
0100
0000
0000
0000
0000
0000
0001
0000
1000
0000
0000
1000
0000
0000
0100
0000
,  // measure 13
0010
0000
0000
0000
0000
0000
0001
0000
0100
0000
0000
0100
0000
0000
0010
0000
,  // measure 14
1000
0000
0000
0000
0000
0000
1000
0000
0001
0000
0000
0001
0000
0000
0001
0000
,  // measure 15
0010
0000
0000
0000
0000
0000
0100
0000
1000
0000
0000
1000
0000
0000
0010
0000
,  // measure 16
0100
0000
0000
0000
0000
0000
0001
0000
0010
0000
0000
0001
0000
0000
0010
0000
,  // measure 17
0100
0000
0L00
0000
0010
0000
00L0
0000
0000
0000
0001
1000
0001
0000
0000
0000
,  // measure 18
0100
0L00
0010
00L0
,  // measure 19
1001
0000
L00L
0000
0010
1000
0100
0000
,  // measure 20
0010
00L0
0100
0L00
,  // measure 21
1001
0000
L00L
0000
0010
0001
0100
0000
,  // measure 22
0001
0000
0000
0001
0010
0000
0000
0000
0010
0000
0000
0000
010L
0000
0000
0000
,  // measure 23
0010
0110
0010
L100
,  // measure 24
0010
0000
100L
L000
0L10
00L0
100L
0000
,  // measure 25
0001
000L
0L10
00L0
L000
0L00
00L1
0000
,  // measure 26
1000
1000
0010
0010
,  // measure 27
0200
0310
0LL0
0001
,  // measure 28
0010
0001
0010
0000
0100
0000
1100
0000
,  // measure 29
0011
00LL
0000
0001
,  // measure 30
0200
1000
0310
0000
,  // measure 31
2000
0100
3010
0000
,  // measure 32
0002
0000
0023
0000
,  // measure 33
0130
0000
1000
0000
0100
1000
0100
1000
,  // measure 34
0100
0L00
0100
0L00
,  // measure 35
0010
00L0
0010
00L0
,  // measure 36
0002
0100
1000
0100
,  // measure 37
00L0
0000
0L00
0000
L003
0000
0010
0001
,  // measure 38
0010
0001
0100
0001
0100
0000
0010
1000
,  // measure 39
0010
1000
0100
1000
0100
0000
0010
0000
,  // measure 40
00L0
1001
L00L
0100
,  // measure 41
0L10
0000
0000
00L0
0000
0000
0LL0
0000
,  // measure 42
0001
0000
0000
000L
0000
0000
L00L
0000
,  // measure 43
1100
0000
0000
0L0L
0000
0000
L00L
0010
,  // measure 44
0000
0000
0000
0000
0000
0000
1000
0100
,  // measure 45
0020
0001
0100
0001
,  // measure 46
0L00
0000
000L
0000
0L00
0000
0031
0010
,  // measure 47
0200
1000
0010
1000
,  // measure 48
00L0
0000
L000
0000
00L0
0000
1300
0010
,  // measure 49
0001
0000
0001
0010
1000
0000
1000
0100
,  // measure 50
0010
00L0
000L
0L00
,  // measure 51
L010
0000
1000
0100
0001
0000
0001
0010
,  // measure 52
1000
0000
0010
0000
0001
0000
1000
0010
,  // measure 53
0200
0001
0010
1000
,  // measure 54
000L
0000
00L0
0000
L300
0000
0001
0100
,  // measure 55
0020
1000
0100
0001
,  // measure 56
L000
0000
0L00
0000
003L
0000
0100
0010
,  // measure 57
2000
0100
0010
3002
,  // measure 58
0L00
0000
00L0
0000
L003
0000
0010
0100
,  // measure 59
0002
0010
0100
2003
,  // measure 60
00L0
0L00
300L
0LL0
,  // measure 61
1001
0000
0000
0000
0010
0000
0001
0000
0100
0000
0000
0100
0000
0000
0100
0000
,  // measure 62
0010
0000
0000
0000
0000
0000
1000
0000
0100
0000
0000
0100
0000
0000
1000
0000
,  // measure 63
0001
0000
0000
0000
0100
0000
0001
0000
0010
0000
0000
0010
0000
0000
0010
0000
,  // measure 64
0100
0000
0000
0000
0000
0000
0010
0000
0001
0000
0000
1000
0000
0000
0001
0000
,  // measure 65
0100
0000
0000
0000
0000
0000
0010
0000
1000
0000
0000
1000
0000
0000
1000
0000
,  // measure 66
0100
0000
0000
0000
0000
0000
0010
0000
0001
0000
0000
0001
0000
0000
0001
0000
,  // measure 67
0100
0000
0000
0000
0010
0000
1000
0000
0001
0000
0000
1000
0000
0000
0100
0000
,  // measure 68
0010
0000
0001
0100
0000
1000
0100
0000
,  // measure 69
0002
0103
000L
0L00
,  // measure 70
2000
3010
L000
00L0
,  // measure 71
0002
0013
000L
00L0
,  // measure 72
2000
3100
L000
0L00
,  // measure 73
0020
0230
03L0
0L00
,  // measure 74
2000
3002
L003
000L
,  // measure 75
0200
0302
0L03
000L
,  // measure 76
0020
2030
30L0
L000
;
