#TITLE:SP-NOCTURNE MACHINE;
#SUBTITLE:;
#ARTIST:dj TAKA feat. DREAMS COME TRUE;
#TITLETRANSLIT:;
#SUBTITLETRANSLIT:;
#ARTISTTRANSLIT:;
#GENRE:;
#CREDIT:Azn_Punk_07/Frozen_Heat;
#MENUCOLOR:#00eaff;
#BANNER:SP-NOCTURNE MACHINE-bn.png;
#BACKGROUND:SP-NOCTURNE MACHINE-bg.png;
#LYRICSPATH:SP-NOCTURNE MACHINE.lrc;
#CDTITLE:!cdtitle.png;
#MUSIC:SP-NOCTURNE MACHINE.mp3;
#OFFSET:-0.033;
#SAMPLESTART:1.460;
#SAMPLELENGTH:22.500;
#SELECTABLE:YES;
#LISTSORT:;
#BPMS:0.000=168.000,228.000=84.000,244.000=168.000,340.000=84.000,341.500=80.000,342.250=75.000,343.000=73.500,343.750=65.000,344.500=60.000,345.250=55.000,346.000=50.000,346.750=32.500;
#STOPS:;
#TICKCOUNT:0.000=2;
#BGCHANGES:;
#KEYSOUNDS:;
#ATTACKS:;

//---------------dance-single - ----------------
#NOTES:
     dance-single:
     :
     Hard:
     8:
     0.562,0.555,0.531,0.042,0.035: // measure 1
0000
0000
0000
0000
,  // measure 2
0001
0000
0000
0101
0000
0000
0000
0000
,  // measure 3
0010
0001
0100
0001
0010
0100
1000
0010
,  // measure 4
1000
0000
0000
1100
0000
0000
0000
0000
,  // measure 5
1000
0010
0001
0010
1000
0100
0001
0100
,  // measure 6
1000
0001
0000
0101
0000
0000
1001
0000
,  // measure 7
0001
0000
0010
0000
0000
0110
0000
0001
,  // measure 8
0100
1000
0000
0100
0000
0000
0001
0000
,  // measure 9
1000
0000
1100
0000
0100
0100
0010
0010
,  // measure 10
0001
0000
0001
0100
0001
0000
1000
0000
,  // measure 11
1010
0000
0011
0000
0101
0000
1100
1000
,  // measure 12
0000
0001
0001
0000
0100
0010
0000
1010
,  // measure 13
0000
1100
0000
0100
0001
0010
1000
0001
,  // measure 14
0010
0000
0001
0100
0000
0100
0010
0000
,  // measure 15
0010
1000
0000
1000
0100
1000
0010
0100
,  // measure 16
0000
0100
0101
0000
0001
0010
0000
1010
,  // measure 17
0000
1100
0000
0100
0001
0010
1000
0010
,  // measure 18
0001
0100
0010
0100
0001
0000
1000
0000
,  // measure 19
1010
0000
0011
0000
0101
0000
1000
1100
,  // measure 20
0000
1000
0001
0000
0000
0011
0000
1010
,  // measure 21
0000
1100
0000
0101
0001
0010
0100
1000
,  // measure 22
0100
0000
0100
1000
0000
1000
0010
0000
,  // measure 23
0010
0100
0000
0001
0010
0000
0010
0100
,  // measure 24
0000
0100
1000
0000
0000
1010
0000
0011
,  // measure 25
0000
0101
0000
1100
0001
1000
0001
0100
,  // measure 26
0010
0000
1000
0000
0000
1100
0000
1001
,  // measure 27
0000
0101
0000
0100
0010
0010
1000
0001
,  // measure 28
0010
0100
1000
0000
1000
0100
0001
0100
,  // measure 29
0000
1000
0100
0000
0010
0001
0100
0010
,  // measure 30
1000
0100
0010
0100
0000
1000
0010
1000
,  // measure 31
0000
1100
0000
0010
0001
1000
0010
0100
,  // measure 32
0001
0000
0011
0000
0000
0100
0000
1100
,  // measure 33
0000
1010
0000
0011
0000
0001
0100
0000
,  // measure 34
0010
0000
0011
0000
0100
0010
1000
0001
,  // measure 35
0000
0011
0000
0001
0100
0010
1000
0001
,  // measure 36
0010
0000
1000
0000
0100
0000
0001
0010
,  // measure 37
0000
0010
0100
1000
0001
1000
0010
0100
,  // measure 38
0001
1000
0010
0000
0100
0010
1000
0001
,  // measure 39
1000
0000
0001
1000
0100
0010
0100
1000
,  // measure 40
0010
0000
1001
0000
0000
0101
0000
1100
,  // measure 41
0000
1010
0000
0011
0000
0001
0100
1000
,  // measure 42
0100
0001
0100
0000
1000
0000
0100
0010
,  // measure 43
0100
1000
0100
0000
0010
0000
0100
0001
,  // measure 44
0100
0010
0100
0000
1000
0100
0001
0010
,  // measure 45
1000
0000
1000
0010
0000
0010
0001
1000
,  // measure 46
0010
1000
0001
0000
0001
0100
0010
1000
,  // measure 47
0100
0000
0100
1000
0000
1000
0001
0010
,  // measure 48
0100
1000
0100
0000
0001
0100
0001
0000
,  // measure 49
0010
0001
0010
0000
1000
0010
1000
0001
,  // measure 50
0010
0100
1000
0000
1000
0010
1000
0001
,  // measure 51
0100
0000
0101
0000
0001
1000
0001
1000
,  // measure 52
0000
1100
0000
0000
0010
0100
1000
0100
,  // measure 53
0010
0000
0001
0100
0000
1000
0100
0001
,  // measure 54
0000
0001
0010
0100
1000
0000
1000
0001
,  // measure 55
1000
0000
0010
0000
0100
0001
1000
0010
,  // measure 56
1000
0000
0010
0001
0010
0000
0001
0100
,  // measure 57
0001
0000
0100
1000
0100
0010
0001
0100
,  // measure 58
0101
0000
0000
0000
1000
0000
0000
0000
0010
0000
0000
0000
1001
0000
0000
0010
,  // measure 59
0100
0000
0000
0000
1100
0000
0000
0000
0010
0000
0011
0000
1010
0100
0000
0000
,  // measure 60
0101
0000
0000
0000
1000
0000
0001
0110
,  // measure 61
1000
0000
0000
1000
0001
0000
0000
0001
0100
0000
0000
0100
0010
0000
0000
0010
,  // measure 62
1010
1000
0001
0000
1010
1000
0100
0000
,  // measure 63
0011
0001
1000
0000
0011
0001
0100
0000
,  // measure 64
1100
1000
0001
0000
1100
1000
0010
0000
,  // measure 65
0101
0001
1000
0000
0101
0001
0010
0000
,  // measure 66
0210
1000
0001
1300
,  // measure 67
0102
1003
2100
3020
,  // measure 68
0100
0000
0001
0000
,  // measure 69
1000
0000
0130
0110
,  // measure 70
0001
0010
0100
1000
0001
0100
0010
1000
,  // measure 71
0001
0010
1000
0010
0001
0100
1000
0100
,  // measure 72
0001
0010
0100
0010
0001
1000
0010
1000
,  // measure 73
0100
1000
0010
0001
1000
0100
0001
0010
,  // measure 74
0100
0000
1000
0100
0000
0001
0100
0000
,  // measure 75
0100
1000
0010
0000
0100
1000
0010
0100
,  // measure 76
0001
0000
0001
1000
1100
0000
1000
0001
,  // measure 77
0101
0000
0001
1000
1001
0000
0010
0000
,  // measure 78
0002
0000
0100
0000
1003
0000
1000
0100
,  // measure 79
0010
0000
0100
0010
0001
0000
0100
0010
,  // measure 80
1000
0000
0001
0010
0100
0000
1000
0010
,  // measure 81
0100
0000
0001
1000
0010
0000
0100
0000
,  // measure 82
0001
0000
1001
0000
1000
1001
0000
0001
,  // measure 83
0101
0010
1100
0010
,  // measure 84
0101
0000
0011
0000
,  // measure 85
1010
0000
1100
0000
,  // measure 86
1001
0000
0000
0000
0000
0000
0100
0000
0000
0010
0000
0000
1000
0000
0000
0100
,  // measure 87
0000
0000
0010
0000
0000
0001
0000
0000
0100
0000
0000
0100
0000
0000
0200
0000
,  // measure 88
0000
0300
0000
0000
0000
0000
0000
0000
;

//---------------dance-single - ----------------
#NOTES:
     dance-single:
     :
     Beginner:
     2:
     0.149,0.241,0.127,0.071,0.000: // measure 1
0000
0000
0000
0000
,  // measure 2
0000
0000
0000
0000
,  // measure 3
0000
0000
0000
0000
,  // measure 4
0000
0000
0000
0000
,  // measure 5
0000
0000
0000
0000
,  // measure 6
0001
0000
0000
0000
,  // measure 7
0000
0000
0000
0000
,  // measure 8
1000
0000
0000
0000
,  // measure 9
1001
0000
0110
0000
,  // measure 10
1001
0000
0000
0000
,  // measure 11
0100
0000
0000
0000
,  // measure 12
0010
0000
0000
0000
,  // measure 13
0001
0000
0000
0000
,  // measure 14
1000
0000
0000
0000
,  // measure 15
0010
0000
0000
0000
,  // measure 16
0100
0000
0000
0000
,  // measure 17
0001
0000
1000
0000
,  // measure 18
0100
0000
0000
0000
,  // measure 19
0010
0000
0000
0000
,  // measure 20
0001
0000
0000
0000
,  // measure 21
1000
0000
0000
0000
,  // measure 22
0010
0000
0000
0000
,  // measure 23
0100
0000
0000
0000
,  // measure 24
0001
0000
0000
0000
,  // measure 25
0010
0000
0100
0000
,  // measure 26
1000
1000
0000
0010
,  // measure 27
0000
0100
0000
0001
,  // measure 28
0001
0000
0010
0000
,  // measure 29
0100
0000
1000
0000
,  // measure 30
0010
0000
0000
0100
,  // measure 31
0100
0000
0010
0000
,  // measure 32
0110
0000
0001
0000
,  // measure 33
0010
0000
0110
0000
,  // measure 34
1001
0000
0000
0000
,  // measure 35
0010
0000
0000
0000
,  // measure 36
0100
0100
0100
0100
,  // measure 37
0100
0000
0010
0000
,  // measure 38
1001
0000
0000
0000
,  // measure 39
0010
0000
0000
0000
,  // measure 40
0100
0000
0000
0000
,  // measure 41
1000
0000
0001
0000
,  // measure 42
1001
0000
0000
0100
,  // measure 43
0100
0000
0000
1000
,  // measure 44
1000
0000
0000
0010
,  // measure 45
0010
0000
0001
0000
,  // measure 46
0010
0000
0000
1000
,  // measure 47
1000
0000
0000
0100
,  // measure 48
0100
0000
0001
0000
,  // measure 49
0010
0000
0001
0000
,  // measure 50
1000
0000
0010
0000
,  // measure 51
0100
0000
0001
0000
,  // measure 52
0010
0000
0100
0000
,  // measure 53
1000
0000
0010
0000
,  // measure 54
0100
0000
0000
0000
,  // measure 55
0110
0000
0000
0000
,  // measure 56
1001
0000
0010
0000
,  // measure 57
1001
0000
0100
0000
,  // measure 58
0010
0000
0000
0000
,  // measure 59
0100
0000
0000
0000
,  // measure 60
1001
0000
0000
0000
,  // measure 61
0110
0000
0000
0000
,  // measure 62
1000
0000
0000
0000
,  // measure 63
1000
0000
0000
0000
,  // measure 64
0001
0000
0000
0000
,  // measure 65
0001
0000
0000
0000
,  // measure 66
0110
0000
0000
0000
,  // measure 67
0100
0000
0010
0000
,  // measure 68
1001
0000
0000
0000
,  // measure 69
0010
0000
0000
0000
,  // measure 70
2000
0000
3000
0000
,  // measure 71
0002
0000
0003
0000
,  // measure 72
0200
0000
0300
0000
,  // measure 73
0020
0000
0030
0000
,  // measure 74
2002
3003
0000
0000
,  // measure 75
0220
0000
0330
0000
,  // measure 76
2002
0000
0000
0000
,  // measure 77
3003
0000
0000
0000
,  // measure 78
0001
0000
0010
0000
,  // measure 79
1000
0000
0010
0000
,  // measure 80
0001
0000
0100
0000
,  // measure 81
1000
0000
0100
0000
,  // measure 82
0001
0000
0010
0000
,  // measure 83
0100
0000
1000
0000
,  // measure 84
0010
0000
0010
0000
,  // measure 85
0010
0000
0010
0000
,  // measure 86
0010
0000
0000
0000
;

//---------------dance-single - ----------------
#NOTES:
     dance-single:
     :
     Easy:
     5:
     0.309,0.509,0.234,0.212,0.000: // measure 1
0000
0000
0000
0000
,  // measure 2
0010
0000
0000
0010
0000
0000
0000
0000
,  // measure 3
0000
0000
0000
0000
,  // measure 4
0100
0000
0000
0100
0000
0000
0000
0000
,  // measure 5
2002
0000
3003
0000
,  // measure 6
0001
1000
0000
0001
0000
0000
0000
0000
,  // measure 7
0000
0000
0000
0000
,  // measure 8
1000
0000
0000
0001
0000
0000
0000
0000
,  // measure 9
0110
0000
0000
0000
,  // measure 10
0010
0000
0000
0010
1000
0000
0100
0000
,  // measure 11
0001
0000
0010
0000
1000
0000
0001
1000
,  // measure 12
0000
0000
0000
0000
,  // measure 13
0001
0100
0010
1000
,  // measure 14
0001
0000
0000
0010
0000
0000
1000
0000
,  // measure 15
0000
0100
0000
0000
0001
0000
1000
0001
,  // measure 16
0000
0000
0000
0000
,  // measure 17
0100
0010
1001
0010
,  // measure 18
0100
1000
0010
0001
,  // measure 19
0100
0000
0010
0000
0001
0000
1000
0010
,  // measure 20
0000
0000
0000
0000
,  // measure 21
0100
0001
1000
0100
,  // measure 22
0010
0000
0000
1000
0000
0000
0100
0000
,  // measure 23
0000
0001
0000
0000
0010
0000
0001
0100
,  // measure 24
0000
0000
0000
0000
,  // measure 25
0010
0100
0010
1001
,  // measure 26
0100
0000
1000
0000
0000
0001
0000
0100
,  // measure 27
0000
0001
0000
0000
0010
0000
0100
0000
,  // measure 28
1000
0010
0100
0001
,  // measure 29
1000
0001
0010
0001
,  // measure 30
0100
0000
0010
0000
0000
1000
0000
0010
,  // measure 31
0000
1000
0000
0001
0000
0010
0000
0001
,  // measure 32
0000
0100
0010
0000
0000
0000
1000
0000
,  // measure 33
0001
0100
0010
1001
,  // measure 34
0010
0000
0001
0100
,  // measure 35
0001
0000
1000
0100
,  // measure 36
1000
0010
0001
0100
,  // measure 37
1000
0001
0100
0010
,  // measure 38
1000
1000
0001
0000
,  // measure 39
0010
0000
0100
0010
,  // measure 40
0001
0000
0101
0000
,  // measure 41
1000
0000
1100
0000
,  // measure 42
0010
0100
0010
0000
0000
0000
0000
0000
,  // measure 43
1000
0001
1000
0000
0000
0000
0000
0000
,  // measure 44
0100
0010
0100
0000
0000
0000
0000
0000
,  // measure 45
0001
0000
1000
0001
0000
0000
0010
0000
,  // measure 46
0100
0110
0001
1000
,  // measure 47
0100
0000
0010
0100
,  // measure 48
0110
0000
1001
0000
,  // measure 49
0110
0000
1001
0000
,  // measure 50
0001
0100
0001
0100
,  // measure 51
0010
0100
1000
0100
,  // measure 52
0010
1000
0100
0100
,  // measure 53
0010
0001
1000
0010
,  // measure 54
0100
0100
0110
0010
,  // measure 55
1000
0001
0010
0100
,  // measure 56
1100
0000
0101
0000
,  // measure 57
0011
0000
1010
0000
,  // measure 58
1001
0100
1001
0100
,  // measure 59
1001
0010
1001
0010
,  // measure 60
1001
0000
0010
0100
,  // measure 61
0110
1001
0110
1001
,  // measure 62
0200
0000
1300
0000
,  // measure 63
0200
0000
0301
0000
,  // measure 64
0020
0000
1030
0000
,  // measure 65
0020
0000
0031
0000
,  // measure 66
2002
0000
3003
0000
,  // measure 67
0020
0000
0100
0100
,  // measure 68
0130
0000
1001
0000
,  // measure 69
0010
0000
1001
0000
,  // measure 70
0002
0203
2300
3200
,  // measure 71
0302
0203
2300
3200
,  // measure 72
0302
0023
2030
3020
,  // measure 73
0032
0023
2030
3200
,  // measure 74
0302
0000
0000
0000
,  // measure 75
2003
0000
3200
0000
,  // measure 76
0320
0000
0100
0000
,  // measure 77
0001
0000
0130
0000
,  // measure 78
1000
0010
1000
0010
,  // measure 79
0100
0001
0100
0001
,  // measure 80
0010
0001
0010
0001
,  // measure 81
1000
0100
1000
0100
,  // measure 82
0020
0000
0000
0000
,  // measure 83
0130
0000
0001
1000
,  // measure 84
1001
0000
0110
0000
,  // measure 85
1001
0000
0110
0000
;

//---------------dance-single - ----------------
#NOTES:
     dance-single:
     :
     Medium:
     7:
     0.421,0.554,0.361,0.156,0.000: // measure 1
0000
0000
0000
0000
,  // measure 2
0001
0000
0000
0101
0000
0000
0000
0000
,  // measure 3
0000
0000
0000
0000
,  // measure 4
1000
0000
0000
1100
0000
0000
0000
0000
,  // measure 5
0020
0000
0030
0000
,  // measure 6
1000
0100
0000
1001
0000
0000
0000
0000
,  // measure 7
0000
0000
0000
0000
,  // measure 8
0101
0000
0000
1010
0000
0000
0000
0000
,  // measure 9
1001
0000
0000
0000
0001
1000
0001
1000
,  // measure 10
0100
0000
0010
0100
1000
0000
0010
0000
,  // measure 11
0001
0000
0010
0000
1000
0000
0001
1000
,  // measure 12
0000
1000
0100
0000
0000
0010
0000
0001
,  // measure 13
0000
0100
0000
1000
0000
0010
0001
1000
,  // measure 14
0001
0000
0001
0100
0000
0100
0001
0000
,  // measure 15
0001
1000
0000
1000
0100
0000
0100
1000
,  // measure 16
0000
1000
0010
0000
0000
0010
0000
1000
,  // measure 17
0000
0100
0000
0001
0000
0010
1000
0000
,  // measure 18
0001
0000
1000
0010
1000
0000
0010
0000
,  // measure 19
0100
0000
0001
0000
0010
0000
0100
0010
,  // measure 20
0000
0010
0100
0000
0000
0010
0000
0001
,  // measure 21
0000
0100
0000
1000
0000
0010
0001
1000
,  // measure 22
0010
0000
0010
1000
0000
1000
0100
0000
,  // measure 23
0100
0010
0000
0010
0001
0000
0001
0100
,  // measure 24
0000
0100
0010
0000
0000
1000
0000
0001
,  // measure 25
0000
0010
0000
1000
0000
0100
0000
0001
,  // measure 26
1000
0000
1100
0000
0000
0001
0000
1000
,  // measure 27
0000
0010
0000
0100
0001
0100
0001
0000
,  // measure 28
0100
1000
0010
0100
,  // measure 29
0010
0001
1000
0010
,  // measure 30
0001
0000
0011
0000
0000
1000
0000
0001
,  // measure 31
0000
0100
0000
0010
1000
0010
1000
0000
,  // measure 32
0010
0001
0100
0010
,  // measure 33
0100
0000
1000
0000
0001
0000
0100
0010
,  // measure 34
0100
0000
0001
0000
1000
0000
0100
0010
,  // measure 35
0100
1000
0001
0100
,  // measure 36
1010
0100
0011
0100
,  // measure 37
1001
0000
0010
0100
0010
0000
1001
0000
,  // measure 38
0110
0001
1000
0000
0100
1000
0100
1000
,  // measure 39
0001
0000
0100
0001
0100
0000
0010
0000
,  // measure 40
0110
0100
1100
1000
,  // measure 41
1001
0001
0011
0010
,  // measure 42
0110
1000
0100
0000
0101
0000
0110
0000
,  // measure 43
0100
0010
0101
0000
0010
0000
1100
0000
,  // measure 44
0100
0010
0101
0000
0100
0000
0110
0000
,  // measure 45
1100
0000
1000
0001
0000
0001
1000
0001
,  // measure 46
1000
0010
0101
0010
,  // measure 47
1100
0010
0001
1000
,  // measure 48
0002
0003
2000
3000
,  // measure 49
0200
0300
0020
0030
,  // measure 50
0001
0010
0001
0000
0100
0000
0010
0000
,  // measure 51
1000
0100
1000
0000
0010
0000
0100
0000
,  // measure 52
0001
0000
1001
0000
1000
0001
1000
0001
,  // measure 53
0100
0000
0100
0001
0000
0001
1000
0100
,  // measure 54
0000
0100
1000
0100
1000
0000
0100
0010
,  // measure 55
0100
0010
1001
0100
,  // measure 56
1001
0000
0110
0000
,  // measure 57
1001
0000
0110
1000
,  // measure 58
1002
0103
2001
3100
,  // measure 59
1002
0013
2001
3010
,  // measure 60
2002
0000
3003
0000
0120
0000
0130
1000
,  // measure 61
0200
0320
0032
2003
,  // measure 62
3020
0000
0100
0000
,  // measure 63
0001
0000
0100
0000
,  // measure 64
1000
0000
0100
0000
,  // measure 65
0001
0000
1000
0000
,  // measure 66
0230
0000
0000
0000
,  // measure 67
0001
0000
0310
1000
,  // measure 68
0002
0000
0100
0000
,  // measure 69
0010
0000
2000
3003
,  // measure 70
0001
0100
1000
0000
0001
0100
0010
0000
,  // measure 71
0001
0100
1000
0000
0001
0100
0010
0000
,  // measure 72
1000
0100
0001
0000
1000
0100
0010
0000
,  // measure 73
1000
0100
0001
0000
1000
0100
0010
0000
,  // measure 74
1001
0000
1000
0001
0000
0001
1000
0000
,  // measure 75
0110
0000
0100
0010
0000
0010
0100
0000
,  // measure 76
1001
0010
1001
0100
,  // measure 77
1001
0010
1001
0110
,  // measure 78
0001
0100
0001
0000
1001
0000
0000
0000
,  // measure 79
1000
0100
1000
0100
0000
1000
0001
1000
,  // measure 80
0001
0000
0001
0100
0000
0100
0001
0000
,  // measure 81
1000
0000
0100
0010
0000
0010
0100
1000
,  // measure 82
0001
0101
1000
0100
,  // measure 83
1001
0010
0101
0010
,  // measure 84
1000
0000
0100
0000
,  // measure 85
0001
0000
0010
0000
,  // measure 86
2002
0000
0000
0000
,  // measure 87
0000
0000
0000
0000
0000
0000
0000
3003
;

//---------------dance-single - ----------------
#NOTES:
     dance-single:
     :
     Challenge:
     9:
     0.668,0.709,0.361,0.283,0.170: // measure 1
0000
0000
0000
0000
,  // measure 2
0001
0010
0000
0101
0000
1000
0100
0000
,  // measure 3
1000
0010
0010
0010
0100
0001
1001
0000
,  // measure 4
1000
0100
0000
1010
0000
0001
0010
0000
,  // measure 5
0001
0100
0100
0100
1000
0010
0010
0010
,  // measure 6
0001
0100
0000
0011
0000
1000
0100
0000
,  // measure 7
0001
0100
0001
1000
0010
0000
0110
0000
,  // measure 8
0001
0010
0000
1100
0000
1000
0010
0000
,  // measure 9
0100
0010
0100
0000
0001
0000
1000
0000
0101
0000
0010
0000
1100
0000
0001
0000
,  // measure 10
0110
0000
1000
0010
0001
0010
1000
0100
,  // measure 11
0010
0000
0000
0010
0001
0000
0000
0001
0100
0000
0000
0100
0001
0000
0010
0000
,  // measure 12
1000
0010
0010
0000
0100
1010
0000
0011
,  // measure 13
0000
0101
0000
1100
0001
1000
0001
0010
,  // measure 14
0100
0010
0100
0001
0100
0001
0010
1000
,  // measure 15
0010
1000
0100
0010
0100
0010
0001
0100
,  // measure 16
1000
0010
0001
0000
0010
0001
1000
1001
,  // measure 17
0000
1100
0000
0101
0010
1001
1000
0100
,  // measure 18
0001
0000
0001
0000
0100
0000
1000
0000
1000
0000
0000
1000
0010
0000
0000
0010
,  // measure 19
0001
0000
0000
0001
1000
0000
0000
1000
0100
0000
0000
0100
0001
0000
0100
0000
,  // measure 20
0000
0010
1001
0000
1000
0100
0100
0100
,  // measure 21
1000
0010
0010
0001
0010
1000
0001
0001
,  // measure 22
0010
0001
0001
0100
0100
0001
0010
0010
,  // measure 23
1000
0010
0010
1000
0100
0100
0010
0100
,  // measure 24
0000
0110
0110
0000
1001
0010
0000
0101
,  // measure 25
0000
1100
0000
0010
0100
0110
1100
0101
,  // measure 26
0010
0000
0100
0000
1000
0000
0000
1000
0100
0000
1000
0000
0001
0000
0100
0000
,  // measure 27
0010
0000
0100
0000
0001
0000
0000
0001
0010
0000
0001
0000
0100
0000
0100
0000
,  // measure 28
0100
0000
0010
0000
1000
0000
0000
1000
0100
0000
0010
0000
0000
0001
1000
0000
,  // measure 29
0000
0001
0010
0000
0000
0001
0100
0000
1000
0000
1000
0000
1000
0000
0100
0000
,  // measure 30
0010
0000
0000
0010
1000
0000
0000
1000
0100
0000
0010
0000
0001
0000
0010
0000
,  // measure 31
0000
1000
0100
0100
1000
0001
0001
0001
,  // measure 32
0100
0000
0010
0000
0100
0000
0000
0010
1000
0000
0100
0000
0000
1000
0100
0000
,  // measure 33
0000
1000
0010
0000
0000
1000
0001
0000
0100
0000
0110
0000
0001
0000
1001
0000
,  // measure 34
1000
0000
0100
0000
1000
0000
0000
1000
0001
0000
0100
0000
0001
0000
0010
0000
,  // measure 35
0000
0001
0100
0000
0000
0001
1000
0000
0010
0000
1000
0000
0001
0000
0010
0000
,  // measure 36
1000
0000
0000
1000
0010
0000
0000
0010
0001
0000
0000
0001
1000
0000
0010
0000
,  // measure 37
0001
0010
1000
0001
1000
0100
0100
0100
,  // measure 38
0010
0000
0001
0000
1000
0000
0000
0001
0010
0000
1000
0000
0010
0000
0001
0000
,  // measure 39
0000
0100
0001
0000
0000
1000
0001
0000
0001
0000
0010
0000
0100
0000
1000
0000
,  // measure 40
1000
0000
0100
0000
0100
0000
0000
0001
0010
0000
0001
0000
0000
0100
0001
0000
,  // measure 41
0000
0100
0010
0000
0000
0100
1000
0000
0100
0000
0010
0000
0010
0000
0010
0000
,  // measure 42
1100
0001
0001
0000
0110
1000
0100
0000
,  // measure 43
0101
0010
0010
0000
1001
0100
0100
0100
,  // measure 44
0011
1000
1000
0000
1100
0001
1000
0000
,  // measure 45
0110
0000
1000
1000
0000
0001
0010
1000
,  // measure 46
0100
0001
0100
0000
1000
0010
0001
0010
,  // measure 47
0100
0000
0001
0010
0000
1000
0010
0001
,  // measure 48
0100
0000
0010
1000
0100
0000
0010
0001
,  // measure 49
1000
0000
0010
1000
0001
0010
0010
0010
,  // measure 50
0100
1000
0110
0000
0010
1000
0100
1000
,  // measure 51
0001
0000
1000
0100
1001
0000
0010
0000
,  // measure 52
1001
0010
0100
0000
1000
0010
0001
0100
,  // measure 53
1000
0000
0000
0000
0001
1000
0001
0000
0000
0000
1000
0001
1000
0000
0010
0000
,  // measure 54
0100
0100
0010
0010
1000
0000
0010
1000
,  // measure 55
1100
0000
0010
1001
0000
0001
0101
0010
,  // measure 56
0001
1000
0001
0000
0010
0100
0010
0000
,  // measure 57
1000
0001
1000
0000
0100
0010
0100
0000
,  // measure 58
2000
0100
3010
0000
0002
0010
1003
0000
,  // measure 59
0200
1000
0301
0000
0020
0001
0130
0000
,  // measure 60
2002
0000
3003
0000
0010
0000
0100
0010
,  // measure 61
0001
0000
0100
0000
0001
0000
0000
0000
1000
0000
0100
0000
1000
0000
0000
0000
0001
0000
0000
1000
0001
0000
0100
0000
0010
0100
0000
0000
1000
0001
0000
0000
,  // measure 62
0001
0010
0200
0000
1300
0010
0200
0000
,  // measure 63
0310
0001
0200
0000
0310
1000
0200
0000
,  // measure 64
0301
1000
0200
0000
1300
0001
0200
0000
,  // measure 65
0310
0001
0200
0000
0310
1000
0200
0000
,  // measure 66
0310
1000
0100
0001
0000
1000
0100
0000
,  // measure 67
0001
0100
0001
0000
1001
0000
0010
0000
,  // measure 68
0202
0303
2200
3300
,  // measure 69
2002
3003
0220
0330
,  // measure 70
0001
0010
1000
0010
1000
0001
0010
0001
,  // measure 71
0010
0100
0001
0010
1000
0001
0100
1000
,  // measure 72
0010
0001
0010
0001
1000
0010
1000
0010
,  // measure 73
0001
0100
0001
0100
0010
1000
0100
0001
,  // measure 74
0020
0001
0100
1000
,  // measure 75
0230
0001
2300
0010
,  // measure 76
3002
0100
0023
1000
,  // measure 77
0230
1000
0302
0010
,  // measure 78
1003
0010
0100
1000
0100
0000
0001
0000
,  // measure 79
0010
0000
0001
0100
0001
0000
1000
0000
,  // measure 80
0010
1000
0001
0000
0110
0000
0001
0010
,  // measure 81
1000
0100
1000
0000
0001
0100
0001
0000
0010
0000
0100
0000
0010
0000
0000
0000
,  // measure 82
1010
0000
0101
0000
0001
0010
0000
0010
,  // measure 83
1000
0000
1000
0100
0001
0000
0100
1000
,  // measure 84
0010
0001
0100
0000
1000
0100
0001
0000
,  // measure 85
0001
0010
0100
0000
1000
0010
0001
0000
,  // measure 86
2002
0000
0000
0000
0000
0000
0000
0000
0000
0000
0000
0000
0000
0000
0000
0000
3003
0000
0000
0000
0000
0000
0000
0000
0200
0300
0000
0000
0000
0000
0000
0000
0000
0000
0000
0000
0020
0030
0000
0000
0000
0000
0000
0000
0000
0000
0000
0000
0002
0003
0000
0000
0000
0000
0000
0000
0000
0000
0000
0000
0200
0300
0000
0000
,  // measure 87
0000
0000
0000
0000
0000
0000
0000
0000
0020
0030
0000
0000
0000
0000
0000
0000
0000
0000
0000
0000
2000
3000
0000
0000
0000
0000
0000
0000
0000
0000
0000
0000
0200
0300
0000
0000
0000
0000
0000
0000
0000
0000
0000
0000
0200
0300
0000
0000
0000
0000
0000
0000
0000
0000
0000
0000
0200
0000
0000
0000
0000
0000
0000
0000
,  // measure 88
0000
0300
0000
0000
0000
0000
0000
0000
;

//---------------dance-double - ----------------
#NOTES:
     dance-double:
     :
     Challenge:
     9:
     0.521,0.554,0.170,0.064,0.014:
00000000
00000000
00000000
00000000
,
00100000
00000000
00000000
00000010
00000000
00000000
00000000
00000000
,
00000001
00000100
00001000
00001000
00010000
01000000
10000000
10000000
,
01000000
00000000
00000000
00000100
00000000
00000000
00000000
00000000
,
10000000
01000000
01000000
01000000
00010000
00001000
00000100
00000100
,
00000001
00000000
00000000
00010000
00000000
00000000
00000000
00000000
,
00001000
01000000
10000000
01000000
00010000
00000100
00000001
00000100
,
00001000
00000000
00000000
10000000
00000000
00000000
00000000
00000000
,
10010000
00000000
00001001
00000000
,
00000011
00000000
00001000
00000001
00000100
00000010
00000100
00000010
,
00001000
00000100
00001000
00000100
00010000
01000000
00010000
01000000
,
10000000
01000000
00100000
00000000
00010000
01000000
10000000
01000000
,
00100000
00010000
00001000
00000100
00000010
00001000
00000001
00000010
,
00000100
00000000
00000010
00010000
00000000
00000010
00000100
00000000
,
00000010
00000001
00000000
00000010
00000100
00000000
00000100
00010000
,
00000000
00000010
00001000
00000010
00000000
00000101
00000000
00001100
,
00000000
00011000
00000000
01010000
10000000
01000000
00100000
10000000
,
01000000
00100000
00001000
00100000
00011000
00000000
00110000
00000000
,
00001010
00000000
00000101
00000000
00001001
00000000
00010000
01000000
,
00000000
01000000
10000000
00000000
10000000
00100000
00010000
00100000
,
00000000
01010000
00000000
00101000
00010000
00000100
00010000
00000100
,
00000010
00000000
00000001
00000100
00000000
00001000
00010000
00000000
,
00100000
10000000
00000000
10000000
01000000
00000000
00010000
00000100
,
00000000
00000010
00000001
00000000
00000010
00001000
00000010
00000001
,
00000010
00000010
00001000
00010000
01000000
01000000
10000000
01000000
,
00010000
00001000
00010000
00000000
00001000
00000100
00001000
00000100
,
00000000
00000100
00000001
00000000
00000001
00000100
00001000
00000000
,
00020000
00000000
02030000
00000000
23000000
00000000
31000000
00010000
,
00100000
10000000
00100000
00000000
00001000
00010000
00001000
00010000
,
01000000
00000000
00100000
00000000
10000000
00100000
10000000
01000000
,
00000000
00100000
00010000
00100000
00001000
00001000
00010000
00000100
,
00000001
00000000
00001100
00000000
00000001
00000100
00001000
00010000
,
00001000
00000100
00000010
00010000
00001000
01000000
00100000
00100000
,
10000000
01000000
10000000
00000000
00100000
00001000
00000100
00000010
,
00000000
00000010
00001000
00000000
00000001
00001000
00000001
00000000
,
00000011
00000000
00001010
00000000
00011000
00000000
00001000
00000010
,
00000000
00000010
00000001
00000000
00000010
00001000
00000001
00000010
,
00000100
00000000
00001000
00010000
00000000
00001000
01000000
00001000
,
00000000
00100000
00010000
00100000
00100000
10000000
00100000
10000000
,
01000000
00000000
00100000
00010000
01000000
00000000
00100000
10000000
,
00010000
00000000
01000000
00001000
00010000
00001000
00001000
00000000
,
00000001
00000100
00001000
00000000
00010000
00001000
00010000
00000000
,
10000000
01000000
00010000
00000000
00001000
00010000
00001000
00000000
,
00000001
00000100
00001000
00010000
00000000
00001000
00011000
00000000
,
00010000
01000000
10000000
00000000
10000000
00100000
00010000
00100000
,
01000000
00001000
00001000
00000000
00000100
00000010
00000100
00000000
,
00010000
00000000
00100000
01000000
00100000
00010000
10000000
00100000
,
00100000
01000000
00100000
00000000
00000010
00000100
00000010
00000000
,
00100000
01000000
00100000
00000000
00000010
00000100
00000010
00000000
,
00001000
00010000
00001000
00010000
00001000
00000000
01000000
00100000
,
10000000
00000000
01000000
00000000
00010000
00001000
00010000
00001000
,
00010000
00000000
00000100
00000010
00000001
00000000
00000100
00001000
,
00010000
00000000
00010000
00001000
00000000
00100000
00000000
10000000
,
00000000
01000000
00010000
00000010
00000001
00000000
00000010
00000100
,
00010000
00000000
00010000
00001000
00000000
00001000
01000000
00100000
,
10000000
00000000
10000000
01000000
00010000
00000000
00001000
00000100
,
00000001
00000000
00000001
00000100
00001000
00010000
00000100
00010000
,
00200000
10300000
00000020
00000031
,
02000000
13000000
00000200
00000301
,
00022000
00000000
00033000
00000000
00000010
00000000
00010000
00001000
,
00010000
00100000
10000000
01000000
,
00010000
00000000
00000001
00000000
,
00001000
00000000
10000000
00000000
,
01000000
00000000
00000100
00000000
,
00000010
00000000
00100000
00000000
,
00011000
00000000
00000000
00000000
,
10010000
00000000
00001001
00000010
,
00001000
00000000
10000000
00000000
,
00000100
00000000
01000000
00000000
,
00010000
01000000
10000000
01000000
00001000
00010000
00001000
00000010
,
00000001
00000001
00000010
00001000
00010000
00001000
00010000
01000000
,
10000000
00100000
00001000
00001000
00010000
00000100
00000001
00000001
,
00000010
00001000
00001000
00010000
00100000
10000000
10000000
00100000
,
00010000
00001000
00010000
00000010
00000001
00000001
00000010
00001000
,
00001000
00000100
00000001
00000100
00010000
01000000
10000000
10000000
,
01000000
00010000
00010000
00000000
00000100
00000001
00000001
00000000
,
00000010
00001000
00001000
00000000
00100000
10000000
10000000
00000000
,
00010000
00001000
00010000
00001000
00000010
00000000
00000001
00000000
,
00001000
00010000
00001000
00010000
00100000
00000000
10000000
00000000
,
00100000
00010000
00001000
00000000
00000100
00001000
00010000
00000000
,
00000010
00000001
00000100
00000010
00001000
00000100
00010000
00001000
,
01000000
00100000
01000000
00000000
00010000
00000000
10000000
01000000
,
10000000
00100000
00001000
00000100
,
00000010
00000100
00000010
00000000
00100000
01000000
00100000
00000000
,
00000100
00000010
00000100
00000000
01000000
00100000
01000000
00000000
,
00011000
00000000
00000000
00000000
00000000
00000000
00010000
00000000
00000000
00000100
00000000
00000000
00001000
00000000
00000000
00100000
,
00000000
00000000
00010000
00000000
00000000
00000010
00000000
00000000
00001000
00000000
00000000
01000000
00000000
00000000
00010000
00000000
;
