#TITLE:Ringo Mogire Beam!;
#SUBTITLE:;
#ARTIST:Zetsubou Girls;
#TITLETRANSLIT:;
#SUBTITLETRANSLIT:;
#ARTISTTRANSLIT:;
#GENRE:;
#CREDIT:AznPunk07/Frozen_Heat/GuardianFrozen;
#MENUCOLOR:#ff4a4a;
#BANNER:Ringo Mogire Beam!-bn.png;
#BACKGROUND:Ringo Mogire Beam!-bg.png;
#LYRICSPATH:Ringo Mogire Beam!.lrc;
#CDTITLE:!cdtitle.png;
#MUSIC:Ringo Mogire Beam!.mp3;
#OFFSET:-0.694;
#SAMPLESTART:11.873;
#SAMPLELENGTH:20.000;
#SELECTABLE:YES;
#LISTSORT:;
#BPMS:0.000=180.000;
#STOPS:;
#TICKCOUNT:0.000=2;
#BGCHANGES:;
#KEYSOUNDS:;
#ATTACKS:;

//---------------dance-single - ----------------
#NOTES:
     dance-single:
     :
     Hard:
     8:
     0.611,0.684,0.539,0.187,0.071:
0000
0000
0000
0000
,
0000
0000
0000
0000
,
0000
0000
0000
0000
,
0000
0000
0000
0000
0000
0000
0000
1000
,
0100
1000
0100
0000
0010
0001
1000
0000
,
1000
0001
0010
0000
0010
0001
1000
0001
,
0010
0001
0010
0000
0100
1000
0001
0000
,
0001
1000
0100
0000
0100
1000
0001
1000
,
0100
0010
0001
0000
1000
0100
0000
0000
,
0001
0100
0001
0000
0000
0000
0000
0000
0110
0000
0000
0000
0000
0000
0001
0000
,
0010
0100
1000
0000
0001
0010
0000
0000
,
1000
0010
1000
0000
0000
0000
0000
0000
0110
0000
0000
0000
0000
0000
1000
0000
,
0010
0100
0001
0000
0010
0100
0000
0000
,
0001
0100
1000
0000
0000
0000
0000
0000
0110
0000
0000
0000
0000
0000
0001
0000
,
0100
0000
0010
0000
1000
0000
0100
0000
1000
0000
0000
0001
0100
0000
0000
0000
,
0001
0000
0000
1000
0000
0000
0001
0000
0010
0000
0000
0000
0100
0000
1000
0000
,
0100
0000
0010
0000
0000
0001
0000
0000
0100
0000
0010
0000
0000
0000
1000
0000
,
0010
1010
0101
0010
,
0001
0010
0000
0010
0100
1000
0000
1000
,
0001
1001
0101
1000
,
0001
0100
0000
1000
0100
0100
0000
0010
,
1000
0011
1100
0011
,
0001
0100
1000
0100
0010
0100
1000
0100
,
0001
0010
0100
1000
0100
0000
0000
0000
,
0001
0100
0010
0000
1000
0100
0000
0000
,
0001
0010
0100
0000
0000
0000
0000
0000
0110
0000
0000
0000
0000
0000
1000
0000
,
0010
0100
0001
0000
1000
0100
0000
0000
,
1000
0001
0100
0000
0000
0000
0000
0000
0110
0000
0000
0010
0100
0000
0001
0000
,
0010
0100
0000
1000
0010
0100
0000
0001
,
0100
0101
1010
0100
,
1000
0100
0000
0010
0001
0001
1000
0000
,
0101
0000
0000
0110
0000
0000
1010
0000
0000
0000
0001
0000
1000
0000
0000
0000
,
1000
0100
1000
0000
0001
0100
0001
0010
,
0100
0100
0100
0100
0010
0001
1000
0000
,
0001
0100
0001
0000
1000
0100
1000
0000
,
1100
0000
0000
0101
0000
0000
1001
0000
0010
0000
0000
0100
0010
0000
0000
0000
,
0001
0100
0000
0100
0000
0100
1000
0000
,
1000
0100
0001
0100
0010
0100
0000
0000
,
0000
1000
0100
0010
0001
1000
0100
0010
,
0001
1000
0100
0010
0001
0001
0000
0000
,
1002
0100
2003
0100
,
3002
0000
0103
0010
2000
0000
3100
0010
,
0002
0000
0100
0000
0013
0000
0100
1000
,
0010
1000
0100
1000
0010
0000
0101
0000
,
0011
0000
0010
0001
1000
0000
0010
0000
,
0101
0000
0001
1000
0000
1000
0100
0000
,
1100
0010
0101
0010
,
1001
0000
1000
0100
0010
0001
1000
0100
,
0012
0103
2010
3100
,
0012
0000
0103
0000
2010
0000
3100
0010
,
1001
0000
0001
0100
0000
1000
0100
0000
,
0010
0001
1000
0000
1010
0000
0011
0000
,
1001
0000
1000
0100
0000
0100
0001
0000
,
0011
0000
0001
0100
0000
0100
1000
0000
,
1010
0000
0000
0000
0011
0000
0000
0000
1000
0010
1000
0000
0100
0000
0000
0000
,
0011
0000
1010
0000
0100
0100
0100
0100
,
0002
0000
0013
0100
,
2000
0000
3010
0100
,
0002
0010
1000
0003
,
2000
0010
0001
3000
,
0202
0303
2200
3300
,
0010
0001
0100
0010
,
1000
0001
1000
0000
0100
0000
0010
0000
,
0011
0000
1010
0000
,
1001
0100
0000
1010
0100
0000
0011
0100
,
0000
1001
0100
0000
1001
0000
0000
0000
;

//---------------dance-single - Lifts----------------
#NOTES:
     dance-single:
     Lifts:
     Edit:
     9:
     0.740,0.900,1.000,0.077,0.077:
0000
0000
0000
0000
,
0000
0000
0000
0000
,
0000
0000
0000
0000
,
0000
0000
0000
0000
0000
0000
0000
0001
,
0010
0100
1000
0000
0000
L000
0000
000L
,
0000
0L00
0000
00L0
0000
L000
0000
100L
,
0010
0100
0001
0000
0000
000L
0000
00L0
,
0000
0L00
0000
L000
0000
00L0
0000
0L01
,
1000
0010
1000
0000
0001
0010
0100
0000
,
1000
0001
1000
0000
0010
0000
0000
0000
1001
0000
0000
0000
L00L
0000
0000
0000
,
0001
0100
0001
0000
1000
0100
0010
0000
,
0001
1000
0001
0000
0100
0000
0000
0000
1001
0000
0000
0000
L00L
0000
0000
0000
,
0010
0100
0010
0000
1000
0001
L00L
0000
,
0010
0100
0010
0000
0LL0
0000
0000
0000
1001
0000
0000
0000
L00L
0000
0000
0000
,
0001
0010
0100
1000
0110
0000
1001
0000
,
L000
0000
0000
000L
0000
0000
L000
0000
200L
0000
0000
0000
3001
0000
0000
0000
,
0001
0100
1000
0100
0001
0001
0001
0001
,
0010
1000
0010
0100
1000
1000
1000
1000
,
0001
0010
0001
0100
0010
1000
0001
0100
,
0010
1000
0100
1000
0001
0010
0100
1000
,
L000
000L
0L00
00L0
L000
000L
L000
000L
,
L000
0L00
00L0
000L
L000
00L0
0L00
00L0
,
0L01
0001
0010
0010
1100
0000
1000
1000
,
0010
0010
0101
1000
0001
0000
0010
0000
,
0001
0000
0100
0000
1000
0000
0000
0000
0100
0010
0100
0000
0001
0000
0000
0000
,
1000
0100
1000
0000
0001
0000
0000
0000
1001
0000
0000
0000
L00L
0000
0000
0000
,
1000
0000
0010
0000
0001
0000
0000
0000
0010
0100
0010
0000
1000
0000
0000
0000
,
0001
0010
0001
0000
1000
0000
0000
0000
1001
0000
0000
0000
L00L
0000
0000
0000
,
0001
0010
0100
1000
0010
0010
0010
0010
,
0100
0001
1000
0001
0100
0100
0100
0100
,
0010
1000
0001
1000
0001
0010
0100
0010
,
1LL1
0000
0000
L11L
0000
0000
1LL1
0000
0010
0000
0100
0000
0010
0000
0100
0000
,
0L00
000L
L000
0L00
L000
00L0
0L00
000L
,
00L0
000L
0L00
000L
L000
0L00
L000
00L0
,
L001
0001
000L
0000
1000
1000
L000
0000
,
L00L
0000
0000
0LL0
0000
0000
L00L
0000
2LL2
0000
0000
0000
3003
0000
0000
0000
,
0001
0100
0001
0100
0000
00L0
L000
00L0
,
L001
0010
0001
0010
0000
0L00
L000
0L00
,
L001
1000
0000
1000
0001
0001
1000
0001
,
1000
1000
0001
0001
1000
0001
0000
0000
,
2010
31L0
0012
01L3
,
2100
0000
3L10
0000
0102
0000
0L13
0100
,
1001
0000
L00L
0110
0000
0000
0010
1000
,
0001
0010
0000
00L1
0000
0000
010L
0000
,
0L10
0000
10L0
0100
L001
0000
0010
0000
,
001L
0000
0000
L010
0000
0000
0L10
0000
,
L001
0L01
100L
1L00
,
0110
0000
0001
0000
1000
0000
0001
0000
0010
0100
0010
0100
0010
0000
0000
0000
,
0101
0L11
1100
1L10
,
0011
0000
01L1
0000
1010
0000
11L0
0010
,
1001
0000
L00L
0110
0000
0000
0100
0001
,
1000
0100
0000
1L00
0000
0000
L010
0000
,
01L0
0000
0L01
0010
100L
0000
0100
0000
,
L100
0000
0000
010L
0000
0000
01L0
0000
,
1000
0001
1000
0000
1001
0000
0000
0000
0010
0100
0010
0000
0110
0000
0000
0000
,
1001
0000
L00L
0000
0000
000L
00L0
0L00
,
L001
0001
0100
0010
,
1000
1000
0100
0010
,
0000
000L
0L00
00L0
,
L000
0L00
L000
01L0
,
0101
0100
1100
0010
,
1010
0010
0011
0010
,
1001
0000
00L0
0L00
L000
00L0
0L00
000L
,
01L0
0010
1001
0000
,
0101
0L0L
0000
1100
LL00
0000
0011
00LL
,
0000
1010
L0L0
0000
1001
0000
0000
0000
;

//---------------dance-single - ----------------
#NOTES:
     dance-single:
     :
     Medium:
     6:
     0.419,0.468,0.242,0.176,0.011:
0000
0000
0000
0000
,
0000
0000
0000
0000
,
0000
0000
0000
0000
,
0000
0000
0000
0000
,
1000
1000
0200
1000
,
0010
0001
0010
1300
,
0001
0001
0020
0001
,
0100
1000
0100
0031
,
1000
0000
0101
0000
1000
0001
0000
0000
,
0001
1000
0000
0000
2002
0000
3003
0000
,
0001
0000
1100
0000
0001
1000
0000
0000
,
1000
0001
0000
0000
2002
0000
3003
0000
,
0100
0010
0100
0000
1000
0010
0000
0000
,
0001
0010
0000
0000
0220
0000
0330
0000
,
1001
0110
0001
1000
,
1000
0000
0000
0100
0000
0000
0010
0000
0001
0000
0000
0000
0000
0000
0000
0000
,
1000
0010
1000
0100
,
1000
0001
1000
0000
0010
1000
0010
0000
,
0100
0001
0010
0001
,
1000
0000
0001
0000
0010
0001
0010
0000
,
0001
0100
0001
0010
,
0001
1000
0001
0000
0100
0001
0100
0000
,
0010
0100
0010
0100
0010
0000
0000
0000
,
1000
0001
1000
0001
1000
0000
0000
0000
,
0200
0000
1000
0000
0310
0001
0000
0000
,
0001
0100
0000
0000
0200
0000
0300
0000
,
0020
0000
0100
0000
1030
0100
0000
0000
,
0100
0010
0000
0000
0020
0000
0030
0000
,
0001
0100
0001
0000
0010
0000
0001
0000
,
0100
0100
1010
0000
,
1000
0001
1000
1100
,
0001
0000
0000
0001
0000
0000
0001
0000
0000
0000
0000
0000
0100
0000
0000
0000
,
0010
0010
1000
1000
,
0001
0010
0100
0100
,
0010
0001
0001
0000
0010
0100
0100
0000
,
1000
0001
1000
0001
1000
0000
0000
0000
,
0010
0010
0100
0100
,
0001
0000
1000
0000
1001
0000
0001
1000
,
0000
1000
0100
0010
,
0001
1000
0001
1000
0001
0001
0000
0000
,
0100
1100
0000
1000
,
0000
0010
0000
0100
,
0101
0001
0000
0010
,
0000
0100
0000
1000
,
1010
0010
0000
0100
,
0001
0000
0000
1000
0000
0000
0001
0000
,
1000
1100
0001
0101
,
2002
0000
3003
0000
,
0010
0110
0000
0100
,
0000
0001
0000
1000
,
1100
0100
0000
0010
,
0000
0001
0000
1000
,
1001
0001
0000
0100
,
0010
0000
0000
0010
0000
0000
0010
0000
,
1000
0000
1100
0000
0001
0100
0001
0000
,
2002
0000
3003
0000
,
0010
0010
1000
0100
,
0010
0010
0001
0100
,
0010
0010
1000
0001
,
0010
0010
0001
0000
,
0100
0100
0010
1000
,
0100
0100
0010
0001
,
0100
0100
0001
1000
,
0100
0000
0100
0000
,
0010
0000
0000
0010
0000
0000
0100
0000
,
0000
0100
0000
0000
1001
0000
0000
0000
;

//---------------dance-single - ----------------
#NOTES:
     dance-single:
     :
     Beginner:
     2:
     0.146,0.252,0.044,0.154,0.000:
0000
0000
0000
0000
,
0000
0000
0000
0000
,
0000
0000
0000
0000
,
0000
0000
0000
0000
,
0000
0000
0000
0000
,
0000
0000
0000
0000
,
0000
0000
0000
0000
,
0000
0000
0000
0000
,
0000
0000
1000
0000
,
1000
0000
1000
0000
,
0000
0000
0001
0000
,
0001
0000
0001
0000
,
0000
0000
0010
0000
,
0010
0000
0010
0000
,
0000
0000
0100
0000
,
0200
0000
0300
0000
,
1000
0000
0000
0000
,
0001
0000
0000
0000
,
0010
0000
0000
0000
,
0100
0000
0000
0000
,
1000
0000
0000
0000
,
0001
0000
0000
0000
,
0100
0000
0100
0000
,
0100
0000
0100
0000
,
0000
0000
0010
0000
,
0010
0000
0010
0000
,
0000
0000
0010
0000
,
0010
0000
0010
0000
,
0010
0000
0000
0000
,
1000
0000
0000
0000
,
0100
0000
0000
0000
,
0001
0000
0001
0000
,
0001
0000
0000
0000
,
0100
0000
0000
0000
,
1000
0000
0000
0000
,
0010
0000
0010
0000
,
0110
0000
0000
0000
,
1001
0000
0000
0000
,
0000
0100
0100
0100
,
0100
0100
0100
0000
,
0200
0000
0300
0000
,
2000
0000
3000
0000
,
0002
0000
0003
0000
,
0020
0000
0030
0000
,
2002
0000
0000
0000
,
3003
0000
0000
0000
,
0100
0100
0100
0100
,
0100
0000
0000
0000
,
0020
0000
0030
0000
,
2000
0000
3000
0000
,
0002
0000
0003
0000
,
0200
0000
0300
0000
,
0220
0000
0000
0000
,
0330
0000
0000
0000
,
0010
0010
0010
0010
,
0010
0000
0000
0000
,
1000
0000
0000
0000
,
0001
0000
0000
0000
,
0010
0000
0000
0000
,
0100
0000
0000
0000
,
1000
0000
0000
0000
,
0010
0000
0000
0000
,
0001
0000
0000
0000
,
0100
0000
0100
0000
,
0200
0000
0000
0000
,
0000
0000
0300
0000
;

//---------------dance-single - ----------------
#NOTES:
     dance-single:
     :
     Easy:
     3:
     0.284,0.360,0.187,0.352,0.000:
0000
0000
0000
0000
,
0000
0000
0000
0000
,
0000
0000
0000
0000
,
0000
0000
0000
0000
,
1000
2000
0000
0000
,
0000
0000
0000
0000
,
3001
0002
0000
0000
,
0000
0000
0000
0000
,
0103
0000
0100
0000
,
0100
0000
0200
0000
,
0300
0000
0010
0000
,
0010
0000
0020
0000
,
0030
0000
1000
0000
,
0001
0000
2002
0000
,
3003
0000
0110
0010
,
2002
0000
3003
0000
,
1000
0000
0001
0000
,
1000
1000
1000
0000
,
0010
0000
0100
0000
,
0001
0001
0001
0000
,
0010
0000
0001
0000
,
0100
0000
0010
0000
,
1000
0100
1000
0000
,
0001
0100
0001
0000
,
0020
0000
1000
0000
,
0100
0000
0032
0000
,
0000
0000
0010
0000
,
1000
0000
0203
0000
,
0310
0000
1000
1000
,
0100
0000
0001
0001
,
0100
0000
0010
1000
,
0011
1010
1001
0000
,
0010
0000
0100
0010
,
1000
0000
0001
1000
,
0100
0100
0010
0010
,
0001
1000
1001
0000
,
0002
0003
0020
0030
,
0200
0300
2000
3000
,
0000
0010
0010
0000
,
0100
0100
0100
0000
,
0001
0000
0010
0000
,
0100
0000
1000
0000
,
2002
0000
3003
1000
,
0001
0000
0100
0010
,
0100
0000
0000
0000
,
0010
0000
0010
0000
,
1100
0000
0101
0000
,
1001
0000
0000
0000
,
1000
0000
0010
0000
,
0100
0000
0001
0000
,
2002
0000
3003
0000
,
0010
0000
0100
0100
,
0010
0000
0000
0000
,
1010
0000
0011
0000
,
1001
0000
0100
0100
,
0200
0000
0010
0010
,
0320
0000
0130
0000
,
2000
0000
3001
0000
,
0200
0000
0310
0000
,
0002
0000
1003
0000
,
2000
0100
3100
0000
,
0020
1000
1030
0000
,
0200
0001
0301
0000
,
0002
0000
0013
0000
,
0220
0000
0000
0300
0030
0000
2002
0000
,
0000
0003
3000
0000
0010
0000
0000
0000
;

//---------------dance-double - ----------------
#NOTES:
     dance-double:
     :
     Challenge:
     7:
     0.525,0.540,0.209,0.297,0.016: // measure 1
00000000
00000000
00000000
00000000
,  // measure 2
00000000
00000000
00000000
00000000
,  // measure 3
00000000
00000000
00000000
00000000
,  // measure 4
00000000
00000000
00000000
00000000
,  // measure 5
00100000
00002000
01000000
00010000
,  // measure 6
01000000
00010000
01000000
00013000
,  // measure 7
00000010
00020000
00000100
00001000
,  // measure 8
00000100
00001000
00000100
00031000
,  // measure 9
00000010
00000000
00000100
00000000
00001000
00010000
00000000
00000000
,  // measure 10
00010000
00001000
00000000
00000000
00001010
00000000
00010000
00000000
,  // measure 11
00100000
00000000
10000000
00000000
00010000
00001000
00000000
00000000
,  // measure 12
00001000
00010000
00000000
00000000
01010000
00000000
00001000
00000000
,  // measure 13
00000100
00000000
00000001
00000000
00001000
00000100
00000000
00000000
,  // measure 14
00010000
01000000
00000000
00000000
00022000
00000000
00000000
00000000
,  // measure 15
00033000
00000000
00100000
01000000
10000000
00000000
10010000
00000000
,  // measure 16
01001000
00000000
00000000
00010000
00000000
00000000
00000100
00000000
00000020
00000000
00000000
00000000
00000000
00000000
00000000
00000000
,  // measure 17
00000031
00000100
00000001
00000000
00000010
00000100
00001000
00000000
,  // measure 18
00000010
00010000
00000010
00010000
,  // measure 19
00001000
01000000
00001000
00000000
00100000
00010000
00100000
00000000
,  // measure 20
01000000
10000000
02000000
00000000
00100000
00000000
03010000
00000000
,  // measure 21
10000000
00100000
00000000
00100000
01000000
00000000
00001000
00010000
,  // measure 22
00001000
01000000
00110000
01000000
,  // measure 23
10000000
00100000
10000000
00100000
00010000
00000000
00001000
00010000
,  // measure 24
00001000
00010000
00001000
00000010
00000001
00000000
00000000
00000000
,  // measure 25
00000100
00000000
00001000
00000000
00020000
00001000
00000000
00000000
,  // measure 26
00030200
00000010
00000000
00000000
00000302
00000000
00000000
00000000
,  // measure 27
00001003
00000000
00010000
00000000
00002000
00010000
00000000
00000000
,  // measure 28
00203000
01000000
00000000
00000000
20300000
00000000
00000000
00000000
,  // measure 29
30100000
00001000
00000000
00001000
01000000
00000000
00100000
00000000
,  // measure 30
10000000
01000000
10000000
00000000
00100000
00000000
00010000
00000000
,  // measure 31
00001000
00000100
00000010
00000000
00001000
00000001
00000010
00000000
,  // measure 32
00000001
00000000
00000000
00000100
00000000
00000000
00001000
00000000
00000000
00000000
00010000
00000000
00001000
00000000
00000000
00000000
,  // measure 33
00000100
00000010
00000100
00000000
00000010
00010000
00000010
00000000
,  // measure 34
00001000
00000001
00001000
00000001
00000010
00000100
00000010
00000000
,  // measure 35
00000001
00000100
00001000
00000000
00000100
00001000
00010000
00000000
,  // measure 36
00100000
00000000
00000000
10000000
00000000
00000000
00010000
00000000
00200000
00000000
00000000
00000000
00300000
00000000
00000000
00000000
,  // measure 37
10000000
01000000
10000000
00000000
00010000
01000000
00010000
00000000
,  // measure 38
10000000
00100000
00010000
00000000
00001000
00000100
00000001
00000000
,  // measure 39
00000000
00000010
00001000
00010000
,  // measure 40
01000000
10000000
00100000
00010000
00001000
00010000
00000000
00000000
,  // measure 41
00000200
00000010
00000302
00001000
,  // measure 42
00000023
00010000
00002030
00100000
,  // measure 43
00023000
00000000
00000100
00000000
00030010
00000000
00001000
00010000
,  // measure 44
00000100
00001000
00000010
00010000
00001000
00000000
01000000
00000000
,  // measure 45
10100000
00000000
10000000
00010000
10000000
00000000
01000000
00000000
,  // measure 46
11000000
00000000
00000000
01010000
00000000
00000000
00011000
00000000
,  // measure 47
00000010
00001000
00000100
00000001
,  // measure 48
00000010
00001000
00000010
00001000
00000100
00010000
01000000
00000000
,  // measure 49
00200000
01000000
20300000
00010000
,  // measure 50
32000000
00001000
03020000
00000100
,  // measure 51
00032000
00000000
00100000
00000000
01003000
00000000
00010000
00001000
,  // measure 52
00100000
00010000
01000000
00001000
00010000
00000000
00000010
00000000
,  // measure 53
00000101
00000000
00000001
00001000
00000001
00000000
00000010
00000000
,  // measure 54
00000011
00000000
00000000
00001010
00000000
00000000
00011000
00000000
,  // measure 55
01000000
00000000
00010000
00000000
00100000
01000000
00100000
00000000
,  // measure 56
10010000
00000000
00011000
00000000
01000000
00100000
01000000
00100000
,  // measure 57
00002000
00003000
00000010
00000001
,  // measure 58
00000200
00000300
00001000
00100000
,  // measure 59
20000000
30000000
01000000
00010000
,  // measure 60
00002000
00000000
00010000
00000000
00003100
00000000
00001000
00010000
,  // measure 61
00001000
00010000
00000100
00000010
,  // measure 62
00000001
00000100
00001000
00010000
,  // measure 63
00100000
10000000
00100000
10000000
01000000
00010000
01000000
00010000
,  // measure 64
00001000
00000011
00001000
00000101
,  // measure 65
00000001
00000100
00000000
00000100
00001000
00000000
00001000
00010000
,  // measure 66
00000000
00010000
00100000
00000000
10100000
00000000
00000000
00000000
;
