#TITLE:Ringo Mogire Beam!;
#SUBTITLE:;
#ARTIST:N.O.-SYO feat. Takanori + Maki;
#TITLETRANSLIT:;
#SUBTITLETRANSLIT:;
#ARTISTTRANSLIT:;
#GENRE:;
#CREDIT:AznPunk07/Frozen_Heat/GuardianFrozen;
#MENUCOLOR:#ff4a4a;
#BANNER:Ringo Mogire Beam! Remix-bn.png;
#BACKGROUND:Ringo Mogire Beam! Remix-bg.png;
#LYRICSPATH:Ringo Mogire Beam! Remix.lrc;
#CDTITLE:!cdtitle.png;
#MUSIC:Ringo Mogire Beam! Remix.mp3;
#OFFSET:-0.147;
#SAMPLESTART:0.760;
#SAMPLELENGTH:20.000;
#SELECTABLE:YES;
#LISTSORT:;
#BPMS:0.000=180.000,32.000=1080.017,35.000=360.000,36.000=180.001,38.000=360.002,40.000=180.001;
#STOPS:;
#TICKCOUNT:0.000=2;
#BGCHANGES:;
#KEYSOUNDS:;
#ATTACKS:;

//---------------dance-single - ----------------
#NOTES:
     dance-single:
     :
     Hard:
     8:
     0.694,0.829,0.810,0.189,0.044:
0000
0000
0000
0000
0001
0100
0000
0000
,
1000
0100
1000
0000
0000
0000
0000
0000
1001
0000
0000
0000
0000
0000
0000
0000
,
0010
0000
0000
0000
1000
0010
0000
0000
,
0001
0010
0001
0000
0000
0000
0000
0000
1001
0000
0000
0000
0000
0000
0000
0000
,
0100
0000
0000
0000
0001
1000
0100
0000
,
1000
0001
0010
0000
0000
0000
0000
0000
1001
0000
0000
0000
0000
0000
0000
0000
,
0100
0100
0100
0010
0100
0100
1000
0100
,
0100
0010
0100
0100
0001
0001
1000
1000
,
2002
0000
0000
3003
,
1000
0000
0001
0100
2002
0000
3003
0000
,
0001
0010
0000
1000
0010
1000
0000
0001
,
0100
0101
1010
1100
,
1000
0100
0000
0001
0100
0001
0000
1000
,
0100
1000
0100
0000
0001
0100
0100
0000
,
1000
0010
0000
0001
0010
0001
0000
1000
,
0100
1100
0011
0101
,
0001
0100
1000
0100
0010
0000
1000
0100
,
0001
0100
0010
0100
2000
0000
0000
0000
,
3001
0000
0101
0000
0001
0010
0100
0000
,
1000
0100
0010
0000
0001
0000
0000
0000
1001
0000
0000
0000
0100
0000
0000
0000
,
1000
0000
1010
0000
1000
0010
0100
0000
,
0001
0100
0010
0000
1000
0000
0000
0000
1001
0000
0000
0000
0100
0000
0000
0000
,
1000
0100
1000
0000
0001
0100
0001
0000
,
0011
1010
1001
0011
,
0100
0001
0010
0000
0010
0001
0100
0000
,
1001
0000
0000
0110
0000
0000
1001
0000
0000
0000
0000
0000
1001
0000
0000
0000
,
0010
1000
0100
0000
0100
1000
0010
0000
,
1010
0011
1001
1010
,
0001
0010
0100
0000
0010
0100
1000
0000
,
0001
0000
0000
1000
0000
0000
0001
0000
1001
0000
0000
0000
0110
0000
0000
0000
,
1000
0100
0000
0100
0000
0100
0001
0000
,
0001
0100
1000
0100
0010
0100
0000
0000
,
1000
0010
0100
0001
1000
0010
0100
0001
,
1000
0100
0010
0001
1000
0100
0010
0000
,
0011
0001
0101
0001
,
1001
0000
0001
1000
0100
0000
1000
0001
,
0100
0000
0100
0000
0110
0000
0010
1000
,
0100
1000
0010
1000
0100
0000
0010
0000
,
0011
0000
1000
0100
0000
1000
0010
0000
,
0001
0000
0001
0010
0000
0010
0100
0000
,
0101
1100
1001
1001
,
0110
1000
0100
0010
0001
0100
0010
1000
,
0100
0000
0100
1000
0010
0000
0100
0001
,
0010
0000
0010
0001
0000
0100
0001
1000
,
0000
1000
0100
0000
0010
0000
0001
0010
,
0001
0100
0001
0010
0001
0000
1000
0000
,
0101
0000
0001
1000
0100
0000
0010
0000
,
0011
0000
0001
0100
0000
1000
0100
0000
,
1000
0000
0010
0000
0100
0000
0000
0000
0001
0100
0010
0000
1000
0000
0000
0000
,
1001
0010
0000
0010
1100
0000
0101
0000
,
0001
0011
0001
0011
,
0001
0101
0001
0101
,
1001
1100
1001
0101
,
1001
0000
1100
0000
1001
0000
1000
0010
,
1000
1000
1010
1000
,
1001
1000
1001
1000
,
1100
0101
1001
0110
,
1010
0011
0100
0100
,
0001
0010
0100
0000
0100
0010
0001
0000
,
0001
0100
1000
0000
1000
0100
0001
0000
,
0001
1000
0100
0000
0100
1000
0001
0000
,
0001
0100
0101
0000
0001
0000
0011
0000
,
1000
0100
0010
0000
0010
0100
1000
0000
,
1000
0001
0100
0000
0100
0001
1000
0000
,
1000
0010
0100
0000
0100
0010
1000
0100
,
0010
0001
0100
0000
2002
0000
3003
0000
,
2002
0000
3003
0022
0000
0033
2020
0000
,
3030
0000
2002
0000
0000
0000
3003
0000
0110
0000
2002
0000
0000
0000
0000
3003
;

//---------------dance-single - Lifts----------------
#NOTES:
     dance-single:
     Lifts:
     Edit:
     9:
     0.802,0.981,1.000,0.100,0.067:
0000
0000
0000
0000
0001
0010
0100
0000
,
1000
0010
1000
0000
0100
0000
0000
0000
1001
0000
0000
0000
L00L
0000
0000
0000
,
0010
0000
00L0
0000
0100
1000
0010
0000
,
0100
0001
0100
0000
0010
0000
0000
0000
1001
0000
0000
0000
L00L
0000
0000
0000
,
0100
0000
0L00
0000
0010
L0L0
0000
0000
,
0001
0L0L
0000
0000
1001
0000
L00L
0000
,
0000
000L
00L0
0L00
L000
000L
00L0
0L00
,
L000
000L
00L0
0L00
L001
0000
1001
0000
,
0020
0000
0000
0000
,
0000
0000
0000
0030
,
1000
0100
0000
0001
0100
0001
0000
0001
,
0010
00L0
000L
0L00
,
10L0
0100
0000
0001
0100
0001
0000
0010
,
0100
1000
0010
0000
00L0
0L00
000L
L000
,
001L
0100
0000
1000
0010
1000
0000
L000
,
000L
00L0
0L00
L000
000L
0L10
0000
0001
,
1000
1000
0100
0100
0010
0010
0001
0001
,
1000
0000
0000
0001
1000
0000
0001
0000
0110
0000
0000
0000
1001
0000
0000
0000
,
1000
0000
L010
0000
0100
0001
0010
0000
,
000L
0010
0100
0000
0020
0000
0001
0000
,
0100
0000
1030
0000
0100
1000
0010
0000
,
00L0
0100
0001
0000
0200
0000
1000
0000
,
0310
1000
0010
0000
0001
0100
0001
0000
,
0L0L
0010
1000
0100
0100
0L10
0001
0000
,
1000
0010
1000
0000
0001
0010
1001
L00L
,
0110
0000
0LL0
1001
0000
L00L
0220
0000
0000
0000
0000
0000
0000
0000
0330
0000
,
0001
0100
0001
0000
1000
0100
1000
0000
,
0011
00LL
1010
L0L0
,
0001
0010
0100
0000
1000
0010
0100
0LL0
,
1001
0000
L00L
0110
0000
0LL0
1001
L00L
0220
0000
0000
0000
0000
0000
0330
0000
,
00L0
0L00
0000
000L
0000
L000
0L00
00L0
,
000L
L000
000L
L000
00L0
0L00
00L0
0L01
,
0000
1000
0100
0010
0001
1000
0100
0010
,
0000
000L
00L0
0L00
L000
002L
0000
0030
,
1001
010L
1001
L010
,
1001
0000
001L
0100
10L0
0000
0010
0100
,
00L1
0010
0100
1000
0000
L000
0010
0100
,
0001
0000
0000
1001
0000
0000
0110
0000
0000
0000
1000
0000
0100
0000
0001
0000
,
0100
0000
0L00
L000
01L0
0000
0001
0010
,
0100
0000
0L00
1000
0000
L000
0010
00L0
,
1001
L00L
0110
0LL0
1001
L00L
0110
0LL0
,
1001
0100
0010
0001
1000
0100
0010
0001
,
0100
0010
1000
0100
0000
0100
0010
0000
,
00L0
000L
0L00
10L0
0000
1000
0100
0010
,
0100
1000
0010
0100
0000
0100
0001
0000
,
000L
L000
100L
0000
L000
000L
L001
0000
,
0110
0000
0001
0100
1000
0100
0010
0000
,
10L0
0000
0000
L100
0000
0000
0L10
0000
,
0011
0000
0000
0000
0101
0000
0000
0000
0001
1000
0001
0000
0100
0000
0000
0000
,
0L00
000L
L000
0L00
00L0
000L
L000
00L0
,
L001
0011
0001
0101
,
1001
1100
1010
1100
,
0L01
0100
1L00
0010
,
0210
0000
1000
0000
0010
0000
0001
0001
,
0301
1010
L100
0011
,
010L
0000
0000
0000
1100
0000
0000
0000
L010
0000
0000
0000
0101
0000
0000
0L0L
,
1010
0000
0000
0000
1100
0000
0000
LL00
0011
0000
0000
0000
1001
0000
0000
0000
,
0010
0100
0010
0000
0100
0000
0100
0000
,
0L00
000L
01L0
0000
0L00
L000
0L10
0000
,
00L0
000L
L100
0000
0L00
L000
001L
0000
,
1000
1010
0001
0011
,
0000
L000
0L00
00L0
100L
0000
0101
0000
,
0L00
00L0
L000
0L00
L000
00L0
0L00
000L
,
00L0
000L
0L00
00L0
L000
000L
L000
0L00
,
00L0
000L
0L00
000L
00L0
000L
0LL0
L000
,
0LL1
0101
1000
1100
,
0001
0100
0L0L
1000
0100
LL00
1000
0010
,
L0L0
0001
0010
00LL
1000
0001
L00L
0000
,
0110
0000
0000
0000
;

//---------------dance-double - ----------------
#NOTES:
     dance-double:
     :
     Challenge:
     9:
     0.777,1.000,0.732,0.100,0.227: // measure 1
00000000
00000000
00000000
00000000
10000000
01000000
00010000
00000000
,  // measure 2
00001000
00000010
00000100
00000000
00011000
00000000
00000100
00000000
,  // measure 3
00000010
00000001
00000100
00000000
00001000
00010000
00100000
00000000
,  // measure 4
10000000
01000000
10000000
00000000
00100000
00000000
00000000
00000000
00011000
00000000
00000000
00000000
00000100
00000000
00000000
00000000
,  // measure 5
00000010
00000001
00000100
00000010
00001000
00000100
00000010
00000000
,  // measure 6
00001000
00100000
00010000
00000000
01000000
00000000
00000000
00000000
11000000
00000000
00000000
00000000
00100000
00000000
00000000
00000000
,  // measure 7
10000000
10000000
01000000
01000000
00110000
00000000
00101000
00000000
,  // measure 8
11000000
00000000
00000000
10100000
00000000
00000000
10010000
00000000
01001000
00000000
00000000
00000000
00011000
00000000
00000000
00000000
,  // measure 9
00002020
00000000
00000000
00003030
,  // measure 10
00000001
00000000
00000010
00000100
00001000
00000000
00000000
00000000
,  // measure 11
00000001
00000100
00000001
00000000
00001000
00000100
00001000
00000000
,  // measure 12
00000001
00000100
00010000
00000100
00000010
00001000
00000100
00000000
,  // measure 13
00010000
00001000
00000000
00000010
00000001
00001000
00000000
00000010
,  // measure 14
00001000
00000100
00000010
00000001
00000100
00000100
00001000
00001000
,  // measure 15
00100000
00010000
00000000
10000000
00100000
10000000
00000000
10000000
,  // measure 16
01000000
00000000
11000000
00000000
00100000
00001000
00000000
00001000
,  // measure 17
01000000
00000000
01000000
00000000
00100000
00000000
00100000
00000000
10000000
00000000
00000000
10000000
01000000
00000000
01000000
00000000
,  // measure 18
00100000
00100000
00001000
00001000
01000000
00000000
00101000
00000000
,  // measure 19
00000100
00000000
00000010
00000000
00000100
00000000
00000000
00000000
00000001
00000100
00000001
00000000
00000010
00000000
00000000
00000000
,  // measure 20
00001000
00010000
00001000
00000000
01000000
00000000
00000000
00000000
10100000
00000000
00000000
00000000
10010000
00000000
00000000
00000000
,  // measure 21
00110000
00000000
01000000
00000000
00100000
00000000
00000000
00000000
10000000
01000000
10000000
00000000
00100000
00000000
00000000
00000000
,  // measure 22
00010000
00001000
00010000
00000000
00000100
00000000
00000000
00000000
00000011
00000000
00000100
00000000
00000010
00000000
00000000
00000000
,  // measure 23
00001000
00000100
00000000
00000100
00010000
00000100
00000000
00001000
,  // measure 24
01000000
10100000
00110000
10010000
,  // measure 25
10000000
00100000
00000000
01000000
00001000
00001000
00010000
00000000
,  // measure 26
00001100
00000000
00000000
00001010
00000000
00000000
00001001
00000000
00000000
00000000
00000000
00000000
00000100
00000000
00000000
00000000
,  // measure 27
00010000
00001000
00010000
00000000
00100000
01000000
00100000
00000000
,  // measure 28
10000000
01000000
10000000
00100000
10000000
00010000
00000000
00010000
,  // measure 29
01000000
10000000
01000000
00000000
01000000
00001000
01000000
00000000
,  // measure 30
00010000
00000000
00000000
00100000
00000000
00000000
00001000
00000000
00010000
00000000
00000000
00000000
00001100
00000000
00000000
00000000
,  // measure 31
00000001
00000001
00000100
00001000
00000100
00000100
00000010
00000100
,  // measure 32
00001000
00001000
00010000
00100000
10000000
10000000
01000000
00100000
,  // measure 33
00010000
01000000
00010000
01000000
00010000
00000000
10000000
00100000
10000000
00100000
10000000
00000000
01000000
00001000
01000000
00001000
,  // measure 34
01000000
00001000
01000000
00001000
00020000
00000000
00030200
00000000
00000320
00000000
00000032
00000000
00000003
00000000
00000000
00000000
,  // measure 35
00001001
00000000
00000001
00000010
00000100
00001000
00000010
00000000
,  // measure 36
00001000
00000100
00010000
00000000
00001000
00100000
01000000
10000000
,  // measure 37
00100000
01000000
00001000
00010000
00000000
00000010
00001000
00000001
,  // measure 38
00001000
00000100
00000010
00000001
00000000
00000001
00000100
00001000
,  // measure 39
00010000
00000000
00010000
00000100
00000000
00000100
00000010
00000001
,  // measure 40
00000100
00000000
00000100
00010000
00000000
00010000
00100000
01000000
,  // measure 41
10100000
10100000
00110000
00110000
,  // measure 42
10000000
10000000
00100000
00100000
00001000
00001000
00100000
01000000
,  // measure 43
00100000
00000000
11000000
00100000
00010000
00000000
01010000
00100000
,  // measure 44
10000000
00000000
10000000
01000000
00000000
01000000
00001000
01000000
,  // measure 45
00000000
00010000
00001000
00000010
00000000
00000010
00000100
00001000
,  // measure 46
00000001
00000100
00000001
00000010
00000100
00000000
00001100
00000000
,  // measure 47
00001010
00000000
00000001
00001000
00000001
00000000
00000010
00000001
,  // measure 48
00000100
00000000
00000100
00000010
00000000
00000010
00000100
00000000
,  // measure 49
00011000
00000000
00000000
00000000
00011000
00000000
00000000
00000000
00000100
00000010
00000100
00000000
00011000
00000000
00000000
00000000
,  // measure 50
01100000
10000000
00010000
10000000
01010000
00100000
11000000
00000000
,  // measure 51
00110000
00110000
00001000
00000010
,  // measure 52
00000101
00000101
00001000
00010000
,  // measure 53
10100000
10100000
00001000
00000100
,  // measure 54
01001000
01001000
00010100
00001000
,  // measure 55
00000101
00001010
00010100
00101000
,  // measure 56
01010000
10100000
11000000
01100000
,  // measure 57
00110000
00010010
00001100
00010100
,  // measure 58
00000101
00000000
00000011
00000000
00001000
00000001
00001000
00000000
,  // measure 59
00000001
00000000
00000000
00000001
00000100
00000000
00000000
00000100
00001000
00000000
00000000
00001000
00010000
00000000
00000000
00010000
,  // measure 60
00100000
00000000
00000000
00100000
10000000
00000000
00000000
10000000
01000000
00000000
00000000
01000000
00010000
00000000
00000000
00010000
,  // measure 61
00001000
00000000
00000000
00001000
00000010
00000000
00000000
00000010
00000001
00000000
00000000
00000001
00000100
00000000
00000000
00000100
,  // measure 62
00002000
00000000
00013000
00000000
00110000
00000000
10000000
10000000
,  // measure 63
10000000
00000000
00000000
10000000
01000000
00000000
00000000
01000000
00100000
00000000
00000000
00100000
00001000
00000000
00000000
00001000
,  // measure 64
01000000
00000000
00000000
01000000
00100000
00000000
00000000
00100000
00010000
00000000
00000000
00010000
00000100
00000000
00000000
00000100
,  // measure 65
00000001
00000000
00000000
00000001
00000010
00000000
00000000
00000010
00000100
00000000
00000100
00000000
00000001
00000000
00001000
00000000
,  // measure 66
00000001
00000101
00000010
00001100
,  // measure 67
00000001
00000010
00001000
00010000
01000000
10000000
10000000
00100000
,  // measure 68
00010000
00001000
00000100
00000001
00000001
00000010
00001000
00000000
,  // measure 69
00022000
00000000
00000000
00033000
00000000
00000000
00000000
00000000
00000000
00000000
00000000
00000000
00000000
00000000
00000000
00000000
;

//---------------dance-single - ----------------
#NOTES:
     dance-single:
     :
     Medium:
     6:
     0.469,0.490,0.277,0.200,0.000:
0000
0000
0000
0000
,
0000
0000
0000
0000
,
0000
0000
0000
0000
,
0000
0000
0000
0000
,
0010
0000
1000
0000
0001
0010
0001
0000
,
1000
0010
1000
0000
1001
0000
0000
0000
,
0100
0100
0010
0010
,
1000
0001
1000
0001
1000
0000
0010
0000
,
0001
0000
0000
0000
,
0000
0000
0000
0000
,
0100
0100
0010
0010
,
1000
1100
0001
0000
,
0010
0010
0001
0001
,
1000
0000
0010
0000
0100
0010
0100
0000
,
0001
0001
1000
1000
,
0101
0010
1000
0000
,
0001
0010
0001
0010
0001
0000
0001
0000
,
1000
0010
1000
0100
1000
0000
0000
0000
,
0001
0101
1000
1100
,
0001
0101
0020
0000
,
1030
1100
0001
0101
,
1000
1100
0020
0000
,
0031
0001
0010
0010
,
0001
0100
1000
0000
,
1000
1000
0100
1000
,
0020
0100
0130
0000
,
0001
0000
0010
0000
0001
0100
0000
0000
,
1000
0000
0010
0000
1000
0100
0000
0000
,
0001
0010
0000
0000
1000
0010
0000
0000
,
0001
1000
1001
0000
,
1000
1000
0100
0100
,
0010
0010
0001
0001
,
0000
0001
1000
0001
,
1000
0001
1000
0001
1000
0001
0000
0000
,
0101
0010
1000
0001
,
1010
0100
1001
0100
,
0011
0100
0001
1000
,
0001
0010
0100
1000
,
0110
0001
1000
0011
,
1010
0000
0000
0100
0000
0000
0100
0000
,
0001
0001
1000
1000
,
0200
1000
0010
0001
,
0310
0000
0001
0100
0001
0000
1000
0010
,
1000
0100
0010
0100
0000
0010
0001
0010
,
0000
0000
0001
0000
1000
0000
0010
0100
,
0010
0000
0100
0010
0100
0000
1000
0000
,
0001
0000
0000
0010
,
1100
0000
0000
0101
0000
0000
1001
0000
,
0010
0110
0100
0110
,
1001
0000
0000
0000
1000
0001
1000
0001
,
2000
0100
0010
3001
,
2000
0010
0001
3100
,
2000
0001
0100
3010
,
2000
0100
3001
0010
,
0002
0010
0100
1003
,
0002
0100
1000
0013
,
0002
1000
0010
0103
,
0002
0100
1003
0010
,
1000
0100
0001
0010
,
1000
0100
0001
0010
,
1000
0001
1000
0001
,
0010
0010
0100
0010
,
0001
0100
1000
0010
,
0001
0100
1000
0010
,
0001
0000
0010
0000
1000
0001
1000
0001
,
1000
1100
0001
0101
,
2000
0000
3000
0200
0000
0300
0020
0000
,
0030
0000
0002
0000
0000
0000
0003
0000
2000
0000
0002
0000
0000
0000
0000
3003
;

//---------------dance-single - ----------------
#NOTES:
     dance-single:
     :
     Beginner:
     2:
     0.135,0.187,0.000,0.033,0.000:
0000
0000
0000
0000
,
0000
0000
0000
0000
,
0000
0000
0000
0000
,
0000
0000
0000
0000
,
0000
0000
1000
0000
,
1000
0000
1000
0000
,
0000
0000
0001
0000
,
0001
0000
0001
0000
,
0000
0000
0000
0000
,
0000
0000
0000
0000
,
0000
0000
0000
0000
,
0100
0100
0100
0000
,
0000
0000
0000
0000
,
0010
0010
0010
0000
,
0000
0000
0000
0000
,
1000
1000
1000
0000
,
0000
0000
0000
0000
,
0001
0001
0001
0000
,
0000
0000
0000
0000
,
0000
0000
0200
0000
,
0300
0000
0000
0000
,
0000
0000
0200
0000
,
0300
0000
0000
0000
,
0010
0010
0010
0000
,
0000
0000
0000
0000
,
1000
1000
1000
0000
,
0000
0000
0000
0000
,
0001
0001
0001
0000
,
0000
0000
0000
0000
,
0100
0100
0100
0000
,
0000
0000
0010
0000
,
0000
0000
0100
0000
,
0000
0000
0001
0000
,
0001
0000
0001
0000
,
0000
0000
1000
0000
,
0000
0000
0100
0000
,
0000
0000
0001
0000
,
0000
0000
0010
0000
,
0000
0000
1000
0000
,
0000
0000
0001
0000
,
0100
0000
0100
0000
,
0100
0000
0000
0000
,
0000
0000
0010
0000
,
0000
0000
1000
0000
,
0000
0000
0100
0000
,
0000
0000
0001
0000
,
0000
0000
0100
0000
,
0000
0000
0010
0000
,
0001
0000
0001
0000
,
0001
0000
0000
0000
,
1000
1000
1000
0000
,
0000
0000
0000
0000
,
0001
0001
0001
0000
,
0000
0000
0000
0000
,
0100
0100
0100
0000
,
0000
0000
0000
0000
,
0010
0000
0010
0010
,
0010
0000
0010
0000
,
0000
0000
1000
0000
,
0000
0000
0001
0000
,
0000
0000
0010
0000
,
0100
0100
0100
0000
,
0000
0000
1000
0000
,
0000
0000
0001
0000
,
0000
0000
0100
0100
,
0100
0000
0100
0000
,
0020
0000
0000
0000
,
0000
0000
0030
0000
;

//---------------dance-single - ----------------
#NOTES:
     dance-single:
     :
     Easy:
     5:
     0.346,0.449,0.111,0.111,0.006:
0000
0000
0000
0000
,
0000
0000
0000
0000
,
0000
0000
0000
0000
,
0000
0000
0000
0000
,
0000
0000
0000
0000
0001
1000
0000
0000
,
1000
0001
0000
0000
2002
0000
0000
0000
,
3003
0000
0000
0010
0100
0000
0100
0000
,
0010
0000
0000
0010
0000
0000
0010
0000
0020
0000
0000
0000
0000
0000
0000
0000
,
0030
0000
0000
0000
,
0000
0000
0000
0000
,
0001
0001
0010
0000
,
1000
1000
0100
0000
,
0001
0100
1000
0100
,
0001
0010
0100
0000
,
1000
1000
0010
0000
,
0001
0001
0100
0000
,
1000
0100
0001
0000
,
0001
0100
1000
0000
,
0001
0000
0011
0000
,
1000
0000
1010
0000
,
0001
0000
0101
0000
,
1000
0000
1100
0000
,
0001
1000
0001
0000
,
0010
0100
1000
0000
,
0010
1000
0010
0000
,
0200
0010
0310
0000
,
0001
0010
0100
0000
,
1000
0000
0001
0000
,
1000
0010
0100
0000
,
0010
1000
0001
0010
,
0200
1000
0001
1300
,
0020
0001
1000
0031
,
0000
1000
1000
0001
,
1000
0001
0001
0000
,
0002
0000
0010
0100
,
1000
0000
1000
0100
,
0010
0000
0003
1000
,
1000
0100
0010
0001
,
1000
0000
0010
0100
,
0010
0000
0011
1010
,
0100
0100
0001
1000
,
0100
0000
0000
0000
0010
0100
0010
0000
,
2000
0000
0100
0010
,
0001
0000
0001
0010
,
0100
0000
3000
0001
,
0001
0010
0100
1000
,
0001
0000
0000
0100
,
0010
0000
1000
0001
,
0010
0010
1100
0101
,
0010
0000
2002
3003
,
0001
0001
0100
0010
,
1000
1000
0100
0010
,
0001
0001
0100
0010
,
1000
1000
0001
0000
,
1000
0100
0001
0000
,
1000
0010
0001
0000
,
1000
0100
0001
0000
,
1000
0000
0001
0000
,
1000
0001
1000
0000
0010
0000
0100
0000
,
0001
1000
0001
0000
0010
0000
0100
0000
,
1000
0100
1000
0000
0010
0000
0100
0000
,
0001
0100
0001
0000
1000
0000
0000
0000
,
0001
0010
1000
0010
,
0001
0100
1000
0100
,
0001
0000
1000
0000
0001
1000
0001
1000
,
0100
0000
0010
0000
,
0100
0000
0000
0100
0000
0000
0100
0000
,
0000
0100
0000
0000
0100
0000
0000
0000
;
