#TITLE:Programmed Sun;
#SUBTITLE:;
#ARTIST:kors k;
#TITLETRANSLIT:;
#SUBTITLETRANSLIT:;
#ARTISTTRANSLIT:;
#GENRE:;
#CREDIT:AznPunk07/GuardianFrozen;
#MENUCOLOR:#ffa200;
#BANNER:Programmed Sun-bn.png;
#BACKGROUND:Programmed Sun-bg.png;
#LYRICSPATH:;
#CDTITLE:!cdtitle.png;
#MUSIC:Programmed Sun.mp3;
#OFFSET:-0.401;
#SAMPLESTART:82.000;
#SAMPLELENGTH:20.000;
#SELECTABLE:YES;
#LISTSORT:;
#BPMS:0.000=144.010;
#STOPS:;
#TICKCOUNT:0.000=2;
#BGCHANGES:;
#KEYSOUNDS:;
#ATTACKS:;

//---------------dance-single - ----------------
#NOTES:
     dance-single:
     :
     Hard:
     7:
     0.385,0.454,0.070,0.256,0.016: // measure 1
0000
0000
0000
0000
,  // measure 2
1001
0000
0000
0020
0000
0000
0030
0000
,  // measure 3
0100
0001
0010
0100
,  // measure 4
1000
0010
1000
0001
,  // measure 5
1000
0010
0100
0001
,  // measure 6
0010
0001
0100
0010
,  // measure 7
1000
0100
1000
0001
,  // measure 8
0010
0001
1000
0010
,  // measure 9
2002
0000
0000
3003
,  // measure 10
1000
0100
1000
0001
0000
0001
0100
0001
,  // measure 11
0000
0001
0010
0001
0000
0010
0000
1100
,  // measure 12
0000
0001
0100
0001
0000
1000
0010
1000
,  // measure 13
0000
0001
0000
1000
0000
1001
0000
0110
,  // measure 14
0000
0010
0001
0010
0000
0100
1000
0100
,  // measure 15
0000
1000
0000
1000
0000
0001
0000
0101
,  // measure 16
0000
0010
1000
0001
0000
0010
0001
1000
,  // measure 17
0100
0000
0100
0000
0100
0000
0000
0010
0000
0000
0010
0000
0000
0000
0000
0000
,  // measure 18
0010
0001
0000
1000
0000
0010
0000
1000
,  // measure 19
0000
0001
0000
0010
0000
0100
0000
1000
,  // measure 20
0010
1000
0000
0100
0000
1000
0000
0001
,  // measure 21
0100
0001
0000
1000
0000
0001
0000
0010
,  // measure 22
0001
0000
0001
0000
0000
0000
0000
1000
0000
0000
1000
0000
0000
0000
0010
0000
,  // measure 23
0000
0000
0010
0000
0100
0000
0000
0100
0000
0000
0001
0000
1000
0001
1000
0000
,  // measure 24
0100
0000
0100
0000
0010
0001
1000
0001
,  // measure 25
0200
1000
0010
0001
,  // measure 26
0320
0000
0000
0000
,  // measure 27
0000
0000
0000
0000
,  // measure 28
2030
0000
0000
0000
,  // measure 29
0000
0000
0000
0000
,  // measure 30
3002
0000
0000
0000
,  // measure 31
0000
0000
0000
0000
,  // measure 32
0203
0000
0000
0000
,  // measure 33
0000
0000
0000
0000
,  // measure 34
0301
1000
0020
0000
0000
0000
0000
0100
,  // measure 35
0000
0000
0000
0000
,  // measure 36
1030
0001
1000
0200
0000
0000
0000
0001
,  // measure 37
0000
0000
0000
0000
,  // measure 38
0310
0001
2000
0000
0000
0000
0000
0010
,  // measure 39
0000
0000
0000
3002
,  // measure 40
0010
0000
0000
0000
0000
0000
0000
1000
,  // measure 41
0000
0000
0003
1001
,  // measure 42
0010
0000
1000
0000
0100
0010
0000
0010
,  // measure 43
0100
0000
1000
0000
0010
0100
0010
0001
,  // measure 44
0010
0000
0100
0000
0001
0010
0000
0010
,  // measure 45
0100
0000
0001
0000
0100
0010
0100
1000
,  // measure 46
0100
0000
0010
0001
0010
0001
0100
0000
,  // measure 47
1000
0000
0010
1000
0010
1000
0100
0000
,  // measure 48
1000
0001
1000
0001
0100
0010
0100
0010
,  // measure 49
2002
0000
3003
1001
,  // measure 50
0010
1000
0010
0000
0100
0001
0010
0000
,  // measure 51
0010
0001
0010
0000
0100
1000
0010
0000
,  // measure 52
1000
0100
1000
0000
0010
0000
0100
0001
,  // measure 53
0100
0001
0010
0000
0100
1000
0100
1000
,  // measure 54
0001
0000
1000
0000
0010
1000
0010
0000
,  // measure 55
0100
0000
0001
0000
0010
0001
0010
0000
,  // measure 56
0100
1000
0001
0100
0001
1000
0100
1000
,  // measure 57
0001
0001
1000
0000
0001
1000
0001
0000
,  // measure 58
1000
0010
0200
0000
1000
0000
0310
1000
,  // measure 59
0200
0010
1000
0310
,  // measure 60
1000
0010
0100
0002
0010
0000
0103
0010
,  // measure 61
0002
0010
0100
0013
,  // measure 62
1000
0100
0020
0000
0001
0000
0130
0020
,  // measure 63
0000
0100
0031
0100
,  // measure 64
2000
0000
0100
0000
0001
0000
3100
2000
,  // measure 65
0000
0010
0001
3010
,  // measure 66
0001
0100
0020
0000
0001
0000
0130
0001
,  // measure 67
0020
0100
0001
0130
,  // measure 68
0001
0100
0010
2000
0100
0000
3010
0100
,  // measure 69
2000
0100
0010
3100
,  // measure 70
0001
0010
0200
0000
1000
0000
0310
0200
,  // measure 71
0000
0010
1300
0010
,  // measure 72
0002
0000
0010
0000
1000
0000
0013
0001
,  // measure 73
0200
0010
0320
1000
2030
0001
3002
0000
,  // measure 74
0003
0000
0000
0000
;

//---------------dance-single - ----------------
#NOTES:
     dance-single:
     :
     Challenge:
     9:
     0.562,0.595,0.117,0.194,0.369: // measure 1
0000
0000
0000
0000
,  // measure 2
1001
0000
0000
0100
0000
0000
0000
0000
,  // measure 3
0010
0000
0000
1000
0001
1000
0000
0000
,  // measure 4
0100
0000
0000
0010
0001
0000
1000
0000
,  // measure 5
0010
0000
0000
0001
1000
0001
0000
0000
,  // measure 6
0000
1000
0010
1000
0000
0001
0010
0001
,  // measure 7
0000
0001
0010
0000
0000
0010
0100
0000
0000
0100
1000
0000
0000
1000
0001
0000
,  // measure 8
0000
0001
0100
0001
0000
1000
0100
1000
,  // measure 9
0010
0100
0010
0100
0010
0100
0010
0100
0000
0000
0010
0000
0200
0000
0310
0000
,  // measure 10
0001
0000
0010
0000
0100
0000
1000
0000
0000
1000
0100
0000
0000
1000
0010
0000
,  // measure 11
0000
0000
0010
0000
0100
0000
0001
0000
0000
0001
0010
0000
0000
0001
0100
0000
,  // measure 12
0000
1010
0000
0011
0000
0010
0100
0010
,  // measure 13
0000
1000
0100
0000
0000
0001
0100
0000
0000
0010
0100
0000
0000
1000
0100
0000
,  // measure 14
0010
0000
0100
0000
1000
0000
0010
0000
0000
0010
0100
0000
0000
0100
0001
0000
,  // measure 15
0010
0000
0001
0000
0100
0000
0010
0000
0000
0010
0100
0000
0000
0100
0010
0000
,  // measure 16
1000
0001
0010
0100
1000
0001
0010
0001
,  // measure 17
0100
0000
0100
0000
0010
0000
0000
0010
0000
0000
0001
0000
1000
0001
1000
0000
,  // measure 18
0100
1000
0001
0100
0000
0101
0000
1100
,  // measure 19
0000
0010
1000
0001
0000
0011
0000
1010
,  // measure 20
0000
0100
0000
0100
0000
0010
0000
0010
,  // measure 21
0000
0001
0100
0000
0000
1000
0100
0000
0000
0010
0100
0000
0000
0001
0100
0000
,  // measure 22
0110
0000
0110
0000
0000
0000
0000
1001
0000
0000
0100
0000
0000
0000
1010
0000
,  // measure 23
0000
0000
0011
0000
1001
0000
0000
0100
0000
0000
0001
0000
1000
0001
1000
0000
,  // measure 24
0100
0010
0100
0010
0001
0001
1000
1000
,  // measure 25
0020
0100
0000
0000
0130
0010
0100
0000
0001
0000
1000
0000
1001
0000
0010
0000
,  // measure 26
0200
0000
1000
0000
,  // measure 27
0001
0000
0000
0010
0000
0000
0001
0000
,  // measure 28
0320
0000
1000
0000
,  // measure 29
0001
0000
0000
1000
0000
0000
0100
0000
,  // measure 30
2030
0000
0100
0000
0001
0001
0000
0100
,  // measure 31
0001
0000
0010
0100
0000
0001
0010
0000
,  // measure 32
3002
0000
0010
0000
0100
0100
0000
0010
,  // measure 33
1000
0000
1000
0100
0000
0100
0010
0000
,  // measure 34
1003
0100
0020
0000
0001
0001
0000
0230
,  // measure 35
1000
0000
0010
0001
0000
0001
0310
0000
,  // measure 36
1000
0010
0100
0002
0010
1000
0000
2003
,  // measure 37
0010
0000
0001
0010
0000
0010
3100
0000
,  // measure 38
0001
0100
0020
0000
1000
0100
0000
2030
,  // measure 39
0001
0000
0001
0100
0000
0010
3002
0000
,  // measure 40
0010
0000
1000
0000
0100
0000
0013
0200
,  // measure 41
0000
1000
0010
1300
,  // measure 42
0001
0100
0000
0000
0010
0000
0000
0000
1000
0000
0001
0000
0000
0000
0001
0000
,  // measure 43
1000
0000
0100
0000
0010
0100
1000
0010
,  // measure 44
1000
0010
0000
0000
0100
0000
0000
0001
0000
0000
1000
0000
0000
1000
0000
0000
,  // measure 45
0001
0010
0000
0000
0010
0000
0000
0100
0000
0000
1000
0000
0001
0000
1000
0000
,  // measure 46
0010
0100
0000
0000
0010
0000
1000
0100
0000
0001
0100
0000
0010
0000
0001
0000
,  // measure 47
1000
0100
1000
0000
0001
0000
0100
0001
0000
0001
0010
0000
0001
0000
1000
0010
,  // measure 48
0000
0010
0100
0000
0010
0000
1000
0001
0000
0000
0001
0000
1000
0000
0001
1000
,  // measure 49
0001
0000
0000
0000
,  // measure 50
1000
0100
0000
0000
1000
0000
0010
0100
0000
0000
0001
0000
0010
0000
0001
0000
,  // measure 51
0100
0001
0000
0000
0010
0000
0000
0100
0000
0000
1000
0000
0010
0000
1000
0000
,  // measure 52
0001
0010
0000
0000
0001
0000
0100
0010
0000
0000
1000
0000
0100
0000
1000
0000
,  // measure 53
0010
1000
0000
0000
0100
0000
0000
0010
0000
0000
0001
0000
0100
0000
0001
1000
,  // measure 54
0001
0010
0000
0010
0001
0000
1000
0001
0000
0000
0100
0010
0100
0000
0001
0000
,  // measure 55
1000
0100
0000
1000
0010
0000
0010
0100
0000
0000
0001
0000
0010
0000
0100
1000
,  // measure 56
0001
0100
0000
0010
1000
0000
0100
0001
0000
0000
1000
0000
0001
0000
1000
0001
,  // measure 57
0010
0000
0010
0000
0100
0010
0100
0010
0200
0000
1000
0000
0301
0000
0000
0000
,  // measure 58
1000
0010
0200
0000
1000
0000
0310
1000
,  // measure 59
0001
0000
0010
0001
0000
0100
0001
0000
1000
0000
0001
0100
0000
0001
0010
0000
,  // measure 60
0001
0100
1000
0200
0010
0000
0301
0000
,  // measure 61
1000
0000
0100
1000
0000
0010
1000
0000
0001
0000
1000
0010
0000
1000
0100
0000
,  // measure 62
0010
0001
0020
0000
1000
0000
0031
0200
,  // measure 63
0000
0010
1000
0301
,  // measure 64
0010
1000
0100
0010
,  // measure 65
0001
0100
0000
1000
0100
0000
0010
0100
0000
0000
0100
0010
0100
0000
0000
0000
,  // measure 66
0001
0100
0020
0000
0001
0000
0130
0001
,  // measure 67
1000
0000
0100
1000
0000
0010
1000
0000
0001
0000
0010
1000
0000
0100
1000
0000
,  // measure 68
0100
0010
0001
0020
0100
0000
1030
0000
,  // measure 69
0001
0000
0010
0001
0000
0100
0001
0000
1000
0000
0100
0001
0000
0010
0001
0000
,  // measure 70
0100
0010
0200
0000
0001
0000
1300
0020
,  // measure 71
0000
0100
0001
1030
,  // measure 72
0200
0310
0002
1003
,  // measure 73
1000
0001
1000
0000
0001
1000
0001
1000
0010
0100
0010
0000
1000
0001
0000
0000
,  // measure 74
1001
0000
0000
0000
;

//---------------dance-single - ----------------
#NOTES:
     dance-single:
     :
     Medium:
     5:
     0.295,0.454,0.171,0.163,0.000: // measure 1
0000
0000
0000
0000
,  // measure 2
0010
0000
1000
0000
,  // measure 3
0100
0000
0001
0000
,  // measure 4
0010
0000
0001
0000
,  // measure 5
0100
0000
1000
0000
,  // measure 6
0001
0100
0001
0010
,  // measure 7
0001
0100
0001
0010
,  // measure 8
1000
0100
1000
0010
,  // measure 9
1000
0100
1001
0000
,  // measure 10
0000
0001
0100
0001
,  // measure 11
0000
1000
0100
1000
,  // measure 12
0000
0010
0100
0001
,  // measure 13
1000
0010
0001
0100
,  // measure 14
1000
0001
1000
0001
,  // measure 15
0000
0010
0100
0010
,  // measure 16
0001
1000
0001
0100
,  // measure 17
1000
0010
0001
1000
,  // measure 18
0001
0100
0000
0010
,  // measure 19
0000
1000
0000
0001
,  // measure 20
0010
0010
0100
0100
,  // measure 21
1000
0000
0001
0000
1000
0100
0010
0001
,  // measure 22
1000
0000
0001
0000
,  // measure 23
0110
1001
0110
1001
,  // measure 24
1000
1100
0001
0101
,  // measure 25
1001
0000
0000
0000
,  // measure 26
0002
0000
0003
0000
,  // measure 27
0002
0000
0003
0000
,  // measure 28
2000
0000
3000
0000
,  // measure 29
2000
0000
3000
0000
,  // measure 30
0020
0000
1030
0000
,  // measure 31
0020
0000
0031
0000
,  // measure 32
0200
0000
1300
0000
,  // measure 33
0200
0000
0301
0000
,  // measure 34
2000
0100
0001
0000
,  // measure 35
3001
0000
0000
0000
,  // measure 36
0002
0100
1000
0000
,  // measure 37
1003
0000
0000
0000
,  // measure 38
2000
0010
0001
0000
,  // measure 39
3001
0000
0000
0000
,  // measure 40
0002
0000
0010
0000
,  // measure 41
1003
0000
0000
0000
,  // measure 42
0001
0100
0010
1000
,  // measure 43
0001
0100
1000
0100
,  // measure 44
0001
0100
0010
1000
,  // measure 45
0001
0100
1000
0100
,  // measure 46
0001
0001
0010
0100
,  // measure 47
1000
1000
0010
0100
,  // measure 48
0001
0011
1000
1010
,  // measure 49
1001
0110
1001
0000
,  // measure 50
1000
0000
0001
0000
0100
0100
0100
0000
,  // measure 51
0010
0000
1000
0000
0001
0001
0001
0000
,  // measure 52
0010
0000
0100
0000
1000
1000
1000
0000
,  // measure 53
0100
0000
0001
0000
0010
0010
0010
0000
,  // measure 54
0100
0000
0001
0000
1000
0100
1000
0000
,  // measure 55
0010
0000
0100
0000
0001
0010
0001
0000
,  // measure 56
1000
0000
0001
0000
0100
0010
1000
0000
,  // measure 57
0100
0010
0002
0003
,  // measure 58
1000
0100
0020
0000
0000
0030
0000
1001
,  // measure 59
0000
0000
0000
0000
,  // measure 60
0001
0100
0010
2000
0000
3000
0000
1001
,  // measure 61
0000
0000
0000
0000
,  // measure 62
1000
0010
0200
0000
0000
0300
0000
1001
,  // measure 63
0000
0000
0000
0001
,  // measure 64
0020
0000
0000
0000
0030
0000
0000
1001
,  // measure 65
0000
0000
0000
0000
,  // measure 66
0001
0010
0200
0000
0010
0300
0000
1001
,  // measure 67
0000
0010
1000
0001
,  // measure 68
1000
0010
0100
0002
0000
0003
0000
1001
,  // measure 69
0000
0010
0100
1000
,  // measure 70
0001
0100
0020
0000
0100
0030
0000
1001
,  // measure 71
0000
1000
0010
1000
,  // measure 72
0200
0000
0000
0000
0310
0000
0000
1001
,  // measure 73
0010
0100
0010
0000
0100
0010
0100
0000
,  // measure 74
1001
0000
0000
0000
;

//---------------dance-single - ----------------
#NOTES:
     dance-single:
     :
     Beginner:
     1:
     0.111,0.170,0.054,0.140,0.000:
0000
0000
0000
0000
,
0000
0000
0000
0000
,
0000
0000
0000
0000
,
0000
0000
0000
0000
,
0000
0000
0000
0000
,
1000
0000
0000
0000
,
0001
0000
0000
0000
,
1000
0000
0000
0000
,
1001
0000
0000
0000
,
0010
0000
0000
0000
,
0010
0000
0000
0000
,
0100
0000
0000
0000
,
0100
0000
0000
0000
,
0001
0000
0000
0000
,
0001
0000
0000
0000
,
1000
0000
0000
0000
,
2002
0000
3003
0000
,
0010
0010
0000
0000
,
0000
0000
0000
0000
,
0100
0100
0000
0000
,
2002
0000
0000
0000
,
3003
0000
0000
0000
,
0000
0000
0000
0000
,
0010
0010
0010
0010
,
0020
0000
0000
0000
,
0030
0000
0000
0000
,
0000
0000
0000
0000
,
0100
0000
0000
0000
,
0000
0000
0000
0000
,
0001
0000
0000
0000
,
0000
0000
0000
0000
,
1000
0000
0000
0000
,
0000
0000
0000
0000
,
0002
0000
0000
0000
,
0003
0000
0000
0000
,
2000
0000
0000
0000
,
3000
0000
0000
0000
,
0200
0000
0000
0000
,
0300
0000
0000
0000
,
0020
0000
0000
0000
,
0030
0000
0000
0000
,
1000
0000
0000
0000
,
0001
0000
0000
0000
,
1000
1000
0000
0000
,
0001
0001
0000
0000
,
0010
0000
0000
0000
,
0100
0000
0000
0000
,
0010
0010
0000
0100
,
0100
0000
0000
0000
,
0001
0000
0000
0000
,
1000
0000
0000
0000
,
0100
0100
0000
0000
,
0010
0000
0000
0000
,
0100
0000
0000
0000
,
1000
0000
0000
0000
,
0001
0001
0000
0000
,
0020
0000
0030
0000
,
0200
0300
0000
0000
,
0020
0030
0000
0000
,
0002
0003
0000
0000
,
2000
3000
0000
0000
,
0020
0030
0000
0000
,
0200
0300
0000
0000
,
0002
0003
0000
0000
,
2000
3000
0000
0000
,
0100
0100
0100
0000
,
0010
0000
0000
0000
,
0010
0010
0010
0000
,
0100
0000
0000
0000
,
0001
0001
0000
0000
,
1001
0000
0000
1000
,
1000
0000
0000
0000
,
1001
0000
0000
0110
,
0110
0000
0000
0000
;

//---------------dance-single - ----------------
#NOTES:
     dance-single:
     :
     Easy:
     4:
     0.241,0.340,0.109,0.202,0.000:
0000
0000
0000
0000
,
0000
0000
0000
0000
,
0000
0000
0000
0000
,
0000
0000
0000
0000
,
0000
0000
0000
0000
,
1000
0100
1000
0000
,
0001
0100
0001
0000
,
1000
0010
0001
0010
,
2002
0000
0000
3003
,
0010
1000
0100
0000
,
0010
0001
0100
0000
,
0001
1000
0100
1000
,
0001
0100
0010
0100
,
0001
0010
0100
0000
,
1000
0010
0100
0000
,
1100
0000
0101
0000
,
2002
0000
3003
0000
,
0010
0100
0010
0100
,
0001
1000
0001
1000
,
0100
0010
0100
0010
,
0001
0001
1000
1000
,
0002
0000
0100
0000
,
2003
0000
0100
0000
,
3002
0023
0230
2300
,
0002
0000
3000
0003
,
1000
0000
0000
0000
,
0000
0000
0000
0000
,
0001
0000
0000
0000
,
0100
0000
0000
0000
,
0010
0000
0000
0000
,
0000
0000
0000
0000
,
1000
0000
0000
0000
,
0001
0000
0000
0000
,
1000
0100
1000
0000
,
0001
0000
0000
0000
,
0001
0100
0001
0000
,
1000
0000
0000
0000
,
1000
0010
1000
0000
,
0001
0000
0000
0001
,
0010
0000
0000
0000
,
1000
0000
0000
0000
,
1000
0000
0100
0000
,
0001
0100
1000
0100
,
0001
0000
0100
0000
,
1000
0100
0001
0100
,
1000
0000
0100
0000
,
0001
0100
1000
0100
,
0001
0010
1000
0010
,
0002
0010
2000
3003
,
0101
0101
0010
1000
,
0001
1000
0001
0010
,
1100
1100
0010
0001
,
1000
0010
0100
0001
,
1010
1010
1000
0001
,
1000
0100
0010
0001
,
0011
0011
1000
0001
,
2000
3002
2003
3000
,
0002
0000
0100
0000
,
1003
0000
0000
0000
,
2000
0000
0100
0000
,
3001
0000
0000
0000
,
0002
0000
0010
0000
,
1003
0000
0000
2000
,
0010
0000
0000
0000
,
3001
0000
0000
0000
,
0002
1000
1000
1000
,
2003
0001
0001
0001
,
3020
0100
0100
0100
,
0230
0010
0010
0010
,
0302
0010
0000
1000
,
0000
0100
1000
2003
,
0100
0000
0001
0000
,
3010
0100
0110
0001
,
1001
0000
0000
0000
;

//---------------dance-double - ----------------
#NOTES:
     dance-double:
     :
     Challenge:
     9:
     0.516,0.624,0.109,0.256,0.303:
00000000
00000000
00000000
00000000
,
00001001
00000000
00000000
00011000
00000000
00000000
10010000
00000000
,
00001000
00000000
00000000
00000010
00000100
00000010
00000000
00000000
,
00011000
00000000
00000000
10000000
00010000
00000000
01100000
00000000
,
00001000
00000000
00000000
00000100
00000010
00000100
00000000
00000000
,
00000000
00010000
00000000
00001000
00000000
01000000
00000000
00001000
,
00000000
00010000
00000000
00000100
00000000
00010000
00000000
00001000
,
00000000
00001000
00100000
00000000
00000000
00100000
01000000
00000000
00000000
01000000
10000000
00000000
00000000
10000000
00100000
00000000
,
01000000
00000000
00001000
00000000
00010000
00000000
00000100
00000010
00000100
00000000
00001000
00000001
00001000
00000000
00000000
00000000
,
00000010
00001000
00000001
00000020
00000000
00000100
00000000
00001030
,
00000000
00000001
00000100
00002000
00000000
00010000
00000000
00103000
,
00000000
01000000
00010000
01000000
00000000
00100000
00010000
00100000
,
00000000
00001000
01000000
00001000
00000000
00110000
00000000
10100000
,
00000000
10000000
01000000
20000000
00000000
00100000
00000000
30010000
,
00000000
00100000
00001000
00200000
00000000
01000000
00000000
10300000
,
00000000
10000000
01000000
00000000
00000000
01000000
00010000
00000000
00000000
00010000
00001000
00000000
00000000
00001000
00000010
00000000
,
00000001
00000000
00001000
00000000
00001001
00000000
00000000
00000100
00000000
00000000
00010010
00000000
00001000
00000000
00000100
00000000
,
00000010
00000001
00001000
00000001
00000000
00000100
00000000
00001100
,
00000000
00010000
00001000
00010000
00000000
01010000
00000000
10100000
,
00000000
20000000
00000000
01000000
00000000
00100000
00000000
30010000
,
00000000
00002000
00000000
00000100
00000000
00000010
00000000
00003001
,
00000100
00000000
00010000
00000000
00000000
00000000
00000000
00001000
00000000
00000000
01100000
00000000
00000000
00000000
10010000
00000000
,
00000000
00000000
00100000
00000000
00010000
00000000
00000000
00001000
00000000
00000000
00010000
00000000
01000000
00000000
10000000
00000000
,
00100000
00000000
00100000
00000000
00010000
00001000
00010000
00001000
,
00000200
00000000
00000310
00000001
00000200
00000000
00001000
00000000
,
00010300
00000000
00000000
00000000
,
00000000
00000000
00000000
00000000
,
00000000
00000000
00000000
00000000
,
00000000
00000000
00000000
00000000
,
00002000
00000000
00000000
00000000
,
00003000
00000000
00000000
00000000
,
00020000
00000000
00000000
00000000
,
00030000
00000000
00000000
00000000
,
00000001
00000100
00001000
00000000
00010000
00100000
00000000
00200000
,
10000000
00000000
01000000
00010000
00000000
00010000
01300000
00000000
,
10000000
00100000
00001000
00000100
00000010
00001000
00000000
00000020
,
00000001
00000000
00000100
00001000
00000000
00001000
00000130
00000000
,
00000001
00000010
00001000
00000000
00010000
01000000
00000000
02000000
,
10000000
00000000
00100000
00010000
00000000
03001000
00000200
00000000
,
00000001
00000000
00000001
00000000
00000010
00001000
00000000
00020300
,
00001000
01000000
10000000
00130000
,
00001000
00000100
00000000
00000000
00000010
00000000
00000000
00000000
00000001
00000000
00000000
00000000
00001000
00000000
00000000
00000000
,
00000010
00000000
00000100
00000000
00001000
00010000
00001000
00010000
,
00100000
10000000
00000000
00000000
01000000
00000000
00000000
00100000
00000000
00000000
00001000
00000000
00000000
00000010
00000000
00000000
,
00000100
00001000
00000000
00000000
00000001
00000000
00000100
00000000
00000000
00000010
00000000
00000000
00001000
00000000
00001000
00000100
,
00010000
00001000
00000000
00000000
01000000
00000000
00100000
10000000
00000000
10000000
01000000
00000000
10000000
00000000
00100000
00010000
,
00000000
00000000
00100000
00000000
01000000
00000000
00001000
00010000
00000000
00000000
00010000
00000000
00000100
00000000
00000010
00000001
,
00000100
00000010
00000000
00010000
00001000
00000000
00010000
00000100
00000000
00001000
00000100
00000000
00000010
00000000
00000001
00000100
,
00000002
00000100
00002003
00010000
00003200
00000000
00000300
00000000
,
00000001
00000010
00000000
00000001
00000100
00000000
00000001
00001000
00000000
00001000
00000100
00000000
00010000
00000100
00010000
00000000
,
00001000
01000000
00000000
01000000
00010000
00000000
10000000
01000000
00000000
10000000
00100000
00000000
01000000
00000000
00010000
00000000
,
10000000
01000000
00000000
10000000
00100000
00000000
10000000
00010000
00000000
00010000
00100000
00000000
00001000
00100000
00001000
00000000
,
00010000
00000010
00000000
00000010
00001000
00000000
00000001
00000010
00000000
00000000
00000100
00000000
00000010
00000000
00000001
00001000
,
00000001
00000100
00000000
00000010
00001000
00000000
00000100
00010000
00000000
01000000
00001000
00000000
00100000
00000000
01000000
00000000
,
10000000
00100000
00000000
01000000
00010000
00000000
00100000
00001000
00000000
00000100
00010000
00000000
00000010
00000000
00000100
00000000
,
00000001
00000010
00000000
00000010
00001000
00000000
00001000
00010000
00000000
00010000
01000000
00000000
01000000
00000000
10000000
00000000
,
02000000
00100000
00010000
00001000
00002000
00000000
03003000
00000000
,
00100000
00001000
00000200
00000000
00000010
00000000
00001300
00000100
,
00010000
00000000
00001000
00010000
00000000
00000100
00010000
00000000
00000010
00000000
00010000
00000100
00000000
00010000
00001000
00000000
,
00010000
00001000
00010000
02000000
00100000
00000000
13000000
00000000
,
00001000
00000000
00010000
00001000
00000000
00100000
00001000
00000000
01000000
00000000
00001000
00100000
00000000
00001000
00010000
00000000
,
00001000
00000100
00020000
00000000
00100000
00000000
00031000
00000200
,
00000010
00001000
00000001
00000310
,
00020000
00100000
00001000
00100000
,
00030200
00000000
00000000
00000000
00001000
00000000
00000000
00000000
00000310
00000000
00001000
00010000
00001000
00000000
00000000
00000000
,
00010000
00001000
00200000
00000000
01000000
00000000
00310000
00100000
,
00001000
00000000
00010000
00001000
00000000
00100000
00001000
00000000
01000000
00000000
00100000
00001000
00000000
00010000
00001000
00000000
,
00010000
00001000
00000100
00000020
00000100
00000000
00000031
00000000
,
00010000
00000000
00001000
00010000
00000000
00000100
00010000
00000000
00000010
00000000
00000100
00010000
00000000
00001000
00010000
00000000
,
00001000
00100000
00002000
00000000
00000100
00000000
00013000
00200000
,
01000000
00000000
00010000
00000000
10000000
00000000
01300000
00010000
,
00002000
00000100
00010000
00000100
,
00203000
00010000
01000000
10300000
02000000
10000000
00100000
03010000
,
00001000
00000000
00000000
00000000
;
