#TITLE:ノーナイデンパ;
#SUBTITLE:;
#ARTIST:YM feat. tane;
#TITLETRANSLIT:No Nai Denpa;
#SUBTITLETRANSLIT:;
#ARTISTTRANSLIT:;
#GENRE:;
#CREDIT:Frozen_Heat/Azn_Punk_07/GuardianFrozen;
#MENUCOLOR:#149c2b;
#METERTYPE:DDR;
#BANNER:No Nai Denpa.png;
#BACKGROUND:No Nai Denpa-bg.png;
#LYRICSPATH:No Nai Denpa.lrc;
#CDTITLE:cdtitle.png;
#MUSIC:No Nai Denpa.mp3;
#OFFSET:0.002;
#SAMPLESTART:72.220;
#SAMPLELENGTH:15.000;
#SELECTABLE:YES;
#LISTSORT:;
#BPMS:0.000=200.020,31.000=100.010,32.000=200.020;
#STOPS:;
#BGCHANGES:0.000=No Nai Denpa.avi=4.500=1=0=1,
2.063=No Nai Denpa.avi=1.000=0=0=1,
16.000=No Nai Denpa.avi=1.000=0=0=1,
232.500=No Nai Denpa.avi=1.000=0=0=1,
238.000=No Nai Denpa.avi=2.000=0=0=1,
239.500=No Nai Denpa.avi=1.000=0=0=1,
433.000=No Nai Denpa-bg.png=1.000=1=0=1,
99999=-nosongbg-=1.000=0=0=0 // don't automatically add -songbackground-
;
#ATTACKS:;

//---------------dance-single - ----------------
#NOTES:
     dance-single:
     :
     Hard:
     9:
     0.716,0.857,0.635,0.083,0.095: // measure 1
0000
0000
0000
0000
,  // measure 2
0000
0000
0000
0000
,  // measure 3
0000
0000
0000
0000
,  // measure 4
0000
0000
0000
0000
0000
0000
0000
0001
,  // measure 5
0010
0100
1000
0000
1000
0100
0000
1000
,  // measure 6
0010
0100
0001
0000
0001
0010
0000
0001
,  // measure 7
0100
0010
1000
0000
1000
0010
0000
1000
,  // measure 8
0100
0010
0001
0000
0001
0010
0000
1001
,  // measure 9
0020
0000
1030
0100
0000
1000
0100
0000
,  // measure 10
0020
0000
0031
0100
0000
0001
0100
0000
,  // measure 11
0002
0000
0013
0100
0000
0010
0100
0000
,  // measure 12
2000
0000
3010
0100
0000
0010
0100
0000
,  // measure 13
0001
0000
0010
0001
0000
1000
0100
0000
,  // measure 14
1000
0000
0010
1000
0000
0001
0100
0000
,  // measure 15
0010
0000
1000
0100
0000
1000
0001
0100
,  // measure 16
0001
0000
0010
0001
0000
0010
0100
1000
,  // measure 17
0020
0000
1000
1000
0000
0100
0130
0000
,  // measure 18
2000
0000
0001
0001
0000
0100
3100
0000
,  // measure 19
0002
0000
0100
0100
0000
1000
1003
0000
,  // measure 20
0020
0000
0100
0100
0000
0001
0031
0000
,  // measure 21
1000
0000
0001
0100
0001
0010
0100
1000
,  // measure 22
0100
0000
0010
0001
0010
0000
1100
0000
,  // measure 23
1000
0000
0010
1000
0010
1000
0000
0001
,  // measure 24
0100
0101
1000
1100
,  // measure 25
0010
0000
0001
1000
0001
1000
0001
0000
,  // measure 26
0010
0100
0000
0100
0010
0100
1000
0001
,  // measure 27
0000
0000
0001
0010
0001
0010
0000
1000
,  // measure 28
0000
1000
0010
0100
0001
0000
1010
0000
,  // measure 29
0101
0000
1000
0100
1000
0010
0100
0000
,  // measure 30
0001
0000
1000
0100
0001
0100
0000
0000
,  // measure 31
0010
0000
0001
1000
0001
1000
0000
0001
,  // measure 32
0100
1000
0100
0010
1000
0100
0001
0100
,  // measure 33
0010
0000
0001
0100
0000
0001
0010
0100
,  // measure 34
1000
0000
1000
0010
0000
1000
0100
1000
,  // measure 35
0010
0000
0010
0100
0000
0010
0100
0001
,  // measure 36
1000
0000
1000
0001
0000
0001
0010
1000
,  // measure 37
0010
0000
0000
0010
0000
0000
0100
0000
0000
0000
0100
0000
1000
0000
0010
0000
,  // measure 38
0100
0000
0000
0100
0000
0000
1000
0000
0000
0000
1000
0000
0100
0000
0001
0000
,  // measure 39
0010
0000
0000
0100
0000
0000
1000
0000
0000
0000
0010
0000
0001
0000
0010
0000
,  // measure 40
0100
0000
0000
0001
0000
0000
1000
0000
0000
0000
0001
0000
0010
0000
0001
0000
,  // measure 41
1000
0000
0000
1000
0000
0000
0100
0000
0000
0000
0010
0000
0001
0000
0100
0000
,  // measure 42
1000
0000
0000
0100
0000
0000
0010
0000
0000
0000
1000
0000
0001
0000
0010
0000
,  // measure 43
0001
0000
0000
0001
0000
0000
0100
0000
0000
0000
0010
0000
1000
0000
0100
0000
,  // measure 44
0001
0000
0000
0100
0000
0000
0010
0000
0000
0000
0001
0000
1000
0000
0001
0000
,  // measure 45
0100
0010
1000
0001
,  // measure 46
0010
0000
0000
0001
0000
0000
1000
0000
0001
0000
0000
0000
0110
0000
0000
0000
,  // measure 47
1000
0010
0100
0001
,  // measure 48
1000
0000
0000
0001
0000
0000
1000
0000
0100
0000
0000
0000
1001
0000
0000
0000
,  // measure 49
0001
0000
0000
0000
0010
0000
0000
0000
1000
0000
0000
0100
0000
0000
1000
0000
,  // measure 50
0001
0000
0000
0100
0000
0000
0001
0000
1000
0000
0001
0000
0000
0000
0000
0000
,  // measure 51
0001
0001
1000
1000
,  // measure 52
0001
0000
0000
0010
0000
0000
0100
0000
1000
0000
0000
0000
0110
0000
0000
0000
,  // measure 53
0001
0101
1000
1100
,  // measure 54
0110
0000
0000
0001
0000
0000
1000
0000
0001
0000
0000
0000
0101
0000
0000
0000
,  // measure 55
1000
1010
0001
0011
,  // measure 56
1001
0000
0000
0100
0000
0000
0010
0000
0100
0000
0000
0000
0110
0000
0000
0000
,  // measure 57
1000
0000
0000
0000
1010
0000
0000
0000
0001
0000
0000
0100
0000
0000
0001
0000
,  // measure 58
1000
0000
0000
0100
0000
0000
0001
0000
0100
0000
0010
0000
0000
0000
0000
0000
,  // measure 59
1100
0010
0101
0010
,  // measure 60
1001
0010
0110
0000
,  // measure 61
0001
0010
0100
0000
0100
0010
0001
0000
,  // measure 62
0011
0101
1001
1010
,  // measure 63
1100
0100
1000
0000
0101
0100
0001
0000
,  // measure 64
1001
0110
1001
0010
,  // measure 65
1000
0010
0001
0000
0001
0010
0100
0000
,  // measure 66
0001
1100
0101
0010
,  // measure 67
1000
0010
1000
0000
0001
0010
0001
0000
,  // measure 68
0200
1000
0001
0300
,  // measure 69
0010
0000
1000
0100
0010
0001
0100
0000
,  // measure 70
0001
0010
0001
0000
0100
0001
0100
0000
,  // measure 71
1000
0000
0100
0010
1000
0100
0001
0100
,  // measure 72
0010
0000
1000
0100
1000
0000
0001
0100
,  // measure 73
0001
0000
0010
0100
1000
0000
0010
0000
,  // measure 74
0011
0000
1000
0010
1000
0000
0001
0000
,  // measure 75
1100
1100
0011
1100
,  // measure 76
0001
0100
1010
0000
0101
0000
1000
0000
,  // measure 77
0010
1000
0100
0000
0100
1000
0010
0000
,  // measure 78
0100
0001
0100
0000
0010
0001
0010
0000
,  // measure 79
1010
0101
1100
0011
,  // measure 80
0001
1000
0110
0000
1001
0000
0010
0000
,  // measure 81
0001
0100
1000
0000
1000
0100
0010
0000
,  // measure 82
1000
0010
1010
0000
0001
0100
0101
0000
,  // measure 83
0010
0001
0010
0000
0100
1000
0100
0000
,  // measure 84
0010
0001
1001
0000
0110
0000
1000
0000
,  // measure 85
0001
0000
0010
0100
1000
0010
0100
0000
,  // measure 86
1000
0010
1000
0100
0001
1000
0010
0000
,  // measure 87
0100
0000
0100
0001
0010
0100
1000
0000
,  // measure 88
0010
0001
1000
0010
0001
1000
0100
0010
,  // measure 89
1000
0000
0001
1000
0100
0000
0011
0000
,  // measure 90
1010
0000
1000
0001
0100
0000
1100
0000
,  // measure 91
0011
0010
1001
0110
,  // measure 92
0001
0100
0010
0001
1000
0100
0010
0000
,  // measure 93
0001
0011
0001
0101
,  // measure 94
1000
0000
0000
0010
0000
0000
0001
0000
0110
0000
0000
0000
0101
0000
0000
0000
,  // measure 95
1000
1100
1000
1010
,  // measure 96
0001
0000
0000
0010
0000
0000
1000
0000
0110
0000
0000
0000
1100
0000
0000
0000
,  // measure 97
0001
0000
0000
0000
1001
0000
0000
0000
0010
0000
0000
0100
0000
0000
1000
0000
,  // measure 98
0001
0000
0000
0100
0000
0000
0010
0000
1000
0000
0001
0000
0000
0000
0000
0000
,  // measure 99
1010
0100
0011
0100
,  // measure 100
1001
0000
0000
0010
0000
0000
0100
0000
1001
0000
0000
0000
0010
0000
0000
0000
,  // measure 101
1100
0001
1000
0000
1010
0100
0010
0000
,  // measure 102
0101
0000
0000
0010
0000
0000
0100
0000
1001
0000
0010
0000
0100
0000
0000
0000
,  // measure 103
0011
0100
0010
0000
1001
0100
0010
0000
,  // measure 104
1010
0000
0000
0100
0000
0000
0010
0000
1001
0000
0100
0000
0010
0000
0000
0000
,  // measure 105
1001
0100
0001
0010
1001
0100
1000
0001
,  // measure 106
0100
0000
0000
1001
0000
0000
0010
0000
1100
0000
0001
0000
0010
0000
0001
0000
,  // measure 107
2000
0100
3001
0100
0002
0100
1003
0100
,  // measure 108
1010
0100
0011
0100
0010
0010
0100
1001
;

//---------------dance-single - ----------------
#NOTES:
     dance-single:
     :
     Medium:
     7:
     0.574,0.612,0.227,0.431,0.008:
0000
0000
0000
0000
,
0000
0000
0000
0000
,
0000
0000
0000
0000
,
0000
0000
0000
0000
,
0001
0100
0002
0000
0010
0000
1000
0000
,
0010
0000
1000
0000
0013
0100
2000
0000
,
0001
3020
0001
1000
,
0130
0001
0200
0000
0000
0000
0000
0320
,
2030
0000
3100
0010
0000
0010
0100
0000
,
2000
0000
3010
0100
0000
0100
0010
0000
,
2000
0000
3100
0001
0000
0001
0100
0000
,
2000
0000
3010
0001
0200
0001
0310
0000
,
2000
0000
3100
0010
0000
0000
0001
0000
,
1000
0000
0010
0100
0000
0000
0001
0000
,
1000
0000
0100
0001
0000
0000
0100
0000
,
1000
0000
0001
0100
0000
0000
1000
0000
,
0200
0000
0000
0010
0000
0000
0310
0000
,
0002
0000
0000
1000
0000
0000
1003
0000
,
0020
0000
0000
0100
0000
0000
0130
0000
,
2000
0000
0000
0001
0000
0000
3001
0000
,
1000
0100
0100
1000
,
0001
0100
1000
0100
,
0001
0000
0010
0100
0010
0000
0010
0001
,
0010
0100
1000
1000
,
0001
0011
0001
1000
,
1000
0000
0001
0100
0001
0100
0001
0000
,
1000
0010
0100
0001
,
1000
0100
1000
0100
0010
0000
0100
0001
,
0200
1000
0010
1000
,
0010
0000
1000
0000
0310
0001
0200
0000
,
1000
0010
1000
0010
,
1000
0000
0310
1000
0100
0000
0100
1000
,
0001
0000
0000
0010
0000
0000
0100
0000
,
1000
0000
0000
0010
0000
0000
0100
0000
,
0001
0000
0000
0010
0000
0000
1000
0000
,
0001
0000
0000
0100
0000
0000
1000
0000
,
0001
0000
0000
0100
0000
0000
1000
0000
,
0001
0000
0000
0010
0000
0000
1000
0000
,
0100
0000
0100
0010
0000
0000
0001
0000
,
1000
0000
1000
0001
0000
0000
0100
0000
,
0010
0000
0010
1000
0000
0000
0100
0000
,
0010
0000
0001
1000
0000
0001
1000
0000
,
0100
0000
0000
0100
0000
0000
0100
0000
0000
0000
1000
0000
0001
0000
0000
0000
,
0010
0000
0000
0010
0000
0000
0010
0000
0000
0000
0001
0000
1000
0000
0000
0000
,
0002
0000
0200
0303
,
1000
0100
0001
0000
0110
0000
0000
0000
,
2000
0000
0020
3030
,
0001
0010
1000
0000
0110
0000
0000
0000
,
2000
0000
0002
3003
,
0100
0010
0100
0010
1000
0001
0000
0000
,
0020
0000
0200
0330
,
1000
0100
0001
0100
1000
0000
0010
0000
,
0001
0011
0001
0101
,
1000
1100
1000
1010
,
0001
0101
0001
0011
,
1000
1010
1000
1100
,
0010
0110
1000
1001
,
0100
0110
0001
1001
,
2000
3000
0200
0300
,
0020
0030
0002
0003
,
1000
0010
0001
0010
,
1000
2100
0001
3100
,
0010
0000
0001
0000
1000
0001
1000
0000
,
0010
1000
0010
0000
0100
0000
0000
0000
,
0001
0000
1001
0000
0010
0100
0010
0000
,
0001
1000
0102
0010
,
0103
0100
0010
0010
,
1000
0001
1000
0000
1001
0000
0000
0000
,
0002
0000
0103
1000
0100
0000
0100
0000
,
0002
0013
0002
0103
,
0002
0000
0013
1000
0010
0000
0010
0000
,
0002
1003
0002
0103
,
0002
0000
0013
0100
0010
0000
0100
0000
,
1000
0000
0001
1000
0001
0000
0100
0000
,
0010
1000
0001
0000
0010
0001
1000
0000
,
0100
0100
0110
0000
,
1100
0001
1100
0001
,
1000
0010
0001
0010
,
0100
0001
0100
0000
0100
1000
0100
0000
,
0010
0010
0011
0100
,
0001
0010
0001
0000
0010
1000
0010
0000
,
0100
1000
0001
0100
,
0010
1000
0100
0000
0010
0001
0100
0000
,
0001
0010
0100
1000
0001
0000
2000
0000
,
3002
0000
0013
1000
0010
0000
0100
0000
,
2000
3010
0002
0103
,
0020
0000
0130
1000
0100
0000
1000
0000
,
0002
0013
2000
3100
,
0020
0000
1030
0001
1000
0000
0001
0000
,
0010
0000
0100
0010
0100
0000
1000
0000
,
0001
0001
1000
1000
,
0100
0110
0010
0110
,
0002
0100
1003
0000
,
1000
0100
0011
0000
,
2000
0100
3001
0000
,
0001
0100
1010
0000
,
0020
0130
0200
0310
,
1000
0000
0001
0000
0010
0010
0000
0000
,
0100
0100
0010
0010
,
1001
0110
1001
0000
,
1000
0010
2000
0000
0100
0000
0010
0000
,
3001
0010
0002
0000
1000
0000
0010
0000
,
0103
0010
0200
0000
1000
0000
0001
0000
,
0310
1000
0020
0000
0001
0000
0100
0000
,
2030
0100
3002
0010
,
1003
0100
0010
0001
0200
0000
1000
0000
,
0310
1000
0010
0000
0100
0001
0100
0000
,
0001
0010
1000
0010
0001
0100
1000
0100
;

//---------------dance-single - ----------------
#NOTES:
     dance-single:
     :
     Easy:
     4:
     0.348,0.448,0.136,0.333,0.000:
0000
0000
0000
0000
,
0000
0000
0000
0000
,
0000
0000
0000
0000
,
0000
0000
0000
0000
,
0000
0020
0000
0000
,
0000
0030
0000
1001
,
0000
0200
0000
0000
,
0000
0000
0320
0000
0000
0000
0000
0030
,
2000
0000
0000
0000
,
3200
0000
0000
0000
,
0320
0000
0000
0000
,
0032
0000
0203
0000
,
0320
0000
0000
0000
,
0000
0000
0000
0000
,
0000
0000
0000
0000
,
0030
0000
0000
0000
,
1000
1000
0000
0000
,
0001
0001
0000
0000
,
0010
0010
0000
0000
,
0100
0100
0000
0000
,
0000
0010
0001
0000
,
0001
0100
0001
0000
,
0000
1000
0010
0000
,
1000
0100
1000
0000
,
0000
0010
0100
0000
,
0001
1000
0100
0010
,
0000
0100
1000
0000
,
0001
1000
1001
0000
,
0010
0000
1000
0000
,
0100
0010
0100
0010
,
0000
0001
0100
0000
,
0010
1000
0001
0010
,
0200
0000
1300
0000
,
0020
0000
0031
0000
,
2000
0000
3010
0000
,
0002
0000
0103
0000
,
0020
0000
0130
0000
,
2000
0000
3001
0000
,
0200
0000
0310
0000
,
0002
0000
1003
0000
,
0020
0000
1030
0000
,
0200
0000
0301
0000
,
2000
0000
3100
0000
,
0002
0000
0013
0000
,
1000
0000
0001
0000
,
1000
0100
1001
0000
,
0001
0000
1000
0000
,
0001
0100
1001
0000
,
1000
0000
0001
0000
,
1000
0100
0001
0100
,
1000
0000
0001
0000
,
1000
0100
1001
0000
,
0001
0100
0000
0100
,
0010
0100
0000
0100
,
1000
0100
0000
0100
,
0010
0100
0000
0100
,
0001
0100
0000
0100
,
1000
0100
0000
0100
,
0002
0003
0020
0030
,
0200
0300
2000
3000
,
0002
0000
0010
0000
,
0103
1000
0100
0010
,
2000
0000
0100
0000
,
3001
0010
0100
0000
,
0020
0000
0001
0000
,
0130
1000
0010
1000
,
0200
0000
1000
0000
,
0310
0001
1000
0000
,
0020
0100
0130
0000
,
2000
0100
3002
0100
,
2003
0010
3001
0000
,
0002
0010
2003
0010
,
3002
0010
1003
0000
,
2000
0100
3100
0000
,
0002
0100
0103
0000
,
0020
0100
0130
0000
,
1010
0000
0101
0000
,
1000
0100
0010
0000
,
0001
0100
0001
0100
,
0010
0010
0010
0000
,
1000
0001
1000
0000
,
0100
0010
0001
0000
,
0100
0100
0010
0010
,
0110
0000
1001
0000
,
0020
0000
0130
0000
,
1000
0001
0100
0001
,
2000
0000
3100
0000
,
0010
0001
0010
0100
,
0020
0000
0130
0000
,
0001
0100
0010
1000
,
0002
0000
0103
0000
,
1000
0100
0010
0001
,
1000
0000
1010
0000
,
1000
0100
1001
0000
,
0001
0000
0011
0000
,
0001
0100
1001
0000
,
2000
0000
0100
0000
,
3001
0010
0100
1000
,
0001
0000
0101
0000
,
0001
0010
1001
0000
,
0001
0001
0010
0000
,
0100
0100
1000
0000
,
0010
0010
0100
0000
,
0001
0001
1000
0100
,
0010
0010
0100
0000
,
1000
1000
0010
0000
,
1001
0000
0110
0000
,
0001
0010
0100
1001
;

//---------------dance-single - ----------------
#NOTES:
     dance-single:
     :
     Beginner:
     2:
     0.160,0.367,0.053,0.333,0.000:
0000
0000
0000
0000
,
0000
0000
0000
0000
,
0000
0000
0000
0000
,
0000
0000
0000
0000
,
0000
0000
0000
0000
,
0000
0000
0000
0000
,
0000
0000
0000
0000
,
0000
0000
0000
0000
,
0000
0000
0000
0000
,
1000
0000
0000
0000
,
0001
0000
0000
0000
,
0010
0000
0000
0000
,
0100
0000
0000
0000
,
0000
0000
0000
0000
,
0000
0000
0000
0000
,
0000
0000
0000
0000
,
1001
0000
0000
0000
,
0000
0000
0000
0000
,
0000
0000
0000
0000
,
0000
0000
0000
0000
,
0010
0000
0000
0000
,
0010
0000
0000
0000
,
0100
0000
0000
0000
,
0100
0000
0000
0000
,
0001
0000
0000
0000
,
0001
0000
0000
0000
,
1000
0000
0000
0000
,
1000
0000
0000
0000
,
0000
0100
0000
0000
,
0010
0000
0000
0000
,
0000
0001
0000
0000
,
1000
0000
0000
0000
,
0020
0000
0000
0000
,
0030
0000
0000
0000
,
0200
0000
0000
0000
,
0300
0000
0000
0000
,
0001
0000
0000
0000
,
1000
0000
0000
0000
,
0001
0000
0000
0000
,
1000
0000
0000
0000
,
0100
0000
0000
0000
,
0010
0000
0000
0000
,
0100
0000
0000
0000
,
0010
0000
0000
0000
,
0002
0000
0003
0000
,
0002
0000
0003
0000
,
0002
0000
0003
0000
,
0002
0000
0003
0000
,
0002
0000
0003
0000
,
0002
0000
0003
0000
,
0002
0000
0003
0000
,
0002
0000
0003
0000
,
2000
0000
3000
0000
,
2000
0000
3000
0000
,
2000
0000
3000
0000
,
2000
0000
3000
0000
,
2000
0000
3000
0000
,
2000
0000
3000
0000
,
0100
0000
0100
0000
,
0100
0000
0100
0000
,
0200
0000
0000
0000
,
0300
0000
0000
0000
,
0020
0000
0000
0000
,
0030
0000
0000
0000
,
0002
0000
0000
0000
,
0003
0000
0000
0000
,
2000
0000
0000
0000
,
3000
0000
0000
0000
,
0020
0000
0030
0000
,
0010
0000
0010
0000
,
0020
0000
0030
0000
,
0010
0000
0000
0000
,
0200
0000
0300
0000
,
0100
0000
0100
0000
,
0200
0000
0300
0000
,
0100
0000
0000
0000
,
0002
0000
0003
0000
,
2000
0000
3000
0000
,
0200
0000
0300
0000
,
0020
0000
0030
0000
,
0200
0000
0300
0000
,
2000
0000
3000
0000
,
0020
0000
0030
0000
,
0002
0000
0003
0000
,
0020
0000
0000
0000
,
0030
0000
0010
0000
,
0020
0000
0000
0000
,
0030
0000
0010
0000
,
0020
0000
0000
0030
,
0020
0000
0000
0030
,
0020
0000
0000
0030
,
0020
0000
0000
0030
,
0100
0000
0100
0000
,
0200
0000
0300
0000
,
0100
0000
0100
0000
,
0200
0000
0300
0000
,
0001
0000
0000
0000
,
1000
0000
0000
0000
,
1001
0000
1001
0000
,
2002
0000
3003
0000
,
0010
0010
0010
0000
,
0000
0000
0000
0000
,
0100
0100
0100
0000
,
0000
0000
0000
0000
,
0001
0000
0000
0000
,
1000
0000
0000
0000
,
1001
0000
1001
0000
,
2002
0000
0000
3003
;

//---------------dance-double - ----------------
#NOTES:
     dance-double:
     :
     Challenge:
     9:
     0.712,0.734,0.476,0.439,0.095:
00000000
00000000
00000000
00000000
,
00000000
00000000
00000000
00000000
,
00000000
00000000
00000000
00000000
,
00000000
00000000
00000000
00000000
,
00001000
01000000
00002000
00000000
00000010
00000000
00010000
00000000
,
00000010
00010000
00003010
00010000
,
00000100
02000000
10000000
00001000
,
10000000
00000000
03002000
00000000
00000000
00000000
00003000
00000110
,
00000001
00000000
00000010
00000100
00000000
00000010
00000100
00000000
,
00001000
00000000
00010000
00000100
00000000
00010000
00000100
00000000
,
00001000
00000000
00010000
10000000
00000000
00010000
10000000
00000000
,
00001000
00000000
00100000
01000000
00000000
00100000
00001000
00000000
,
00010000
00000000
00000010
00001000
00000000
00000010
00001000
00000000
,
00000001
00000000
00000100
00000010
00000000
00000100
00000010
00000000
,
00010000
00000000
00001000
01000000
00000000
00001000
01000000
00000000
,
00010000
00000000
00100000
10000000
00000000
00100000
01000000
00000000
,
20000000
00000000
00000000
30200000
00000000
00000000
00320000
00000000
,
02030000
00000000
00000000
03002000
00000000
00000000
00023000
00000000
,
00030200
00000000
00000000
00000320
00000000
00000000
00000032
00000000
,
00000203
00000000
00000000
00020300
00000000
00000000
00032000
00000000
,
00003010
00000000
00000010
00001000
00000010
00000100
00000001
00001000
,
00000001
00000000
00000010
00000010
00000200
00000000
00020300
00000000
,
00032000
00000000
01003000
00100000
01000000
00010000
10000000
01000000
,
10000000
00000000
00100000
00010000
00200000
00000000
02300000
00000000
,
03000000
00000000
00001000
00010000
00001000
01000000
00001000
00000000
,
00010000
00000100
00000000
00000010
00000100
00010000
00001000
01000000
,
00000000
00000000
00100000
10000000
00010000
10000000
00000000
10010000
,
00000000
10000000
01000000
00100000
00010000
00000000
01000000
00100000
,
01000000
00000000
00001000
00010000
00001000
00100000
00001000
00000000
,
00010000
00000000
00000010
00001000
00000001
00001000
00000000
00000000
,
00000100
00000000
00000010
00000001
00000010
00000001
00000100
00000000
,
00000010
00000100
00001000
00010000
00001000
00000100
00000010
00000001
,
00000020
00000000
00001030
00000200
00000000
00001300
00000020
00000000
,
00020030
00000000
00031000
02000000
00000000
03100000
00020000
00000000
,
00230000
00000000
10300000
02000000
00000000
13000000
00200000
00000000
,
00320000
00000000
00031000
00000200
00000000
00001300
00020000
00000000
,
00030100
00000000
00000000
00000100
00000000
00000000
00000100
00000000
00000000
00000000
00000010
00000000
00000001
00000000
00001000
00000000
,
00000010
00000000
00000000
00000010
00000000
00000000
00000010
00000000
00000000
00000000
00001000
00000000
00000100
00000000
00010000
00000000
,
01000000
00000000
00000000
01000000
00000000
00000000
01000000
00000000
00000000
00000000
10000000
00000000
00010000
00000000
10000000
00000000
,
00100000
00000000
00000000
00100000
00000000
00000000
00100000
00000000
00000000
00000000
00010000
00000000
00001000
00000000
00100000
00000000
,
00001000
00000000
00000000
00001000
00000000
00000000
00001000
00000000
00000000
00000000
00010000
00000000
00001000
00000000
01000000
00000000
,
00010000
00000000
00000000
00010000
00000000
00000000
00010000
00000000
00000000
00000000
01000000
00000000
00001000
00000000
00010000
00000000
,
00000100
00000000
00000000
00000010
00000000
00000000
00000001
00000000
00000000
00000000
00000100
00000000
00010000
00000000
00000100
00000000
,
00000010
00000000
00000000
00010000
00000000
00000000
00001000
00000000
00000000
00000000
01000000
00000000
00010000
00000000
00100000
00000000
,
20000000
00100000
30010000
00011000
,
00001000
00000000
00000000
00000010
00000000
00000000
00000001
00000000
00001000
00000000
00000000
00000000
00001001
00000000
00000000
00000000
,
00000002
00000010
00001003
00011000
,
00010000
00000000
00000000
00100000
00000000
00000000
10000000
00000000
00010000
00000000
00000000
00000000
10010000
00000000
00000000
00000000
,
20000000
31000000
20000000
30100000
,
01000000
00000000
00000000
00001000
00000000
00000000
01000000
00000000
00001000
00000000
00010000
00000000
00000000
00000000
00000000
00000000
,
00000002
00000103
00000002
00000013
,
00001000
00000000
00000000
00010000
00000000
00000000
00001000
00000000
00010000
00000000
00000000
00000000
00011000
00000000
00000000
00000000
,
00001000
00000110
00001000
00011000
,
00010000
00000000
00000000
01000000
00000000
00000000
10000000
00000000
01000000
00000000
00000000
00000000
00011000
00000000
00000000
00000000
,
00010000
01100000
00010000
00011000
,
00001000
00000000
00000000
00000100
00000000
00000000
00000001
00000000
00000100
00000000
00000000
00000000
00011000
00000000
00000000
00000000
,
00100000
01010000
00001000
00010100
,
00001000
00000000
00000000
00100000
00000000
00000000
10000000
00000000
00100000
00000000
00001000
00000000
00000000
00000000
00000000
00000000
,
00001001
00000010
00000110
00001000
,
00011000
00100000
01100000
00000000
,
00010000
00001000
00000200
00000000
00000310
00000100
00002000
00000000
,
00013000
00100000
10000000
00100000
00010000
00100000
01000000
00100000
,
00020000
00230000
20300000
32000000
,
03010000
00001000
00000010
00001000
00010000
00000000
00000100
00000000
,
00000010
00000001
00000200
00000000
00001300
00000100
00000020
00000000
,
00010030
00001000
00011000
01010000
,
00001000
00010000
00000100
00000000
00010000
00001000
01000000
00000000
,
10000000
01000000
00010000
00001000
00010000
00000000
00000100
00000010
,
00000200
00000000
00001300
00000001
00002000
00000000
00003010
00000100
,
00000001
00000011
00000100
00010100
,
00011000
00000000
01000000
00010000
02000000
00000000
13000000
00100000
,
20000000
32000000
03020000
00230000
,
00302000
00000000
00013000
00000010
00010000
00000000
00000100
00000000
,
00101000
00000000
01000000
00000000
00010000
00000000
10000000
01000000
,
10000000
01000000
00100000
00010000
,
00011000
00001010
00000101
00001000
,
00000001
00000010
00000002
00000000
00000103
00001000
00000200
00000000
,
00000310
00000010
00001010
00000100
,
00010000
00000000
00000000
00010000
00001000
00000000
00000000
00000000
00100000
00000000
00000000
00100000
01000000
00000000
00000000
00000000
,
11000000
01010000
00011000
00000100
,
00010000
00000000
00000000
00010000
00001000
00000000
00000000
00000000
01000000
00000000
00000000
01000000
00100000
00000000
00000000
00000000
,
10000000
11000000
00010000
01010000
,
01100000
00010000
00001000
00000110
,
00000001
00000000
00001000
00000000
00001001
00000000
00000010
00000100
,
00001000
00000000
00000010
00000001
00000010
00000100
00000010
00000000
,
00010000
00001000
00010000
00000000
00000100
00001000
00000100
00000000
,
00000010
00000000
00000100
00001000
00000010
00010000
00001000
00000000
,
01000000
00000000
00100000
10000000
00100000
00000000
01000000
00010000
,
01000000
00000000
00100000
10000000
00010000
00000000
00110000
00000000
,
11000000
00000000
10000000
00100000
00010000
00000000
00001000
00000000
,
00010000
00100000
10000000
00100000
00010000
00001000
00000100
00000010
,
00010000
00000010
00001000
00000001
00000010
00001000
00000010
00000100
,
00001000
00001100
00000001
00000101
,
00001001
00000000
00000000
00000010
00000000
00000000
00001000
00000000
00010000
00000000
00000000
00000000
00011000
00000000
00000000
00000000
,
01000000
10100000
01000000
00110000
,
10010000
00000000
00000000
01000000
00000000
00000000
00010000
00000000
00001000
00000000
00000000
00000000
00011000
00000000
00000000
00000000
,
00000200
00000000
00000310
00000000
00000200
00001000
00000300
00001000
,
00000010
00000000
00000000
00000001
00000000
00000000
00000010
00000000
00001000
00000000
00010000
00000000
00000000
00000000
00000000
00000000
,
00001000
01001000
00010000
10010000
,
10000000
00000000
00000000
01000000
00000000
00000000
00010000
00000000
00001000
00000000
00000000
00000000
00011000
00000000
00000000
00000000
,
00000010
00000100
00001001
00000000
00000100
00000010
00001001
00000000
,
00000110
00000000
00000000
00001000
00000000
00000000
00010000
00000000
01100000
00000000
00000000
00000000
00010000
00000000
00000000
00000000
,
10010000
00100000
01000000
00000000
10010000
01000000
00100000
00000000
,
01100000
00000000
00000000
00010000
00000000
00000000
00001000
00000000
00000110
00000000
00000000
00000000
00000001
00000000
00000000
00000000
,
00001001
00000010
00001000
00000000
00010000
00001000
00010000
00000000
,
10010000
00100000
00010000
00000000
00001000
00011000
00000000
00000000
,
00011000
00100000
00001000
00000100
00001001
00000010
00001000
00010000
,
01000000
01000000
00100000
00001000
00010000
00000100
00000100
00000010
;
