#TITLE:No Eyes;
#SUBTITLE:;
#ARTIST:RoughSketch;
#TITLETRANSLIT:;
#SUBTITLETRANSLIT:;
#ARTISTTRANSLIT:;
#GENRE:;
#CREDIT:AznPunk07/Frozen_Heat;
#MENUCOLOR:#8f0486;
#METERTYPE:DDR;
#BANNER:No Eyes-bn.png;
#BACKGROUND:No Eyes-bg.png;
#LYRICSPATH:No Eyes.lrc;
#CDTITLE:!cdtitle.png;
#MUSIC:No Eyes.mp3;
#OFFSET:-0.065;
#SAMPLESTART:45.880;
#SAMPLELENGTH:20.000;
#SELECTABLE:YES;
#LISTSORT:;
#BPMS:0.000=165.000,96.000=82.500,176.000=165.000,216.000=82.500,218.000=165.000,246.000=82.500,248.000=165.000,252.000=82.500,254.000=165.000;
#STOPS:;
#BGCHANGES:;
#ATTACKS:;

//---------------dance-single - ----------------
#NOTES:
     dance-single:
     :
     Hard:
     7:
     0.434,0.562,0.500,0.216,0.078:
0000
0000
0000
0000
,
0000
0000
0000
0000
,
0000
0000
0000
0000
,
0000
0000
0000
0000
,
1000
0001
1000
0001
,
0100
0010
0100
0010
,
2002
0000
3003
0000
,
0010
0000
0000
0010
0000
0000
0010
0000
0000
0000
0100
0000
0010
0000
0000
0000
,
0001
0101
0101
0101
,
0100
1010
1010
1010
,
1000
1100
1100
1100
,
0100
0011
0011
0011
,
0001
1001
1001
1001
,
1000
0110
0110
0110
,
0010
1100
1100
1100
,
0010
0101
0101
0101
,
1000
0100
1000
0100
,
0001
0100
0001
0100
,
1000
0010
1000
0010
,
0001
0010
0001
0010
,
0100
0110
0010
0010
,
1000
1001
0001
0001
,
0020
0000
0000
0000
,
0130
0000
0000
1001
0000
0000
0100
0000
0000
0000
0010
0000
0100
0000
0000
0000
,
1001
0000
0000
0001
0000
0000
0001
0000
0000
1000
0000
0000
1000
0000
0001
0000
,
0010
0000
0000
0010
0000
0000
0010
0000
0000
0100
0000
0000
0100
0000
0010
0000
,
0001
0000
0000
0001
0000
0000
0100
0000
0000
1000
0000
0000
1000
0000
0100
0000
,
0010
0000
0000
0010
0000
0000
0010
0000
1000
0000
0000
0000
0001
1000
0001
0000
,
0020
0000
0000
0000
0000
0000
0100
0000
0100
0000
0000
0100
0000
0000
0230
0000
,
0010
0000
0000
0000
0000
0000
0000
0000
2300
0000
0000
0001
0000
0000
0001
0000
,
0000
3002
0000
0000
0000
0000
0100
0100
,
0203
0000
0000
0010
0320
0000
1000
1000
,
2030
0000
0000
0000
0000
0000
3200
0000
0010
0000
0000
0010
0000
0000
0320
0000
,
0100
0000
0000
0000
0000
0000
0000
0000
0032
0000
0000
1000
0000
0000
1000
0000
,
0000
2003
0000
0000
0000
0000
0001
0001
,
3002
0000
0000
0100
0203
0000
0010
0010
,
0320
0030
1001
0010
0200
0300
1001
0100
,
0020
0030
1001
0010
0200
0300
1001
0100
,
0002
0003
1100
0010
2000
3000
0101
1000
,
0002
0003
1100
0001
2000
3000
0101
0000
,
0001
0000
0100
0000
0001
0000
0010
0001
0010
0000
0001
0000
0010
0000
0100
1000
,
0100
0000
1000
0000
0100
0000
1000
0010
1000
0000
0010
0000
1000
0000
0001
1000
,
0002
0000
0100
0000
1003
0000
1000
0001
2000
0000
0100
0000
3001
0000
0100
0010
,
0200
1000
0010
0001
0010
0010
0010
0310
,
1000
1100
0001
0101
,
1000
0001
1000
0001
,
0010
1100
0010
0101
,
1000
0000
0001
1000
0001
0000
1000
0001
,
1000
0010
0010
0010
,
1001
0010
0010
0010
,
2002
0000
0000
3003
,
0100
0000
0000
0100
0000
0000
0100
0000
0000
0000
0000
0000
0110
0000
0000
0000
,
1000
1100
1000
1100
,
1000
1010
1000
1010
,
0101
0011
0101
0011
0001
0000
0101
0000
,
0001
0011
0110
1000
,
0001
1000
0010
0100
,
0010
0100
0001
0010
,
0100
1000
0001
0101
,
1000
0000
1100
0000
0001
0100
0001
0000
,
0010
0000
0100
0000
1000
0010
1000
0000
,
0001
0000
1000
0000
0010
0110
0100
0110
,
0001
1000
0000
1000
0001
1000
0001
0000
,
0010
1100
0010
0101
1010
0000
0011
0000
,
1010
0000
0011
0000
0001
0100
0001
0000
,
1000
0100
1000
0000
0001
0010
0100
1000
,
0010
0100
0001
1000
0100
0000
0000
0100
,
0010
0100
0000
0100
0010
0000
1001
0000
,
0100
1001
0010
0000
;

//---------------dance-single - ----------------
#NOTES:
     dance-single:
     :
     Challenge:
     10:
     0.739,0.920,0.836,0.075,0.612:
0000
0000
0000
0000
,
0000
0000
0000
0000
,
0000
0000
0000
0000
,
0000
0000
0000
0000
,
1000
0000
1100
0000
0001
1000
0001
0010
,
0100
0000
0000
1100
0000
0000
0010
0000
0101
0000
0000
0000
1010
0000
0000
0000
,
2002
0000
0000
0000
3003
0000
0100
0010
0000
0100
0010
0000
0000
0110
0000
0000
,
1001
0000
0000
1001
0000
0000
1001
0000
0010
0000
0100
0000
1001
0000
0000
0000
,
1100
0000
0010
0000
0100
0000
0001
1000
0001
0000
0010
0000
0100
0000
1000
0000
,
0110
0000
1000
0000
0001
0000
0100
0010
0000
0010
0100
0000
1001
0000
0000
0000
,
0011
0000
0100
0000
0010
0000
1000
0001
1000
0000
0100
0000
0010
0000
0100
0000
,
0011
0000
1000
0000
0010
0100
0010
0000
0110
0000
1001
0000
0100
0010
0100
0000
,
0000
0000
1001
0000
0100
0000
0010
0100
0000
0100
1000
0000
0100
0000
0010
0000
,
1000
0000
0100
0000
0010
0000
0100
0001
0000
0001
0100
0000
1000
0000
0101
0000
,
0100
0000
0000
0000
1100
0000
0000
0000
0101
0000
0000
0000
0110
0000
1000
0001
,
0000
0000
0101
0000
0000
1100
0000
0000
1001
0000
1001
0000
0110
0000
0110
0000
,
0001
0000
0010
0000
0100
0000
1000
0001
0000
0001
0010
0000
0100
0000
1000
0001
,
1000
0000
0010
0000
0100
0000
0001
1000
0000
1000
0010
0000
0100
0000
0001
1000
,
0001
0000
0010
0000
1000
0000
0010
0001
0000
0001
0100
0000
1000
0000
0100
0010
,
0100
0000
0001
0000
1000
0100
1000
0000
1100
0000
0000
0000
0001
0100
0001
0000
,
0000
0000
0010
0000
1001
0000
0010
0100
0000
0100
0001
0000
1000
0000
0100
0000
,
0010
0000
0001
0000
0100
0000
0010
1000
0000
1000
0100
0000
1000
0000
0101
0000
,
2002
0000
0000
0000
0003
0000
0000
0000
3100
0000
0010
0100
0000
0010
0100
0000
,
1001
0000
0000
0110
0000
0000
1001
0000
0000
0000
0010
0000
0110
0000
0000
0000
,
2001
0000
0000
0100
0000
0000
3002
0000
0000
0010
0000
0000
0103
0000
1000
0000
,
0200
0000
0000
1000
0000
0000
0320
0000
0000
1000
0000
0000
0130
0000
0001
0000
,
0010
0000
0000
0110
0000
0000
0100
0000
0000
1001
0000
0000
1000
0100
0010
0001
,
0100
0000
0000
0101
0000
0000
0100
0000
1010
0000
0000
0000
0010
0100
1000
0000
,
0001
0000
0000
0011
0000
0000
1000
0000
0010
1000
0000
0000
0100
0000
0010
0001
,
1010
0000
0000
1100
0000
0000
0010
0000
0100
1000
0000
0000
0010
0000
0100
0001
,
0110
0000
0000
0100
0000
0000
0100
0000
0000
1001
0000
0000
0001
1000
0001
0000
,
0100
0000
0000
0100
0000
0000
0100
0000
0010
0000
0000
0000
0010
0010
1000
0001
,
1000
0000
0000
1100
0000
0000
0001
0000
0101
0100
0000
0010
1000
0000
0100
0000
,
1001
0000
0000
0011
0000
0000
0100
0000
1001
0001
0000
0010
0100
0000
0100
1000
,
0110
0000
0000
0010
0000
0000
0010
0000
0000
1001
0000
0000
1000
0001
1000
0000
,
0010
0000
0000
0010
0000
0000
0010
0000
0100
0000
0000
0000
0001
0010
0100
1000
,
0001
0100
0001
0000
0010
0000
0100
1000
0100
0000
0010
0001
0010
0000
0001
0100
,
1000
0000
1000
0100
0001
0000
0010
0001
1000
0000
0010
1000
0001
0000
0100
0010
,
1000
1000
0001
0000
0010
0000
0001
0100
0001
0001
1000
0000
0100
0000
0010
0100
,
1000
0000
1100
0000
0101
0000
0010
0001
1000
0000
1010
0010
0011
0000
0100
0010
,
0100
0001
0001
0000
0011
0000
0100
1000
1010
0000
1001
0000
0101
0000
0010
0001
,
1100
0000
0101
0000
1001
0000
1000
0100
0011
0000
0001
0100
1010
0000
0100
0010
,
1001
0100
0010
0010
1001
0000
0010
0100
1001
0010
0100
0100
1001
0000
0100
0010
,
1100
0000
0101
0000
1001
0000
0010
1001
0001
0100
0001
0100
0010
1000
0010
1000
,
0001
0000
0010
0000
0001
0000
0001
1000
0000
1000
0001
0000
0100
0010
0100
0010
,
0000
0010
1000
0000
0100
1000
0000
1000
0001
0000
0100
0000
0001
0000
0010
0001
,
0010
0000
0000
0010
0100
0000
0000
0100
1000
0000
1000
0000
0001
0000
1000
0001
,
0000
0001
1000
0000
0001
0100
0001
0000
0100
0000
0010
0000
1000
0000
1000
0010
,
0000
0010
1000
0000
0100
0000
0010
0000
0001
0000
0100
0000
0010
0000
0010
1000
,
0000
1000
0100
0000
0010
0000
0100
0000
0100
0000
1000
0000
1100
0000
0101
0000
,
1001
0000
0000
0000
0000
0000
0000
0000
0010
0000
0100
0010
0000
0010
0100
0000
,
1001
0000
0000
1001
0000
0000
1001
0000
0010
0000
0100
0000
0010
0100
0010
0000
,
1100
0000
0010
0000
0101
0000
0001
0000
1000
0000
0001
0000
1100
0000
0001
1000
,
0000
1000
0001
0000
0010
0000
0100
0010
0100
0000
1000
0000
0001
0000
1000
0001
,
1000
0010
1100
0010
0101
0010
1100
0010
0101
0000
1000
0000
0001
1000
0001
1000
,
0001
0000
0010
0000
1100
0000
1000
0001
0000
0000
0001
0000
1100
0000
0010
0000
,
0101
0000
0010
0000
1100
0000
0001
0010
0000
0010
0100
0000
1010
0000
0100
0000
,
0011
0000
0100
0000
1010
0000
0100
0010
0000
0010
1000
0000
0001
0000
0010
0000
,
0100
0000
1000
0000
0010
0000
0100
0001
0000
0001
1000
0000
0001
0000
0100
0000
,
0010
0100
0010
0000
1000
0000
0001
1000
0001
0000
0100
0000
1010
0000
0001
0000
,
1000
0000
0010
0000
1100
0000
1000
0001
0000
0100
0001
0000
0010
0000
1000
0001
,
1000
0000
0000
0000
0001
0000
0000
0000
0010
0000
0000
0000
0100
0000
0010
0000
0100
0000
1000
0010
1000
0000
0001
0010
0001
0000
1000
0010
1000
0000
0001
0010
,
0001
0000
1001
0000
1000
0001
1000
0001
1000
0000
0110
0000
0110
0000
0001
1000
,
0001
0100
1010
0100
0011
1000
1001
0001
1001
0000
0010
0000
0100
0000
0010
0000
,
0001
0000
0100
0000
1000
0000
0100
0010
0000
0010
1000
0000
0001
0000
0010
0000
,
0100
1000
0001
0000
0100
0100
0010
0010
,
1000
0001
0010
0100
2002
0000
3003
0000
,
0010
0000
0100
0000
0110
0000
0000
0000
1100
0000
0000
0101
0000
0000
1001
0000
,
1010
0011
1001
0000
0110
0000
0000
0000
;

//---------------dance-single - ----------------
#NOTES:
     dance-single:
     :
     Medium:
     5:
     0.319,0.434,0.164,0.104,0.000:
0000
0000
0000
0000
,
0000
0000
0000
0000
,
0000
0000
0000
0000
,
0000
0000
0000
0000
,
1000
1000
0001
0001
,
0100
0100
0010
0010
,
2002
0000
0000
0000
,
0000
0000
0000
3003
,
1000
0000
0000
1000
0000
0100
0000
0000
,
0001
0000
0000
0001
0000
0100
0000
0000
,
1000
0000
0000
1000
0000
0010
0000
0000
,
0001
0000
0000
0001
0000
0010
0000
0000
,
0101
0000
0000
0010
0000
0010
0000
0000
,
1100
0000
0000
0010
0000
0010
0000
0000
,
1010
0000
0000
0100
0000
0100
0000
0000
,
0011
0000
0000
0100
0000
0100
0000
0000
,
1001
0010
1000
0010
,
0100
0001
0100
0000
,
1001
0010
0001
0010
,
0100
1000
0100
0000
,
0110
0001
1000
0001
,
0100
0010
0100
0000
,
0110
1000
0001
1000
,
0010
0100
0010
0000
,
1000
0000
0100
0000
1000
0000
0001
1000
,
0001
0000
0100
0000
0010
0000
1000
0001
,
1000
1000
0100
0010
,
0001
0001
0100
0010
,
2000
0000
0010
0010
,
0010
0000
0100
0100
,
3100
0000
0000
0000
0000
0000
0010
0100
,
0010
0000
0000
1001
1001
0000
0000
0000
,
0002
0000
0100
0100
,
0100
0000
0010
0010
,
0013
0000
0000
0000
0000
0000
0100
0010
,
0100
0000
0000
1001
1001
0000
0000
0000
,
1000
0100
0010
0000
1000
0100
0010
0000
,
0001
0100
0010
0000
0001
0100
0010
0000
,
1000
0100
0010
0000
0010
0100
1000
0000
,
0001
0100
0010
0000
0010
0100
0001
0000
,
1000
0100
0001
0100
1000
0100
0001
0100
,
1000
0010
0001
0010
1000
0010
0001
0010
,
1000
0100
0010
0001
1000
0010
0100
0001
,
2000
0100
0002
3003
,
1000
1000
0001
0001
,
1000
0001
1000
0001
,
0010
0110
0010
0110
,
0001
0000
0100
0000
0010
0000
1000
0001
,
1000
0100
0100
0100
,
1001
0100
0100
0100
,
2002
0000
0000
3003
,
0200
0300
0020
0030
,
1000
0000
0100
0000
1000
0000
0100
1000
,
0001
0000
1000
0000
0010
0000
1000
0001
,
0010
0010
0010
0010
0100
0000
1001
0000
,
0100
0010
1001
0000
,
0001
0000
0100
0000
0010
1000
0010
0000
,
0100
0001
0020
0230
,
0320
0000
0230
0000
1300
0001
1000
0000
,
0001
1000
0001
0000
0010
0000
0010
0000
,
0100
1000
0001
0100
,
0010
0000
1000
0000
0001
0001
1000
1000
,
0001
0010
0100
1000
,
0010
0010
0010
0010
0100
0000
0100
0000
,
1000
0001
1000
0000
0001
0010
0001
0000
,
1000
0010
1000
0000
0001
0000
0001
0100
,
0010
0000
0010
1000
0100
0000
0000
0000
,
1000
1100
0001
0101
,
0010
1001
0010
0000
;

//---------------dance-single - ----------------
#NOTES:
     dance-single:
     :
     Easy:
     3:
     0.208,0.230,0.037,0.097,0.000:
0000
0000
0000
0000
,
0000
0000
0000
0000
,
0000
0000
0000
0000
,
0000
0000
0000
0000
,
0002
0003
0000
0000
,
2000
3000
0000
0000
,
0220
0000
0000
0000
,
0000
0000
0000
0330
,
1000
0000
0100
0000
,
0010
0000
0001
0000
,
0100
0000
0010
0000
,
1000
0000
0001
0000
,
0010
0000
0001
0000
,
1000
0000
0010
0000
,
0100
0000
0001
0000
,
0010
0000
0100
0000
,
1000
1000
1000
1000
,
1000
1000
1000
1000
,
0001
0001
0001
0001
,
0001
0001
0001
0001
,
0000
0100
0100
0100
,
0010
0010
0010
0010
,
0200
0000
0000
0000
,
0000
0000
0000
0300
,
1001
0000
0000
0000
0000
0000
0010
0010
,
0010
0000
0000
0000
0000
0000
0100
0100
,
0100
0000
0000
0000
0000
0000
1000
0001
,
1000
0000
0000
0000
1001
0000
0001
1000
,
0002
0000
0000
0000
,
2003
0000
0000
0000
,
3020
0000
0000
0000
,
0230
0000
0000
0000
,
0302
0000
0100
0000
,
2003
0000
0010
0000
,
3200
0000
0001
0000
,
0320
0000
1000
0000
,
0130
0100
0100
0000
0000
0000
0000
0000
,
0010
0010
0010
0000
0000
0000
0000
0000
,
0001
0001
0001
0000
0000
0000
0000
0000
,
1000
1000
1000
0000
0000
0000
0000
0000
,
0001
0100
1000
0010
,
0001
0100
1000
0010
,
0001
1000
0100
0001
,
0010
1000
0100
0010
,
0001
0001
0001
0001
,
0001
0001
0001
0001
,
0001
0000
0100
0100
,
0010
0000
0010
0000
,
1000
1000
1000
1000
,
1000
1000
1000
1000
,
1000
0000
0000
0000
,
0000
0000
0000
0000
,
1000
0100
1000
0100
,
1000
0100
1000
0100
,
0010
0010
0001
0100
,
0010
1000
0001
0010
,
0001
0010
0001
0010
,
0001
0010
0001
0100
,
0010
1000
0100
0010
,
0100
0000
1000
0001
,
1000
0001
1000
0001
,
1000
0001
0100
0010
,
1000
0001
0010
0100
,
1000
0001
0010
0001
,
1000
0010
0100
0000
,
0010
0000
1000
0001
,
1000
0001
1001
0000
,
0000
0000
0010
0000
,
0010
0000
0110
0000
;

//---------------dance-single - ----------------
#NOTES:
     dance-single:
     :
     Beginner:
     2:
     0.125,0.179,0.097,0.000,0.000:
0000
0000
0000
0000
,
0000
0000
0000
0000
,
0000
0000
0000
0000
,
0000
0000
0000
0000
,
0100
0000
0000
0000
,
0010
0000
0000
0000
,
0100
0000
0000
0000
,
0000
0000
0000
0000
,
1000
0000
0000
0000
,
1001
0000
0000
0000
,
0001
0000
0000
0000
,
1001
0000
0000
0000
,
0100
0000
0000
0000
,
0110
0000
0000
0000
,
0010
0000
0000
0000
,
0110
0000
0000
0000
,
1000
0000
0000
0000
,
1100
0000
0000
0000
,
0001
0000
0000
0000
,
0101
0000
0000
0000
,
1000
0000
0000
0000
,
1010
0000
0000
0000
,
0001
0000
0000
0000
,
0011
0000
0000
0000
,
1000
0000
0000
1000
,
1000
0000
0000
1000
,
1000
0000
0000
1000
,
1000
0000
0110
0000
,
0001
0000
0000
0001
,
0001
0000
0000
0001
,
0001
0000
0000
0001
,
0001
0000
0110
0000
,
1000
0000
0000
0000
,
0100
0000
0000
0000
,
0010
0000
0000
0000
,
0001
0000
0100
0000
,
0010
0010
0010
0000
,
0100
0100
0100
0000
,
0001
0001
0001
0000
,
1000
1000
1000
0000
,
0100
0000
0000
0000
,
0010
0000
0000
0000
,
0001
0000
1000
0000
,
0010
0000
0100
0100
,
0100
0100
0100
0000
,
0000
0000
0000
0000
,
0010
0000
0010
0000
,
1000
0000
0001
0000
,
0010
0010
0010
0000
,
0001
0000
1000
0000
,
0110
0000
0000
0000
,
0000
0000
0000
0000
,
0001
0001
0000
1000
,
0000
0100
0000
0010
,
0010
0000
0001
0000
,
1000
0000
0010
0010
,
0000
0100
0000
0010
,
0000
1000
1000
0000
,
0001
0000
0010
0000
,
0100
0000
1000
1000
,
1000
0000
0001
0000
,
0100
0000
0010
0000
,
1000
0000
0001
0000
,
1000
0000
0100
0000
,
0010
0000
0001
0000
,
0000
0000
0110
0000
,
0000
0000
1001
0000
,
0000
0000
0000
0000
,
0000
0000
0010
0000
;

//---------------dance-double - ----------------
#NOTES:
     dance-double:
     :
     Challenge:
     6:
     0.285,0.383,0.045,0.127,0.026: // measure 1
00000000
00000000
00000000
00000000
,  // measure 2
00000000
00000000
00000000
00000000
,  // measure 3
00000000
00000000
00000000
00000000
,  // measure 4
00000000
00000000
00000000
00000000
,  // measure 5
00000000
00000000
00000000
00000000
,  // measure 6
00000000
00000000
00000000
00000000
,  // measure 7
00022000
00000000
00000000
00000000
,  // measure 8
00033000
00000000
00000000
00000000
,  // measure 9
10000000
01000000
10000000
01000000
,  // measure 10
00100000
00001000
00100000
00001000
,  // measure 11
00010000
00000010
00010000
00000010
,  // measure 12
00001000
00000001
00001000
00000001
,  // measure 13
00000000
00000010
00000100
00000010
,  // measure 14
00000100
00010000
00001000
00010000
,  // measure 15
00001000
01000000
00001000
01000000
,  // measure 16
00010000
00001000
00010000
00001000
,  // measure 17
00100000
01000000
00100000
01000000
,  // measure 18
00010000
10000000
00010000
10000000
,  // measure 19
01000000
00001000
01000000
00001000
,  // measure 20
00000010
00000100
00000010
00000100
,  // measure 21
00000000
00001000
00000001
00001000
,  // measure 22
00000001
00000100
00000001
00000100
,  // measure 23
00000010
00010000
00000010
00010000
,  // measure 24
00000100
00001000
00000100
00001000
,  // measure 25
00000010
00000000
00000000
00000010
00000000
00000000
00000010
00000000
00000000
00000000
00000000
00000000
00000000
00000000
00000000
00000000
,  // measure 26
00010000
00000000
00000000
00010000
00000000
00000000
00010000
00000000
00000000
00000000
00000000
00000000
00000000
00000000
00000000
00000000
,  // measure 27
01000000
00000000
00000000
01000000
00000000
00000000
01000000
00000000
00000000
00000000
00000000
00000000
00000000
00010000
00100000
00010000
,  // measure 28
00001000
00000000
00000000
00001000
00000000
00000000
00001000
00000000
00000000
00000000
00000000
00000000
00000010
00000100
00000010
00000000
,  // measure 29
00000200
00000000
00000000
00000000
,  // measure 30
00020300
00000000
00032000
00000000
,  // measure 31
02003000
00000000
00000000
00000000
,  // measure 32
23000000
00000000
32000000
00000000
,  // measure 33
03020000
00000000
00000000
00000000
,  // measure 34
00230000
00000000
00302000
00000000
,  // measure 35
00003020
00000000
00000000
00000000
,  // measure 36
00000032
00000000
00000000
00000000
00000203
00000000
00000010
00000010
,  // measure 37
00000310
00000000
00010000
00001000
00000100
00000000
00001000
00010000
,  // measure 38
01000000
00000000
00010000
00001000
00000100
00000000
00001000
00010000
,  // measure 39
00100000
00000000
00010000
00001000
00000010
00000000
00001000
00010000
,  // measure 40
00100000
00000000
00010000
00001000
00000010
00000000
00010000
00000100
,  // measure 41
00010000
00001000
00000100
00000000
00001000
00010000
01000000
00000000
,  // measure 42
00010000
00001000
00000010
00000000
00001000
00010000
00100000
00000000
,  // measure 43
00001000
00010000
00000100
00000000
00010000
00001000
01000000
00000000
,  // measure 44
00011000
00101000
00011000
00010010
,  // measure 45
00001000
01000000
10000000
01000000
,  // measure 46
00001000
01000000
10000000
01000000
,  // measure 47
00010000
00010000
00100000
00100000
,  // measure 48
00001000
00010000
00000100
00000100
,  // measure 49
00010000
00000100
00000001
00000100
,  // measure 50
00010000
00000100
00000001
00000100
,  // measure 51
00002000
00000000
00000000
00000000
,  // measure 52
00020000
00000000
00000000
00033000
,  // measure 53
00000010
00010000
00000100
00000010
,  // measure 54
00000001
00000000
00000100
00000010
00000100
00000000
00000010
00010000
,  // measure 55
00001000
00001000
00001000
00001000
01000000
00000000
00100000
00000000
,  // measure 56
10000000
00000000
00010000
10000000
00010000
00000000
00100000
00000000
,  // measure 57
00001000
01000000
00100000
10000000
,  // measure 58
01000000
00100000
00001000
00010000
,  // measure 59
00000010
00000100
00000001
00001000
,  // measure 60
00000001
00002000
00000000
00003100
,  // measure 61
00010000
00001000
01000000
00010000
,  // measure 62
00100000
00000000
00001000
00000100
00000010
00000010
00000010
00000010
,  // measure 63
00000001
00000000
00000100
00000000
00000010
00001000
00000010
00000000
,  // measure 64
00010000
00010000
00010000
00010000
00001000
00000000
00100000
00000000
,  // measure 65
01000000
00000000
10000000
00100000
10000000
00000000
00100000
00000000
,  // measure 66
01000000
00000000
00001000
00000000
00010000
00001000
00010000
00000000
,  // measure 67
00000100
00000010
00000100
00000000
00000001
00000000
00000000
00000000
,  // measure 68
00000000
00000000
00001000
00010000
,  // measure 69
00100000
00010000
00001100
00000000
;
