#TITLE:マトリョシカ;
#SUBTITLE:;
#ARTIST:ハチ feat. ジギル;
#TITLETRANSLIT:Matryoshka;
#SUBTITLETRANSLIT:;
#ARTISTTRANSLIT:Hachi feat. Jigiru;
#GENRE:;
#CREDIT:Frozen_Heat/Azn_Punk_07/GuardianFrozen;
#MENUCOLOR:#01b7cd;
#BANNER:Matryoshka-bn.png;
#BACKGROUND:Matryoshka-bg.png;
#LYRICSPATH:Matryoshka.lrc;
#CDTITLE:!cdtitle.png;
#MUSIC:Matroshka Guy.mp3;
#OFFSET:-0.063;
#SAMPLESTART:46.420;
#SAMPLELENGTH:15.000;
#SELECTABLE:YES;
#LISTSORT:;
#BPMS:0.000=205.000,256.000=209.000,264.000=214.000,272.000=220.000,276.000=230.000,280.000=245.000,284.000=250.000,288.000=255.000,296.000=260.000,304.000=275.000,312.000=290.000;
#STOPS:;
#TICKCOUNT:0.000=2;
#BGCHANGES:;
#KEYSOUNDS:;
#ATTACKS:;

//---------------dance-single - ----------------
#NOTES:
     dance-single:
     :
     Hard:
     9:
     0.791,0.779,0.630,0.326,0.000:
0000
0000
0000
0000
,
0000
0000
0000
0000
,
0000
0000
0000
0000
,
1001
0110
1001
0110
,
1001
0000
0010
0100
1000
1000
0010
0100
,
0001
0001
0010
1000
0010
0000
0100
1000
,
0100
0000
0010
0001
0010
0010
0001
0100
,
0010
0010
1000
0100
0100
0000
0011
0000
,
1100
0000
0001
0100
1000
1000
0100
0010
,
0010
1000
0100
0010
0001
0000
0100
0001
,
0100
0000
0010
1000
0010
0010
1000
0001
,
0010
0010
0100
0100
0010
0010
1001
0000
,
0020
0130
2000
3010
,
0002
0000
0013
0000
0200
0000
0310
0001
,
0200
0310
2000
3100
,
0002
0000
0103
0000
0020
0000
0130
1000
,
0002
0103
2000
3100
,
0020
0000
0130
0000
0010
0000
0001
1000
,
0002
0013
2000
3010
,
0200
0000
0310
0000
0100
0001
1000
0000
,
0100
0000
0010
0001
0010
1000
0010
0100
,
0010
0001
0100
0010
1000
0000
1000
0010
,
0001
0000
0001
0010
0100
0001
0010
1000
,
0010
0100
1000
0010
0100
0000
0001
1000
,
0001
0011
0001
0101
,
1010
0000
1100
0000
1010
0000
0001
0100
,
1000
0000
1010
0000
0101
0000
1000
0100
,
0010
0100
1000
0001
1000
0000
0001
0100
,
0001
0010
0100
1000
0100
0000
1000
0001
,
0100
0100
0010
1000
0100
0000
1000
0010
,
0000
0010
0100
0001
0010
0001
0001
1000
,
0100
0001
0100
1000
0020
0000
1030
0000
,
0002
0000
0010
0000
0103
0000
1000
0010
,
2000
0000
3000
0100
0020
0000
0001
0000
,
0130
0000
1000
0000
0001
0000
0100
0001
,
0100
0010
0100
1000
0200
0000
0001
0000
,
0320
0000
1000
0000
0130
0000
1000
0100
,
2000
0000
3000
0001
0200
0000
0310
0000
,
2000
3100
0002
0103
,
1001
0000
0110
0000
1001
0010
0100
0010
,
1000
0000
1000
0100
0000
1100
0000
0011
,
0000
1000
0010
0100
0001
0000
0011
0000
,
0001
0001
0100
0010
1000
1000
0100
0010
,
0001
0100
1000
0100
0010
1000
0100
0010
,
0001
0000
0001
0100
0000
0101
0000
1010
,
0000
0001
0010
0100
1000
0000
1010
0000
,
0001
0000
0000
1000
0001
0100
0010
1000
,
0001
0010
1000
0010
0100
0000
1200
0000
,
0310
0000
0002
0100
0003
1010
0000
2001
,
0000
3100
0011
0000
1010
0100
0010
0000
,
0001
0001
0001
0100
0010
0010
0010
1000
,
0100
1000
0001
0100
0001
0000
1100
0000
,
0021
0000
0130
2000
0000
3010
0100
0002
,
0000
1003
0101
0000
1010
0000
0001
0010
,
0100
0000
1000
1000
0000
0001
0001
0010
,
0100
0000
0100
0010
1100
0000
0101
0000
,
1001
1100
1001
0101
,
0001
0010
0100
1000
0001
0000
1001
0000
,
1100
1001
0101
1001
,
1000
0010
0100
0001
1000
0000
1001
0000
,
0010
0000
1010
0000
0011
0000
0010
0100
,
0000
0100
0000
0100
0001
0010
0100
0000
,
1000
0000
0101
0000
1100
0000
0100
0010
,
0000
0010
0000
0010
1000
0010
0001
0000
,
1100
0000
0001
0000
0100
0000
0001
0100
,
0000
0001
0000
0001
0100
0001
0100
0000
,
1010
0000
1000
0000
0100
0000
1000
0100
,
0000
0100
0000
1000
0100
1000
0100
0000
,
0010
0000
0001
0000
1000
0000
0001
1000
,
0000
0001
0000
1000
0001
1000
0001
0000
,
0010
0000
1100
0000
0011
0000
0100
0010
,
0000
0100
0000
0010
0100
0010
0100
0000
,
1000
0010
0001
0010
,
1000
1010
0100
1100
,
0001
0010
1000
0010
,
0001
0011
0100
0101
,
1000
0000
0010
0000
0001
0000
0010
1000
,
0000
0001
0000
0010
0001
1000
0100
0000
,
0010
0001
0100
0010
1000
0000
0100
0000
,
1000
0001
0010
0001
1000
0000
0110
0000
;

//---------------dance-single - ----------------
#NOTES:
     dance-single:
     :
     Medium:
     8:
     0.623,0.736,0.456,0.217,0.000:
0000
0000
0000
0000
,
0000
0000
0000
0000
,
0000
0000
0000
0000
,
0010
0010
0010
0010
,
1000
0000
0100
1000
0100
0000
0010
0001
,
0010
0000
0100
1000
0100
0000
1000
0000
,
0010
0000
0100
0001
0100
0000
0010
1000
,
0010
0000
0100
0001
0100
0000
0000
0000
,
0010
0000
1000
0001
0010
0000
0001
1000
,
0010
0000
1000
0001
0100
0000
0001
0000
,
1000
0000
0100
1000
0001
0000
0100
0001
,
1000
0000
0100
1000
0010
0000
0000
0000
,
0200
0001
0010
0302
,
0010
0000
1003
0100
0001
0000
0000
0100
,
2000
0100
3001
1000
,
0002
1000
0203
0300
,
0020
1000
0100
2030
,
0100
0000
3001
0010
1000
0000
0000
0010
,
0002
0010
1003
0001
,
0200
0010
0320
0030
,
1000
0100
0001
0100
,
1000
0001
1000
0001
,
0100
1000
0100
0001
,
1000
0001
1000
0001
1000
0000
0000
0000
,
0001
0010
0001
0010
0100
0000
1100
0000
,
0011
1100
0011
0000
,
1001
0000
0110
0000
1001
0000
1000
0010
,
1000
0010
0100
0001
0100
0000
0000
0000
,
0010
1000
0010
1000
0001
0000
0101
0000
,
1010
0101
1010
0000
,
1001
0000
0110
0000
1001
0000
0001
0100
,
0001
0100
0010
1000
0100
0000
0000
0000
,
0020
0001
0130
0200
,
1000
2300
0010
3000
,
0002
0100
1003
0000
,
2000
0100
3001
0000
,
0020
1000
0130
0200
,
0001
0302
0010
0003
,
2000
0100
3001
0000
,
0002
0100
1003
0000
,
1001
1100
1001
1100
,
1000
0001
1000
0100
1000
0001
1000
0000
,
0101
1001
0101
1001
,
0001
1000
0001
0100
0001
1000
0001
0000
,
1010
0101
1010
0101
,
1000
0010
0100
0001
1000
0010
0100
0000
,
0011
1100
0011
1100
,
0001
0010
0100
1000
0001
0010
0100
0000
,
1000
0010
0001
0010
,
1010
0101
1100
0011
,
0001
0100
0001
0000
1000
0100
1000
0000
,
0001
0010
1000
0010
0001
0100
1000
0100
,
0001
0101
1000
1010
,
1001
0011
1100
1001
,
1000
0010
1000
0000
0001
0010
0001
0000
,
1000
0100
0010
0001
1000
0000
1001
0000
,
0001
0100
0001
0100
,
0001
0100
0001
0100
0001
0100
0001
0000
,
1000
0100
1000
0100
,
1000
0100
1000
0100
1000
0100
1000
0000
,
0001
0000
0001
0000
0001
0000
0000
0001
,
0000
0001
0000
0000
0001
0000
0001
0000
,
0000
0000
1000
0000
1000
0000
0000
1000
,
0000
1000
0000
0000
1000
0000
1000
0000
,
0000
0000
0010
0000
0010
0000
0000
0010
,
0000
0010
0000
0000
0010
0000
0010
0000
,
0000
0000
0100
0000
0100
0000
0000
0100
,
0000
0100
0000
0000
0100
0000
0100
0000
,
0001
1000
0001
1000
,
0100
0010
0100
0010
,
0001
1000
0001
1000
,
0010
0100
0010
0100
,
0001
0010
1000
0010
,
0001
0100
1000
0100
,
0010
1000
0100
0010
,
0001
1000
0010
0100
,
0010
1000
0001
0010
,
0100
1000
0010
0100
,
0001
1000
0001
1000
,
0100
0010
0001
1001
;

//---------------dance-single - ----------------
#NOTES:
     dance-single:
     :
     Challenge:
     10:
     1.000,0.996,0.901,0.130,0.331: // measure 1
0000
0000
0000
0000
,  // measure 2
0000
0000
0000
0000
,  // measure 3
0000
0000
0000
0000
,  // measure 4
0011
1100
1010
0101
,  // measure 5
1000
0000
0000
0000
0100
0010
0100
0000
1000
0000
0010
0000
0010
0000
0100
0000
,  // measure 6
0001
0000
0001
0000
0010
0000
0100
1000
0100
0000
0000
0000
0010
0000
0001
0100
,  // measure 7
0010
0000
0000
0000
1000
0000
0010
0001
0010
0000
0100
0000
0001
0000
0010
0000
,  // measure 8
0100
0010
0100
0000
1000
0001
1000
0000
0010
0000
0000
0000
0101
0000
0000
0000
,  // measure 9
1010
0000
0000
0000
0001
1000
0001
0000
1000
0100
0010
0000
0100
0000
1000
0000
,  // measure 10
0001
0100
0001
0000
0010
0000
1000
0000
0010
0000
0000
0000
0100
0000
1000
0001
,  // measure 11
0100
0000
0000
0000
0010
0000
0001
0000
0010
0100
0010
0000
1000
0000
0001
0000
,  // measure 12
0010
0000
0100
0000
1000
0100
0010
0000
0001
0000
0000
0000
1010
0000
0000
0000
,  // measure 13
0101
0010
0000
1000
0100
0000
0010
0001
,  // measure 14
0100
1000
0100
0010
1000
0000
0001
0010
,  // measure 15
0000
0100
0001
1000
0001
0000
0100
0001
,  // measure 16
0100
1000
0010
1000
0100
0000
0010
1000
,  // measure 17
0100
0010
0000
0001
1000
0001
1000
0100
,  // measure 18
0001
0010
0001
0100
1000
0000
0010
1000
,  // measure 19
0000
0001
0010
0100
0010
0010
0000
0001
,  // measure 20
1100
0000
0000
0000
0101
0000
0000
0000
1000
0001
1000
0001
1000
0000
0000
0000
,  // measure 21
1001
0000
0000
0000
0010
1000
0010
0000
0100
0000
0100
0000
0001
0000
0010
0000
,  // measure 22
0100
0001
0100
0000
1000
0010
1000
0000
0010
0000
0000
0000
0100
0000
0001
0010
,  // measure 23
1000
0000
0010
0000
0001
1000
0001
0000
0100
0010
0100
0000
0000
0000
0001
0000
,  // measure 24
1000
0100
0010
0000
0001
0100
0010
0000
1001
0000
0010
0100
0010
0000
0000
0000
,  // measure 25
1100
0001
0100
0010
0101
0000
1100
0000
,  // measure 26
1010
0001
0010
0100
0011
0000
1010
0001
,  // measure 27
1000
0100
0011
0100
1000
0000
0110
0001
,  // measure 28
1000
0010
0001
0010
1100
0000
0101
0010
,  // measure 29
1001
0010
1000
0010
1100
0000
0011
0100
,  // measure 30
0001
0100
1010
0001
1100
0000
0101
0010
,  // measure 31
1000
0001
0110
0001
0110
1000
0101
1000
,  // measure 32
0010
0000
1000
0000
0101
0000
0010
0000
0100
0010
0100
0010
0100
0000
0000
0000
,  // measure 33
0002
0000
0000
0000
1003
0100
1000
0100
2000
0000
0000
0000
3001
0100
0001
0100
,  // measure 34
0002
0013
0110
0000
,  // measure 35
2000
0000
0000
0000
3001
0010
0001
0010
0002
0000
0000
0000
1003
0010
1000
0010
,  // measure 36
2000
0000
3010
0000
0110
0001
1000
0001
,  // measure 37
2000
0000
0000
0000
3100
0010
0100
0000
0020
0000
0000
0000
0031
0100
0001
0000
,  // measure 38
0200
0000
0000
0000
0310
1000
0010
0000
0101
0000
0000
0000
0000
0000
0000
0000
,  // measure 39
0010
0001
0010
0000
0100
1000
0100
0000
0001
0100
0001
0000
1000
0010
1000
0000
,  // measure 40
1001
0000
0110
0000
1001
0010
0100
0010
,  // measure 41
0001
0100
0001
0000
0010
0000
0001
0100
0001
0000
1000
0000
0010
0000
1000
0000
,  // measure 42
0000
0000
1000
0100
1000
0000
0001
0000
0010
0000
0100
0000
1000
0000
0100
0000
,  // measure 43
1000
0010
1000
0000
0010
0000
1000
0000
0001
0010
0001
0000
0010
0000
0001
0000
,  // measure 44
0110
1000
0011
1000
0101
0000
1010
0000
,  // measure 45
1000
0010
1000
0000
0100
0000
1000
0010
1000
0000
0001
0000
0100
0000
0001
0000
,  // measure 46
0000
0001
0010
0100
1001
0100
1001
0000
,  // measure 47
0100
0000
0000
0001
0010
1000
0001
0100
,  // measure 48
1000
0010
1000
0000
0001
0100
0010
0000
1010
0000
0000
0000
1100
0000
0000
0000
,  // measure 49
0011
0100
1000
1010
0000
0011
0000
0010
,  // measure 50
1100
0010
0101
0000
1001
0000
0010
0000
,  // measure 51
0100
1000
0100
0000
0010
0000
0001
0000
0100
0001
0100
0000
0010
0000
1000
0000
,  // measure 52
0010
1000
0001
0000
0010
0001
0100
0000
0001
0000
0010
0100
1000
0000
0001
0000
,  // measure 53
1001
0000
0001
0101
0000
1000
1100
0010
,  // measure 54
0100
1000
0001
0100
0012
1000
0103
0000
,  // measure 55
1100
0000
0010
0001
1000
0010
0100
0001
,  // measure 56
0010
1000
0001
0100
2000
0000
3002
0000
,  // measure 57
1003
1100
0001
0101
,  // measure 58
1000
0010
1000
0000
0001
0000
0010
0000
1000
0000
0010
0000
0100
0000
0000
0000
,  // measure 59
0001
0101
1000
1100
,  // measure 60
0001
0010
0001
0000
0010
0000
1000
0000
0010
0000
0100
0000
1000
0000
0000
0000
,  // measure 61
0010
1010
0100
0101
,  // measure 62
0001
0010
0100
1000
0010
0100
0001
0010
,  // measure 63
0100
1000
0100
0000
1000
0000
0100
0000
1000
0100
1000
0000
0110
0000
0000
0000
,  // measure 64
0010
0001
0010
0000
0001
0000
0010
0000
0001
0010
0001
0000
0110
0000
0000
0000
,  // measure 65
0001
0101
1000
1010
,  // measure 66
0001
0100
1000
0100
0010
1000
0100
0000
,  // measure 67
0100
1100
0010
0011
,  // measure 68
0001
1000
0001
1000
0100
0010
0100
0000
,  // measure 69
1000
0100
1000
0000
0001
0100
0001
0000
,  // measure 70
0010
0001
1000
0010
0001
1000
0100
0000
,  // measure 71
0001
0010
1000
0001
0100
1000
0100
0000
,  // measure 72
1000
0010
0001
1000
0100
0001
0100
0000
,  // measure 73
0010
1010
0101
1010
,  // measure 74
1001
0100
0010
0100
0001
0010
0100
1000
,  // measure 75
0011
1100
0011
1100
,  // measure 76
0001
0010
1000
0010
0001
0100
1010
0000
,  // measure 77
1100
0011
1100
0011
,  // measure 78
1000
0010
0001
0010
0100
0001
0010
0000
,  // measure 79
0100
1000
0001
0100
1000
0100
0001
0010
,  // measure 80
0001
0100
0001
0000
1000
0000
0010
0000
1000
0000
0000
0000
0110
0000
0000
0000
;

//---------------dance-single - ----------------
#NOTES:
     dance-single:
     :
     Easy:
     6:
     0.458,0.563,0.402,0.152,0.000:
0000
0000
0000
0000
,
0000
0000
0000
0000
,
0000
0000
0000
0000
,
0000
0000
0000
0000
,
2000
0100
0001
0100
,
0001
0100
0001
3000
,
0002
0100
1000
0100
,
1000
1000
1000
0003
,
2000
0010
0100
0010
,
0100
0100
0001
3000
,
0002
0100
0010
0010
,
1000
0010
0100
0003
,
0000
1000
0100
0000
,
0001
0100
0001
0000
,
0010
0000
0100
0000
,
1000
0001
1000
0000
,
0010
0100
0010
0000
,
0110
1001
0110
0000
,
0001
0010
0100
1000
,
0001
1000
0001
0000
0100
0000
0000
0000
,
0010
1000
0010
1000
,
0001
0100
0001
0100
,
0001
0011
1000
1010
,
1001
0110
1001
0000
,
0001
0100
0001
0000
,
1000
0100
1000
0110
,
0001
0010
0001
0000
,
1000
0010
1000
0110
,
1000
0100
0001
0000
,
1000
0010
0001
0110
,
0001
0100
1000
0000
,
0001
0010
1000
0110
,
2000
0000
3100
0000
,
0002
0000
0103
0000
,
0010
0100
0110
1000
,
0001
1001
0110
1001
,
0002
0000
0013
0000
,
2000
0000
3010
0000
,
0001
0101
1000
1100
,
0110
1001
0110
0000
,
1000
1100
1000
1100
,
1000
0000
1100
0000
1000
0100
1000
0000
,
0001
0001
1000
1000
,
0010
0110
0100
0000
,
0001
0011
0001
0011
,
0001
0000
0011
0000
0001
0010
0001
0000
,
1000
0000
0001
0000
,
1000
0010
0001
0000
,
1000
1100
0001
0101
,
2000
3200
0302
0003
,
1000
0000
0010
0000
,
0001
0000
0010
0100
,
0001
0011
1000
1010
,
0002
0023
2030
3000
,
0010
0000
0001
0000
,
1000
0001
1000
0001
,
0100
0101
0100
1100
,
0100
0100
0100
0000
,
0001
0101
0100
1100
,
0100
0100
0100
0000
,
0010
1000
0010
1000
,
0001
1000
0001
1000
,
0100
0010
0100
0010
,
0001
0100
0001
0000
,
1000
0100
1000
0000
,
0001
0100
0001
0000
,
0010
0100
0010
0000
,
0100
0010
0100
0000
,
0001
0010
0001
0000
,
1000
0010
1000
0000
,
0001
0100
0001
0000
,
1000
0100
1000
0000
,
0001
0000
0100
0000
,
0010
0000
1000
0000
,
0100
0000
1000
0000
,
0001
0000
0100
0000
,
0010
0000
1000
0000
,
0100
0000
0010
0000
,
0001
0000
1000
0000
,
0001
1000
0001
1001
;

//---------------dance-single - ----------------
#NOTES:
     dance-single:
     :
     Beginner:
     5:
     0.335,0.432,0.109,0.109,0.000:
0000
0000
0000
0000
,
0000
0000
0000
0000
,
0000
0000
0000
0000
,
0000
0000
0000
0000
,
0000
0010
0000
0010
,
0000
0010
0000
0010
,
0000
0100
0000
0100
,
0100
0100
0100
0000
,
0000
0001
0000
0001
,
0000
0001
0000
0001
,
0000
1000
0000
1000
,
1000
1000
1000
0000
,
0000
0100
0100
0000
,
0010
0010
0010
0000
,
0000
0001
0001
0000
,
1000
1000
1000
0000
,
0000
0010
0010
0000
,
0100
0100
0100
0000
,
0000
0001
0001
0000
,
1000
1000
1000
0000
,
0100
0000
0000
0000
,
0010
0000
0000
0000
,
0001
0000
1000
0000
,
1001
1001
1001
0000
,
0000
0010
0010
0000
,
0100
0100
0100
0000
,
0000
1000
1000
0000
,
0001
0001
0001
0000
,
0000
0100
0100
0000
,
0010
0010
0010
0000
,
0000
0001
0001
0000
,
1000
1000
1000
0000
,
0200
0000
0300
0000
,
0020
0000
0030
0000
,
0002
0000
0003
0000
,
2000
0000
3000
0000
,
0220
0000
0330
0000
,
2002
0000
3003
0000
,
0110
0000
0110
0000
,
0220
0000
0330
0000
,
0001
0001
0001
0000
,
1000
1000
1000
0000
,
0100
0100
0100
0100
,
0100
0100
0100
0000
,
0010
0010
0010
0000
,
0001
0001
0001
0000
,
1000
1000
1000
1000
,
1000
1000
1000
0000
,
0010
0010
0010
0000
,
0100
0100
0100
0000
,
0001
0001
0001
0001
,
0001
0001
0001
0000
,
1000
1000
1000
0000
,
0100
0100
0100
0000
,
0010
0010
0010
0010
,
0010
0010
0010
0000
,
0100
0100
0100
0100
,
0100
0100
0100
0100
,
0100
0100
0100
0100
,
0100
0100
0100
0000
,
0010
0010
0010
0010
,
0010
0010
0010
0010
,
0010
0010
0010
0010
,
0010
0010
0010
0000
,
0001
0001
0001
0000
,
1000
1000
1000
0000
,
0100
0100
0100
0000
,
0010
0010
0010
0000
,
0001
0001
0001
0000
,
0100
0100
0100
0000
,
0010
0010
0010
0000
,
1000
1000
1000
0000
,
0100
0000
0100
0000
,
0010
0000
0010
0000
,
0001
0000
0001
0000
,
1000
0000
1000
0000
,
0010
0000
0010
0000
,
0100
0000
0100
0000
,
0001
0000
1000
0000
,
1001
0000
0110
0000
;

//---------------dance-double - ----------------
#NOTES:
     dance-double:
     :
     Challenge:
     9:
     0.741,0.779,0.651,0.065,0.000:
00000000
00000000
00000000
00000000
,
00000000
00000000
00000000
00000000
,
00000000
00000000
00000000
00000000
,
00010000
00001100
00001000
01010000
,
00100000
00000000
10000000
01000000
00100000
00100000
00001000
01000000
,
00010000
00010000
00100000
01000000
10000000
00000000
10000000
00100000
,
00010000
00000000
00100000
00010000
00001000
00010000
00000000
00001000
,
00000100
00000001
00000010
00000100
00001000
00000000
00000000
00000000
,
00000100
00000000
00000001
00000010
00000100
00000100
00010000
00000010
,
00001000
00001000
00000100
00000010
00000001
00000000
00000001
00000100
,
00001000
00000000
00000100
00001000
00010000
00001000
00000000
00010000
,
00100000
10000000
01000000
00100000
00010000
00000000
00000000
00000000
,
00000000
00001000
01000000
00001000
00010000
00000000
00100000
00010000
,
00100000
00000000
00001000
00010000
00001000
00000000
00000010
00000100
,
00000000
00000100
00000010
00000000
00001010
00000000
00000001
00000010
,
00010000
00000010
00000100
00001000
00000100
00000000
00000011
00000000
,
00001100
00000000
00000001
00000100
00000001
00000000
00000100
00010000
,
00000100
00000000
00011000
00000000
00101000
00000000
00100000
01000000
,
00000000
01000000
00010000
00000000
10000000
00000000
10000000
01000000
,
11000000
00000000
01010000
00000000
00101000
00000000
00000000
00100000
,
01000000
00000000
10000000
00100000
00001000
00001000
00010000
00001000
,
00000100
00000100
00000010
00010000
00001000
00000000
00010000
00001000
,
01000000
01000000
00001000
00010000
00100000
00010000
00001000
00000100
,
00000010
00000010
00001000
00000100
00010000
00000000
00000000
00000000
,
00000000
00010000
00000010
00010000
00001000
00000000
00000100
00001000
,
00000100
00000000
00010000
00001000
00010000
00000000
01000000
00100000
,
00000000
00100000
01000000
00000000
01010000
00000000
10000000
01000000
,
00001000
01000000
00100000
00010000
00100000
00000000
11000000
00000000
,
00110000
00000000
10000000
00100000
10000000
00000000
00100000
00001000
,
00100000
00000000
00011000
00000000
00010100
00000000
00000100
00000010
,
00000000
00000010
00001000
00000000
00000001
00000000
00000001
00000010
,
00000011
00001010
00010100
00000000
,
00000020
00000000
00000001
00000000
00000130
00000000
00010000
00001000
,
00020000
00000000
00030000
00001000
00010000
00000000
00011000
00000000
,
00010000
01010000
00010000
00011000
,
00010000
00010100
00120000
00030000
,
02000000
00000000
10000000
00000000
03100000
00000000
00001000
00010000
,
00002000
00000000
00003000
00010000
00001000
00000000
00011000
00000000
,
00001000
00001010
00001000
00011000
,
00001100
00101000
00002100
00003000
,
00110000
00000000
00100000
01000000
00000000
01100000
00000000
01010000
,
00000000
10000000
01000000
00100000
00001000
00000000
01000000
00000000
,
00100000
00100000
00010000
00000100
00000010
00000010
00001000
00000010
,
00000001
00000001
00000100
00010000
00011000
00000000
00001100
00000000
,
00000101
00000000
00000001
00000010
00000000
00000001
00000100
00010000
,
00000000
00001000
00000100
00000010
00010000
00010000
00001000
00000000
,
00100000
00000000
00010000
01000000
00010000
00100000
01000000
10000000
,
00100000
00010000
00001000
00000100
00000010
00000000
00001010
00000000
,
00000101
00000000
00001000
00000100
00000000
00000010
00001000
00010000
,
00000000
00001000
01000000
00000000
10100000
00000000
01010000
00000000
,
10000000
10000000
01000000
00100000
00001000
00001000
01000000
00100000
,
00010000
00010000
00001000
00010000
00000100
00000000
00001100
00000000
,
00011000
00000000
00001000
00000010
00000000
00000100
00000001
00000100
,
00000000
00000001
00000010
00000100
00001000
00000000
00001010
00000000
,
00010100
00000000
00001000
00100000
00000000
00100000
10000000
00100000
,
00010000
00000000
01000000
00000000
00010000
10000000
01000000
00000000
,
00010000
00110000
10000000
11000000
,
10000000
00010000
10000000
00100000
00010000
00001000
00010000
00000000
,
00000010
00001010
00000100
00000101
,
00000001
00000010
00000001
00000010
00010000
00000010
00000100
00000000
,
00001000
00000000
00101000
00000000
00101000
00000000
00100000
01000000
,
00000000
11000000
00000000
00100000
00001000
00000000
00101000
00000000
,
00010100
00000000
00010000
00000010
00010000
00000000
00000010
00000100
,
00000000
00000101
00000000
00000001
00000010
00000100
00001000
00000000
,
00010000
00000000
00010100
00000000
00010100
00000000
00000100
00000010
,
00000000
00000011
00000000
00000100
00010000
00000000
00010100
00000000
,
00101000
00000000
00001000
01000000
00001000
00000000
01000000
00100000
,
00000000
10100000
00000000
10000000
01000000
00100000
00010000
00000000
,
10000000
00100000
00010000
00001000
,
00000100
00000000
00000010
00000000
00001000
00000001
00001000
00000000
,
00000010
00000100
00001000
00000100
,
00000001
00000000
00000010
00000000
00000100
00010000
00000100
00000000
,
00001000
00000010
00010000
01000000
,
10000000
00000000
00100000
00000000
00010000
00001000
00010000
00000000
,
00100000
10000000
01000000
00001000
,
00000010
00000000
00000001
00000000
00000010
00000100
00000010
00000000
,
00001000
00000001
00000010
00000100
,
00001000
00000000
00000010
00000000
00010000
00000100
00001000
00000000
,
00000100
00010000
00001000
00010000
00000100
00000000
00010000
00000000
,
00001000
01000000
00010000
00100000
00001000
00000000
00010100
00000000
;
