#TITLE:片翼の鳥;
#SUBTITLE:;
#ARTIST:うみねこのなく頃に;
#TITLETRANSLIT:Katayoku no Tori;
#SUBTITLETRANSLIT:;
#ARTISTTRANSLIT:Hommarju feat. mamiko;
#GENRE:;
#CREDIT:AznPunk07/Frozen_Heat/GuardianFrozen;
#MENUCOLOR:#ffcc00;
#METERTYPE:DDR;
#BANNER:Katayoku no Tori-bn.png;
#BACKGROUND:Katayoku no Tori-bg.png;
#LYRICSPATH:;
#CDTITLE:!cdtitle.png;
#MUSIC:Katayoku no Tori.mp3;
#OFFSET:-0.068;
#SAMPLESTART:56.220;
#SAMPLELENGTH:20.000;
#SELECTABLE:YES;
#LISTSORT:;
#BPMS:0.000=220.000,168.000=110.000,186.000=55.000,187.000=110.001,188.000=220.000;
#STOPS:;
#BGCHANGES:;
#ATTACKS:;

//---------------dance-single - ----------------
#NOTES:
     dance-single:
     :
     Hard:
     8:
     0.642,0.772,0.800,0.448,0.000:
0010
0000
0001
0100
0000
0000
1010
0000
,
0100
0000
0011
0000
0100
0000
1000
0010
,
0000
0101
0010
1100
,
0010
0000
0001
1000
0000
0000
0011
0000
,
1010
0100
1001
0110
,
1001
0110
0000
0000
,
1001
0000
0001
0100
0000
0001
0010
0000
,
1100
0000
0011
0000
1001
0000
1000
0010
,
0000
1000
0100
0000
0011
0000
1100
0000
,
1001
0000
0100
0010
0000
0000
1100
0000
,
0101
0011
1010
1001
,
0110
1001
0000
0000
,
0010
0000
1000
1000
,
0000
0000
0001
0000
0001
0000
0000
0010
,
0100
0100
0010
0001
,
1000
0000
0000
1000
0010
0000
0100
0000
,
0000
0001
0010
0000
0100
0000
0000
0000
,
1000
0000
0001
0000
1000
0001
1000
0000
,
0110
0000
0000
1000
0100
0000
1100
0000
,
0000
0000
0010
0000
0100
0000
0000
0001
,
0010
0100
0110
1001
,
0020
0000
0100
0100
,
0200
0000
0300
0000
,
0000
0030
0000
0000
,
1001
0010
0100
1001
,
0100
0000
0010
0000
1001
0000
0000
0010
,
0100
0000
1001
0000
0000
0000
0001
0100
,
0001
0000
0000
1000
0100
0000
1000
0000
,
0010
0001
0010
0010
,
0100
0110
0000
0000
,
0001
0000
0000
0001
0010
0000
1000
0000
,
0010
0000
0001
0000
1000
0000
0000
1000
,
0010
0001
0010
1000
,
0001
0101
1000
1100
,
1001
0010
0100
0100
,
0010
0110
1001
0110
,
1100
0000
0100
0001
0000
0001
0100
0000
,
0010
0001
2000
0010
,
0001
3200
0010
1300
,
0011
0000
0010
1000
0000
1000
0010
0000
,
0100
1000
0002
0100
,
1000
0023
0001
0130
,
0002
0000
0000
0023
0000
0000
0230
0000
,
0000
2300
0000
0000
3020
0000
0001
0001
,
0000
0100
0100
0000
0000
1000
0000
1000
,
1000
0000
0000
0000
,
0000
0000
0030
0000
,
1002
0010
0100
1003
,
1010
1100
0101
0011
,
2001
3010
0110
1010
,
0101
1001
1200
0010
,
0301
0011
1020
0100
,
0031
2100
0001
3100
,
0001
0010
0001
0010
1100
0000
1000
0010
,
1000
0010
0101
0000
1000
0001
1000
0001
,
0110
0012
0100
1003
,
2100
0010
3001
0210
,
0001
0010
1000
0301
,
1000
1010
0001
0011
,
1001
0000
0100
0010
0100
0010
1000
0000
,
0001
0010
0001
0000
0100
0000
0010
0000
,
1000
0000
0100
1000
0010
1000
0010
0000
,
0100
0000
0001
0000
0010
0000
0001
1000
,
0001
1000
0001
0000
0100
0000
0010
0000
,
1000
0000
0100
0010
0001
0010
0100
0000
,
1001
0010
0100
0012
,
0100
1003
2010
0100
,
3001
0120
1000
0031
,
0210
0000
0001
0320
,
0000
0000
0130
0000
1000
0100
0010
0001
,
1000
0002
1000
1003
,
1001
0000
0010
0100
0010
0000
0002
0000
,
0000
0000
2003
0000
,
0000
3002
0000
0000
,
2003
0100
0010
3002
,
0010
0100
0023
0001
,
1000
0230
0001
0010
,
1300
0000
0001
1000
0001
0000
2000
0000
,
0000
0000
3002
0000
,
0000
2003
0000
0000
,
3002
0010
0100
2003
,
0100
0000
0010
0000
3100
1000
0200
0000
,
0001
0000
0310
1000
0020
0000
0100
0000
,
0031
0000
1000
0100
0001
0000
2020
0000
,
0000
3030
0022
0000
,
0033
2002
0000
3003
,
0110
1001
0110
1010
,
0101
1010
0011
1100
,
0011
0000
1001
0010
0100
1000
0010
0001
,
0220
0000
0000
0000
,
0330
0000
0000
0000
;

//---------------dance-single - ----------------
#NOTES:
     dance-single:
     :
     Challenge:
     10:
     0.876,0.975,0.800,0.200,0.148:
0101
0000
1000
0100
0000
0001
0010
0000
,
1100
0000
0101
0000
1010
0000
0001
0010
,
0000
1000
0100
0000
0011
0000
1010
0000
,
0110
0000
1000
0001
0000
0010
0100
0000
,
1001
0110
0011
1010
,
1100
0101
0000
0000
,
1001
0000
1000
0010
0000
0010
0002
0000
,
0203
0000
1300
0000
1001
0000
1000
0100
,
0000
0100
0002
0000
0023
0000
1030
0000
,
1001
0000
0100
0010
0000
0001
1000
0000
,
1010
0011
0101
1100
,
1001
0220
0000
0330
,
1000
0000
0000
1000
0100
0000
1000
0000
,
0000
1000
0010
0000
1000
0000
0000
1000
,
0100
0000
1000
0001
1000
0000
0010
0000
,
0001
0000
0000
0001
0010
0000
0001
0000
,
0000
0000
0001
0000
0100
0000
0000
0001
,
0010
0000
0001
0000
0001
1000
0001
0000
,
1001
0000
1000
0010
1000
0000
0001
0000
,
0001
0010
0001
0000
1000
0000
1000
0100
,
1000
0100
0010
0000
0000
0001
0100
0000
,
0001
0010
0001
0100
,
0001
1000
0001
0000
1000
0000
0000
0000
,
0000
0000
0000
0000
,
1100
0101
1100
0010
,
0100
0000
0010
0000
1001
0000
0000
0010
,
0100
0000
1001
0000
0010
0000
1000
0100
,
1000
0000
0010
0100
0001
0000
0010
0000
,
0110
1100
0101
0010
,
0100
0000
1000
0000
0001
0100
0001
0000
,
0010
0001
0100
0001
1000
0100
1000
0000
,
1010
0000
0011
0000
0010
1000
0100
1000
,
0001
0100
0001
0000
0011
0000
1010
0000
,
1001
0100
0010
1001
,
0010
0000
0000
0000
0100
0000
0000
0000
1000
0001
1000
0000
0001
1000
0001
0000
,
0100
0100
0010
0100
0010
0100
0010
0010
,
1100
0000
0010
0101
0000
0010
1001
0000
,
0110
1001
0020
1000
,
0100
0032
0100
1003
,
0011
0000
0100
1010
0000
0100
1001
0000
,
0110
1001
0200
0001
,
0010
2300
0010
3001
,
1001
0000
0010
0100
1000
0001
1000
0000
,
0001
0000
0100
0000
0001
0000
0010
0000
0100
0000
0000
0001
0010
0000
0001
0000
,
0000
1000
0010
0000
1000
0000
0000
0000
0000
0000
0100
0000
0000
0000
0020
0000
,
0200
0000
0000
0000
,
0000
0000
0330
0000
,
1001
0000
0010
1000
0100
1000
0010
0100
,
0001
0010
0100
1000
0001
0000
0100
0001
,
0010
0001
0010
0100
1000
0010
0100
0001
,
1000
0000
0001
0010
1000
0001
0100
1000
,
0010
0100
0001
1000
0100
0010
0001
1000
,
0010
0000
1000
0000
0001
0010
0001
0000
0100
0010
0100
0000
0010
1000
0010
0000
,
1001
0010
0100
1000
0010
0001
1100
0010
,
0100
0001
1000
0100
0011
1000
0001
0100
,
0010
1000
0110
0001
1000
0001
0010
0100
,
1001
0100
0010
0000
1100
0000
0101
0000
,
0010
0100
0010
0000
1100
0000
0011
0000
,
1001
0000
0000
0000
0010
0000
0010
0000
0100
0000
0100
0000
0001
0000
1000
0001
,
1000
0000
0010
0000
1000
0100
0010
0001
1000
0000
0001
0000
0010
0000
0001
0000
,
0100
0010
1000
0010
0001
0010
0100
0010
,
1000
0100
0010
0001
1000
0100
0010
0100
,
0001
0100
0010
0100
1000
0001
0100
0010
,
1000
0010
1100
0010
,
0100
1001
0010
0101
,
0011
0000
0100
0000
0100
0000
1000
0001
,
1000
0001
0110
0000
0001
1000
0001
1000
,
0110
0000
1000
0100
0010
0001
0110
0000
,
1001
0000
0000
0000
0001
0010
0001
0000
0100
0000
0010
0000
1000
0100
1000
0000
,
0010
0100
0010
0100
0001
0010
0100
0100
,
1000
1000
0001
0001
0100
0100
0010
0000
,
1001
0010
0100
1000
0010
0100
0002
0010
,
1003
0010
0001
1000
0020
0001
0130
0001
,
1000
0100
0002
0010
1003
0010
0001
0000
,
1100
0010
1100
0001
0100
0000
1001
0010
,
1001
0100
0001
0000
0101
0010
0101
1000
,
0010
0000
1001
0010
1100
0010
0001
0000
,
1001
0100
0010
0001
0100
0010
2000
0100
,
3001
0100
1000
0001
0200
1000
0310
1000
,
0001
0000
0010
0000
2000
0000
0100
0001
3100
0000
1000
0100
1000
0000
0010
1000
,
0010
0100
0011
1000
0010
0000
1001
0100
,
1001
0010
1000
0000
1010
0100
1010
0001
,
0100
0000
1001
0100
0011
0100
1000
0000
,
0001
0000
0010
0000
0001
0010
1000
0010
0001
0000
0100
0000
2000
0000
0001
0000
,
3010
1000
0100
0010
0002
1000
0013
0001
,
1000
0100
0020
1000
0130
1000
0001
0001
,
0100
0100
0010
0010
1000
1000
0100
0100
,
0010
0000
0010
0000
0001
1000
0001
1000
0010
0100
0010
0100
0001
0010
0001
0010
,
0100
1000
0100
1000
0010
1000
0010
1000
0001
0100
0001
0100
0010
1000
0100
0010
,
0001
0000
0000
0000
;

//---------------dance-single - ----------------
#NOTES:
     dance-single:
     :
     Medium:
     7:
     0.465,0.557,0.162,0.343,0.000:
0010
0000
0000
0010
0000
0000
1000
0000
,
0100
0000
0001
0000
0010
0000
0000
0010
,
0000
0001
0100
1000
,
0010
0000
0000
0010
0000
0000
1000
0000
,
0100
0001
1000
0010
,
0001
0100
0000
0000
,
0001
0000
0001
0010
0000
0010
0001
0000
,
0100
0000
0001
0000
1000
0000
1000
0100
,
0000
0100
1000
0000
0010
0000
0100
0000
,
0001
0000
0010
0100
0000
0100
1000
0000
,
0010
0100
0001
1000
,
0001
1001
0000
0000
,
0200
0000
0000
0310
,
0000
0000
1000
0001
,
0100
0010
0000
0000
,
0002
0000
0000
1003
,
0000
0000
0100
0010
,
0001
1000
0000
0000
,
0002
0100
1000
0100
,
0000
0000
2003
0100
,
0001
0100
0000
0010
,
3200
0000
0010
0010
,
0010
0000
0300
0000
,
0000
0000
0000
0000
,
0001
0100
1000
0100
,
0001
0010
0100
1000
,
0010
0001
0000
0010
,
1000
0100
1000
0001
,
0100
0001
0010
1000
,
0001
0100
2000
0000
,
3010
0001
0010
0100
,
0100
0100
0001
1000
,
0100
0010
0010
0010
,
0100
0000
0110
1001
,
0000
1001
0110
0000
,
0000
2002
0000
3003
,
0010
0000
0000
0010
0000
0000
0010
0000
,
0010
0000
0020
1000
,
0030
0020
0001
0030
,
0100
0000
0000
0100
0000
0000
0100
0000
,
0100
0000
0200
0001
,
0300
0200
1000
0300
,
0002
0000
0000
1003
0000
0000
0020
0000
,
0000
0130
0000
0000
0200
0000
0000
0310
,
0000
0000
2000
0000
0000
3001
0000
0010
,
2002
0000
0000
0000
,
0000
0000
3003
0000
,
0001
0010
0001
0100
,
0001
0001
0010
0100
,
1000
0010
1000
1000
,
0010
0100
0001
1000
,
0100
0100
0020
0001
,
0031
0200
1000
1300
,
0001
0100
0001
0000
1010
0000
1000
0100
,
1000
0011
0001
0101
,
1000
1100
0010
1000
,
0002
0010
0013
2000
,
0100
3100
0010
0001
,
1000
0000
0010
0100
0010
0000
0100
0010
,
0100
0200
0300
0010
,
1000
0001
0010
0100
,
1000
0000
0001
1000
,
0001
0010
0100
0000
,
0000
1000
0010
0000
,
0000
0001
0000
0010
,
0001
0100
0010
1001
,
0010
0100
1001
0100
,
0010
1001
0010
0100
,
0010
0010
0100
0010
,
0010
0001
1000
0010
,
0100
0000
0001
1000
0001
1000
0001
1000
,
0001
0000
0000
0020
,
1000
0030
0020
0100
,
0030
0020
0001
0030
,
1000
0100
0001
0100
,
1000
0010
0001
0010
,
1000
0100
0001
0100
,
1000
0000
0000
0200
,
0001
0300
0200
0010
,
0300
0200
1000
0300
,
0001
0010
1000
0010
,
0001
0100
1000
0100
,
0001
0010
1000
0010
,
0001
0000
0000
0202
,
0000
0303
2020
0000
,
3030
2002
0000
3003
,
1000
0100
0001
0010
,
1000
0001
0100
1000
,
0010
0000
0001
0100
0010
1000
0100
0010
,
0200
0000
0000
0000
,
0300
0000
0000
0000
;

//---------------dance-single - ----------------
#NOTES:
     dance-single:
     :
     Easy:
     5:
     0.320,0.381,0.086,0.238,0.000:
0000
0000
0000
0000
,
0000
0000
0000
0000
,
0000
0000
0000
0000
,
0000
0000
0000
0000
,
0000
0000
0000
0000
,
0000
0000
0000
0000
,
0010
0000
0000
0010
0000
0000
1000
0000
,
0100
0000
0001
0000
0010
0000
0000
0010
,
0000
0001
0100
1000
,
0010
0000
0000
0010
0000
0000
1000
0000
,
0001
0010
0100
1000
,
0001
0100
0000
0000
,
0020
0000
0000
0030
,
0000
0000
2000
0000
,
0000
3000
0000
0000
,
0002
0000
0000
0003
,
0000
0000
0200
0000
,
0000
0300
0000
0000
,
0001
0000
0001
0100
,
0000
0000
1000
0000
,
1000
0100
0000
0010
,
0100
0000
0100
0010
,
0000
0000
2002
0000
,
0000
3003
0000
0000
,
1000
1000
0000
0001
,
0001
0000
0010
0100
,
0010
0100
0000
0000
,
0001
0001
0000
1000
,
1000
0000
0100
0010
,
0100
0010
0000
0000
,
0001
0100
1000
0100
,
0001
0000
1000
0100
,
0001
0100
1000
0000
,
0020
0000
0000
0230
,
0000
0000
0301
1000
,
0001
1001
0000
0000
,
0010
0000
0000
0010
0000
0000
0010
0000
,
0000
0000
2000
0000
,
0000
3002
0000
0000
,
0013
0000
0000
0010
0000
0000
0010
0000
,
0000
0000
0002
0000
,
0000
2003
0000
0000
,
3100
0000
0000
0010
,
0000
0000
0001
0000
,
0000
1000
0000
0000
,
0010
0000
0000
0000
,
0000
0000
0000
0000
,
1000
0100
1000
0100
,
0000
0000
0001
0100
,
0001
0100
0000
0000
,
1000
0001
1000
0001
,
0000
0000
0010
0100
,
0010
1000
0001
1000
,
0100
0010
0001
1000
,
0100
0010
0001
0100
,
0010
0100
0010
1000
,
0001
0010
0100
1000
,
0000
0001
1000
0100
,
0010
0001
0000
0000
,
0100
0020
0030
0000
,
1000
0001
0010
0100
,
0010
0000
0001
1000
,
0010
0001
1000
0000
,
0000
0100
0001
0000
,
0001
0010
0000
0010
,
0100
0000
0100
1000
,
1000
1000
0001
0001
,
0001
0100
0010
0100
,
0100
0010
1000
0001
,
0010
0010
0100
1000
,
0001
1001
0000
0000
,
0110
0000
0000
0020
,
0000
0030
0020
0000
,
0030
0020
0000
0030
,
1000
0000
1000
0100
,
0000
0100
0010
0000
,
0010
0001
1000
0001
,
0001
0000
0000
0020
,
0000
0030
0020
0000
,
0030
0020
0000
0030
,
0001
0000
0001
0100
,
0000
0100
0010
0000
,
0010
1000
0001
1000
,
1001
0000
0000
0220
,
0000
0330
2002
0000
,
3003
0220
0000
0330
,
1000
0100
1000
0001
,
0100
0001
1000
0100
,
0010
0001
0100
0010
,
1001
0000
0000
0000
;

//---------------dance-single - LIFTS----------------
#NOTES:
     dance-single:
     LIFTS:
     Edit:
     9:
     0.747,0.805,0.867,0.305,0.000:
1001
0000
0000
010L
0L10
0000
1010
0000
,
0101
0000
1001
0000
1100
0000
0000
0L10
,
00L1
0011
1100
0101
,
1001
0000
0000
L001
010L
0000
0010
1000
,
0100
1000
0010
0000
01L0
0000
000L
00L0
,
1L00
1001
0000
0000
,
1001
0000
001L
0001
0000
0001
010L
0000
,
L000
0L00
001L
0000
1001
0000
L010
1000
,
0000
1000
L100
0000
000L
0L00
L010
0000
,
0001
0000
0000
1001
0000
0000
0110
0000
,
1001
0000
0110
0000
0000
000L
00L0
0L00
,
L001
0000
1001
0000
0000
L000
00L0
0L00
,
200L
0000
0001
3200
,
0000
1000
0320
0000
,
0100
0032
1000
0010
,
0203
0000
1000
0320
,
0000
0001
2030
0000
,
0001
0010
0100
3100
,
0001
0001
0001
0200
,
0000
0300
1000
1000
,
1000
0200
0000
0310
,
0001
0000
1000
0010
,
0001
0000
0110
0000
,
0000
0LL0
0000
0000
,
1000
L000
0L00
00L0
,
000L
L000
00L0
0L00
,
000L
01L0
0100
0100
,
0010
00L0
000L
L000
,
00L0
000L
L000
0L00
,
000L
0000
00L0
0000
1L00
0100
1000
0010
,
1000
0000
0001
0010
0100
0010
0001
0000
,
000L
0000
L000
0000
00L1
0000
0010
1000
,
0001
0010
0100
0000
0L00
0000
L000
0000
,
01L0
0110
0L01
0011
,
100L
0000
L010
0000
0110
1000
L000
000L
,
00L0
0L00
L000
00L0
0L00
000L
L000
000L
,
L001
0000
0001
0100
0000
0100
0001
0000
,
00L1
0L01
2001
0000
,
0000
3200
0000
0300
,
1000
0000
1000
0010
0000
0010
1000
0000
,
1L00
10L0
1002
0000
,
0000
0023
0000
0030
,
0200
0000
0000
0300
0000
0000
2000
0000
,
0000
3000
0000
0000
0020
0000
0000
0032
,
0000
0000
0203
0000
0000
2300
0000
0000
,
3020
0000
0000
0000
,
0000
0000
0000
0030
0000
0000
0000
0000
,
1000
0000
1000
L000
0L00
00L0
000L
0L00
,
00L0
L000
000L
00L0
L000
000L
0L00
L000
,
00L0
L000
00L0
L000
000L
00L0
0L00
L000
,
00L0
000L
L000
0L00
000L
0L00
000L
0L00
,
00L0
L000
000L
00L0
0L00
L000
0L00
00L0
,
000L
L000
000L
0L00
00L0
L000
000L
L000
,
000L
00L0
L010
0000
1001
0000
0001
000L
,
1L00
0000
1001
0000
1000
L000
0L01
0000
,
1001
0000
0010
00L0
L000
000L
00L0
0L00
,
L010
0100
0010
0100
0001
0010
0100
0L00
,
L000
00L0
0L00
000L
00L0
L000
00L0
000L
,
0L00
L000
0L10
1000
0001
1000
0001
0000
,
0020
0200
0030
03L0
0L10
0000
0001
0100
,
1000
0100
0001
0000
0000
L000
0L00
L000
,
1L00
0000
0001
0100
0001
0010
0100
0000
,
0000
00L0
000L
0L00
00L1
0000
0010
1000
,
0100
1000
0001
0000
0000
00L0
0L00
L000
,
01L0
0000
0001
0010
0100
1000
0001
0010
,
0100
1100
0001
1000
,
1010
1010
0001
0011
,
0011
0000
1000
L000
0L01
0000
0110
0000
,
0001
000L
1L00
0000
0110
0000
0000
L000
,
00L0
000L
L000
0L01
0010
00L0
0L00
L000
,
000L
00L0
L000
000L
1L00
0001
1000
0000
,
0002
0100
0100
2003
,
0100
0100
3020
0100
,
0100
0032
0100
0100
,
1003
L000
0L01
0000
0010
0000
0001
000L
,
10L0
0000
0100
0000
1000
L000
0L01
0000
,
0010
0000
0001
000L
10L0
0000
0010
0000
,
0001
1000
0001
1000
0001
0000
2000
0000
,
0010
0010
3002
0010
,
0010
0203
0010
0010
,
0301
000L
00L0
0L00
L001
0000
1000
L000
,
00L0
0L00
100L
0000
0000
0L00
00L0
000L
,
L000
00L0
000L
0LL0
L000
000L
0LL0
000L
,
L001
0000
0100
0010
0100
0000
0002
0000
,
1000
1003
0200
0010
,
0310
2000
0001
3001
,
0010
01L0
0L10
00L1
,
100L
0000
L001
0000
010L
0L00
00L0
L000
,
0L00
000L
0L00
00L0
L000
00L0
000L
0L00
,
101L
0000
0000
0000
;

//---------------dance-single - ----------------
#NOTES:
     dance-single:
     :
     Beginner:
     1:
     0.107,0.127,0.048,0.095,0.000:
0000
0000
0000
0000
,
0000
0000
0000
0000
,
0000
0000
0000
0000
,
0000
0000
0000
0000
,
0000
0000
0000
0000
,
0000
0000
0000
0000
,
0000
0000
0000
0000
,
0000
0000
0000
0000
,
0000
0000
0000
0000
,
0000
0000
0000
0000
,
0000
0000
0000
0000
,
0000
0000
0000
0000
,
0001
0000
0000
0000
,
0000
0000
0000
0000
,
0000
0000
0000
0000
,
1000
0000
0000
0000
,
0000
0000
0000
0000
,
0000
0000
0000
0000
,
0100
0000
0000
0000
,
0000
0000
0010
0000
,
0000
0000
0000
0000
,
0010
0000
0000
0100
,
0000
0000
0110
0000
,
0000
0000
0000
0000
,
0001
0000
0000
0000
,
0000
0000
0100
0000
,
0000
0000
0000
0000
,
0010
0000
0000
0000
,
0000
0000
1000
0000
,
0000
0000
0000
0000
,
0100
0000
0000
0000
,
0000
0000
0010
0000
,
0000
0000
0000
0000
,
1001
0000
0000
0000
,
0000
0000
0110
0000
,
0000
0000
0000
0000
,
0002
0000
0000
0003
,
0000
0000
0020
0000
,
0000
0030
0000
0000
,
2000
0000
0000
3000
,
0000
0000
0200
0000
,
0000
0300
0000
0000
,
0001
0000
0000
1000
,
0000
0000
0010
0000
,
0000
0100
0000
0000
,
1001
0000
0000
0000
,
0000
0000
0000
0000
,
0100
0000
0000
0000
,
0000
0000
0010
0000
,
0000
0000
0000
0000
,
1000
0000
0000
0000
,
0000
0000
0001
0000
,
0000
1000
0000
0000
,
0100
0000
0000
0000
,
0000
0000
0010
0000
,
0000
0000
0000
0000
,
0001
0000
0000
0000
,
0000
0000
0100
0000
,
0000
0010
0000
0000
,
1000
0000
0000
0000
,
0000
0000
0100
0000
,
0000
0000
0000
0000
,
0010
0000
0000
0000
,
0000
0000
0001
0000
,
0000
0100
0000
0000
,
0010
0000
0000
0100
,
0000
0000
0001
0000
,
0000
1000
0000
0000
,
0100
0000
0000
0000
,
0000
0000
0010
0000
,
0000
0000
0000
0000
,
0002
0000
0000
0003
,
0000
0000
2000
0000
,
0000
3000
0000
0000
,
0010
0000
0000
0100
,
0000
0000
0010
0000
,
0000
0100
0000
0000
,
2000
0000
0000
3000
,
0000
0000
0002
0000
,
0000
0003
0000
0000
,
0010
0000
0000
0100
,
0000
0000
0010
0000
,
0000
0100
0000
0000
,
2000
0000
0000
3000
,
0000
0000
0002
0000
,
0000
0003
0000
0000
,
0010
0000
0000
0100
,
0000
0000
1000
0000
,
0000
0001
0000
0000
,
0110
0000
0000
0000
;

//---------------dance-double - ----------------
#NOTES:
     dance-double:
     :
     Challenge:
     10:
     0.765,0.933,0.676,0.143,0.019:
00000000
00000000
00000000
00000000
,
00000000
00000000
00000000
00000000
,
00000000
00000000
00000000
00000000
,
00000000
00000000
00000000
00000000
,
00000000
00000000
00000000
00000000
,
00000000
00000000
00000000
00000000
,
00110000
00000000
00010000
01000000
00000000
01000000
00010000
00000000
,
00010100
00000000
00000110
00000000
00001010
00000000
00001000
00000100
,
00000000
00000100
00001000
00000000
01001000
00000000
01100000
00000000
,
00110000
00000000
00010000
01000000
00000000
00100000
10000000
00000000
,
01000000
00001000
01000000
00000000
00010000
00000010
00010000
00000010
,
00001000
00000001
00000010
00000100
00001000
00010000
00100000
01000000
,
10000000
00000000
00100000
00001000
00100000
00000000
10000000
00000000
,
01000000
00010000
01000000
00000000
00100000
00000000
00001000
00010000
,
00001000
00000000
00000010
00000100
00000010
00000000
00000001
00000000
,
00001000
00000000
00000010
00001000
00000010
00000000
00000001
00000000
,
00000100
00010000
00000100
00000000
00000010
00000000
00010000
00001000
,
00010000
00100000
10000000
00100000
,
00011000
00000000
00000100
00000010
00000100
00000010
00000001
00000000
,
00000001
00000100
00000001
00000100
00000010
00000000
00000010
00010000
,
00000010
00010000
00001000
00000000
00001000
00100000
00001000
00100000
,
01000000
10000000
00010000
01000000
,
10000000
01000000
00020000
00000000
,
00000000
00002000
00000000
00033000
,
00000011
00000011
00000100
00001010
,
00001010
00000100
00010010
00010010
,
00001000
01000000
00100000
00010000
,
11000000
11000000
00010000
00101000
,
00101000
00010000
01100000
01100000
,
00010000
00001000
00000100
00001000
,
00010000
00000000
10000000
00100000
00010000
00100000
10000000
00000000
,
01000000
00000000
00010000
00000000
00001000
00000000
00000100
00000010
,
00000001
00000100
00001000
00000000
00000100
00000000
00000001
00000000
,
00000011
00001100
00010000
00110000
,
11000000
00000000
10000000
00000000
00100000
00001000
00100000
01000000
,
00100000
00010000
00001000
00000100
00000010
00001000
00000001
00000010
,
00000100
00000000
00000100
00010000
00000000
00000100
00000010
00000000
,
00000011
00000101
00002000
00010000
,
00103000
02000000
10000000
03010000
,
00100000
00000000
00100000
00001000
00000000
00100000
01000000
00000000
,
11000000
10100000
00020000
00001000
,
00030100
00000020
00000001
00000130
,
00002000
00010000
00100000
00023000
00001000
00000100
00032000
00100000
,
01000000
00023000
00000100
00000010
00032000
00000010
00000100
00023000
,
00100000
01000000
00032000
00010000
00000100
00023000
00001000
00100000
,
00002000
00000000
00000000
00000000
,
00000000
00000000
00033000
00000000
,
00011000
00000000
00001000
00010000
00000100
00001000
00000010
00000100
,
00000001
00000010
00001000
00010000
00001000
00000010
00000001
00000100
,
00001000
00010000
00100000
10000000
00010000
10000000
01000000
00100000
,
01000000
10000000
00010000
01000000
00001000
00010000
00000010
00010000
,
01000000
10000000
00100000
00010000
00001000
00000100
00000010
00001000
,
00000001
00000010
00010000
00000010
00000100
00001000
00000010
00000000
,
00000101
00000100
00001000
00010000
00100000
00000000
11000000
01000000
,
00010000
00001000
00000010
00000000
00000011
00000010
00001000
00010000
,
01000000
00000000
10100000
00100000
00010000
00001000
00000100
00000000
,
00000011
00000100
00000001
00000010
00000100
00001000
00000100
00010000
,
00000100
01000000
00100000
10000000
00100000
01000000
00010000
00100000
,
10000000
00100000
00010000
00001000
00010000
00001000
00010000
00000000
,
00000010
00000000
00000100
00000000
00001000
00010000
00001000
00010000
00001000
00000000
00000100
00000000
00000010
00000000
00001000
00000000
,
00000001
00000010
00001000
00010000
01000000
10000000
01000000
00001000
,
01000000
00100000
00010000
00001000
00000100
00000010
00001000
00000001
,
00000010
00000100
00001000
00000100
00010000
00000010
00000001
00000010
,
00001000
00000001
00000100
00000010
00001000
00000100
00010000
01000000
,
00100000
00010000
10000000
00100000
00010000
00100000
10000000
00010000
,
00100000
00000000
01000000
10000000
01000000
00000000
00011000
00100000
,
01000000
00100000
00010000
00000000
00011000
00000100
00000010
00000100
,
00001000
00000000
00011000
01000000
00100000
01000000
00001000
00000000
,
00011000
00000010
00000100
00000010
00010000
00000000
00001000
00000100
,
00000010
00000001
00000010
00000000
00000001
00000100
00000001
00000100
,
00001000
00000100
00010000
00100000
00010000
00100000
10000000
00100000
,
10000000
00000000
01000000
00010000
01000000
00000000
00001000
00000000
,
00000010
00010000
00000010
00000000
00000100
00000000
00000001
00001000
,
00000001
00000000
00000010
00000000
00001000
00010000
00001000
00000000
,
00110000
00010100
00011000
00101000
,
00010100
00001010
01001000
11000000
,
00110000
00011000
00000110
00000101
,
00001000
00010000
00100000
00010000
00001000
00000100
00000010
00000000
,
00010000
00000100
00010000
00000000
00001000
00000000
01000000
00001000
,
01000000
00000000
00100000
00000000
10000000
00010000
10000000
00000000
,
11000000
00110000
00101000
10010000
,
01001000
00010100
00000011
00001100
,
00010100
00000101
00010010
00101000
,
00000010
00000000
00001000
00000000
00000001
00001000
00000001
00001000
00000001
00000000
00000010
00000000
00000100
00000000
00000000
00000000
,
00001000
00000100
00001000
00000000
00000001
00000000
00000100
00010000
,
00000100
00000000
00000010
00000000
00010000
00001000
00010000
00000000
,
00010100
00001010
00000011
00011000
,
00001010
00101000
00010010
00100100
,
01010000
00000000
10000000
01000000
00010000
00001000
00000100
00000001
,
00001000
00000000
00000000
00000000
;
