#TITLE:愚者に創られた闇の娘;
#SUBTITLE:The Maiden of Darkness Created by a Fool;
#ARTIST:Dropの小屋 feat. 葉月ゆら・このり;
#TITLETRANSLIT:Gusha ni Tsukurareta Yami no Musume;
#SUBTITLETRANSLIT:;
#ARTISTTRANSLIT:Drop no Koya feat. Hazuki Yura x Konori;
#GENRE:Touhou Remix;
#CREDIT:AznPunk07 / GuardianFrozen;
#MENUCOLOR:#8a25a0;
#METERTYPE:DDR;
#BANNER:[Collaboration] - Gusha ni tsukurareta yami no musume.png;
#BACKGROUND:[Collaboration] - Gusha ni tsukurareta yami no musume-bg.png;
#LYRICSPATH:[Collaboration] - Gusha ni tsukurareta yami no musume.lrc;
#CDTITLE:cdtitle.png;
#MUSIC:[Collaboration] - Gusha ni tsukurareta yami no musume.mp3;
#OFFSET:-0.040;
#SAMPLESTART:45.600;
#SAMPLELENGTH:15.000;
#SELECTABLE:YES;
#LISTSORT:;
#BPMS:0.000=151.000;
#STOPS:;
#BGCHANGES:;
#ATTACKS:;

//---------------dance-single - ----------------
#NOTES:
     dance-single:
     :
     Hard:
     10:
     0.793,0.799,0.337,0.222,0.536:
1000
0000
0000
0000
0000
0000
0100
0010
0001
0000
0100
0000
1000
0000
0100
0000
,
0010
1000
0100
0010
0001
0000
0000
0100
,
0001
0000
0010
0000
1000
0000
0010
0000
0100
0000
0000
1000
0000
0000
0001
0000
,
0100
0000
0000
0000
0000
0000
0001
0010
0100
0000
1000
0100
0010
0000
0000
0000
,
0100
0000
0000
0000
1000
0000
0010
1000
0100
0000
0000
0010
0000
0000
0001
0000
,
0100
1000
0100
0010
1000
0000
0000
0001
,
1100
0000
0010
0000
0101
0000
1000
0000
0110
0000
1000
0100
0010
0001
0010
0100
,
1000
0000
0000
0000
0000
0000
0010
0100
0010
1000
0001
1000
0100
0000
0000
0000
,
0000
0000
0000
0000
,
1000
0100
0001
0100
1000
0010
0100
0001
,
1000
0100
0010
0100
1000
0010
0001
0010
,
0200
0000
0000
0000
1000
0000
0000
0000
0010
0000
0000
0000
0301
0000
0000
0001
,
0010
0000
0000
0010
0100
0000
0000
0100
1000
0000
0000
1000
0001
0000
0000
0001
,
0100
0001
1000
0100
0001
0100
0010
0100
,
1000
0010
0001
0010
0100
0001
0010
0100
,
2000
3100
0002
0103
,
1001
0000
0000
1000
0010
0000
0000
0010
0100
0000
0000
0100
0001
0000
0000
0001
,
0020
0000
0000
0000
0130
0000
1000
0001
1000
0000
0010
0000
0100
0000
0001
0000
,
0010
0000
0100
0000
1000
0000
0001
0100
0001
0000
0010
0000
0100
0000
1000
0000
,
0000
0020
1000
1030
0000
0200
0001
0301
,
0010
0000
0000
0100
0000
0000
1000
0100
0010
0000
0001
0000
0100
0000
0000
0000
,
0010
0000
0000
0000
1000
0000
0001
1000
0100
0000
0000
0010
0000
0000
0100
0000
,
1000
0000
0001
0000
0100
0000
0010
1000
0010
0000
0100
0000
0001
0000
0010
0000
,
1100
0000
0010
0000
0101
0000
0010
0000
1001
0000
0001
0100
0001
1000
0100
1000
,
0010
0000
0100
0001
0000
0000
0001
0010
0100
1000
0100
0000
0010
0000
0001
1000
,
0001
0000
0100
0001
0100
0000
1000
0100
1000
0000
0010
1000
0010
0000
0001
0010
,
0001
0000
1000
0000
0010
0000
0100
0010
0001
0000
0010
0000
1000
0000
0000
0000
,
0200
0000
0010
0000
0010
0000
0310
0000
2000
0000
0000
0001
0000
0000
3001
0000
,
0100
0000
0000
0100
0000
0000
0010
1000
0001
0000
0010
0000
0100
0000
0000
0000
,
1000
0000
0010
1000
0010
0000
0100
0001
0100
0000
0001
0010
0001
0000
1000
0010
,
0100
0000
0010
0000
1000
0000
0100
0010
0001
0000
1000
0000
0100
0000
1000
0000
,
0011
0000
0100
0000
1010
0000
0100
0000
1001
0000
0010
0100
1000
0100
0010
0001
,
1000
0000
1000
0010
0000
0000
1000
0010
0100
0001
0010
0100
2000
0000
0000
0000
,
3200
0001
0320
0032
,
0203
0000
1000
0000
0310
0000
1000
0100
,
0002
0000
0013
1000
0200
0000
0320
0000
,
2030
0000
0000
0000
3010
0000
0001
0100
0001
0000
0100
0000
1000
0000
0100
0000
,
0000
0000
0010
1000
0010
0000
0100
1000
0100
0000
0010
0001
0100
0000
0010
0000
,
0000
0000
0001
0100
0001
0000
0010
0001
0010
0000
0100
1000
0001
0000
0010
0000
,
1200
0000
0310
0001
0120
0000
0031
1000
,
0201
0000
0000
0000
0310
0000
1000
0010
0100
0000
0001
0000
0010
0000
0100
0000
,
2000
0010
3002
0023
,
0230
0000
1000
0000
0310
0000
0001
0010
,
0100
0000
0000
0100
0010
0000
0100
0000
1000
0000
0000
1000
0001
0000
0000
0001
,
0100
0000
0000
0000
0010
0000
1000
0001
0010
0000
0100
0000
0010
0000
0001
0000
,
0000
0000
0100
0001
0100
0000
0010
1000
0010
0000
1000
0100
0001
0000
0100
0000
,
0000
0000
0001
0100
1000
0000
0100
1000
0010
0000
1000
0001
0100
0000
0010
0000
,
1100
0000
0100
0010
0101
0000
1001
0000
,
1000
0000
0000
1100
0000
0000
0110
0000
0000
0011
0000
0000
1001
0000
0000
0000
,
0001
0100
0001
0100
0010
1000
0010
1000
0001
0010
0001
0010
0100
1000
0100
1000
,
0001
0100
1000
0100
0001
0100
1000
0100
0001
0010
0100
1000
0100
0000
0000
0000
,
0020
0000
0000
0000
0031
0000
1000
0100
1000
0000
0010
0000
0001
0000
1000
0000
,
0100
0000
0001
0000
0010
0000
1000
0010
0100
0000
0010
0000
0001
0000
0100
0000
,
0020
0000
1000
0000
1000
0000
0130
0000
2000
0000
0000
0001
0000
0000
3010
0000
,
0100
0000
0000
1100
0000
0000
0010
0001
1000
0000
0100
0001
0010
0000
0000
0000
,
0100
0000
0000
0000
0010
0000
0100
1000
0001
0000
0000
0100
0000
0000
0001
0000
,
0010
0000
0100
0000
1000
0000
0001
0010
0001
0000
1000
0000
0010
0000
0100
0000
,
0010
0000
1100
0000
0010
0000
0101
0000
0010
0000
0001
0010
0100
1000
0001
0010
,
0100
0000
0000
0110
0000
0000
1000
0100
0010
0001
1000
0000
0000
0000
0001
0100
,
0001
0000
0010
0001
0010
0000
1000
0010
1000
0000
0100
1000
0100
0000
0001
0000
,
0010
0000
0100
0000
1000
0000
0010
1000
0010
0000
0100
0000
0001
0000
1000
0000
,
0200
0000
0010
0000
0010
0000
0310
0000
0002
0000
0000
1000
0000
0000
1003
0000
,
0100
0000
0010
0000
0100
0000
1000
0001
1000
0000
0010
0000
0100
0000
0000
0000
,
0001
0000
0010
0001
0010
0000
0100
1000
0100
0000
0001
0100
1000
0000
0100
0010
,
1000
0000
0100
0000
0010
0000
0001
0010
0100
0000
1000
0000
0001
0000
0100
0000
,
1010
0000
0100
0000
0011
0000
1000
0000
0110
0000
0001
0010
1000
0010
0100
1000
,
0001
0000
0100
0001
0000
0000
0010
0100
1000
0001
0010
0100
1000
0000
0000
1000
,
0010
0000
0100
0000
0001
0000
0000
0001
0010
0000
0000
0100
1000
0000
0000
0001
,
0100
0000
0010
0000
1000
0000
0000
1000
0010
0000
0000
0100
0001
0000
0010
0000
,
0100
0000
0000
0010
0100
0000
1000
0000
0001
0000
0000
0001
0010
0000
0000
0010
,
1000
0000
0010
0000
0100
0000
1000
0010
0001
0000
0010
0000
0100
0000
0001
0000
,
0010
0000
0100
1000
0001
0000
0100
0010
1000
0000
0001
0010
0100
0000
0010
0000
,
0001
0000
1000
0010
0001
0000
0010
0001
0100
0000
0001
0100
1000
0000
0010
0000
,
0100
0000
0001
1000
1100
0000
1000
0001
,
0101
0000
0010
0000
0100
0000
1000
0100
0010
0000
0001
0000
1000
0000
0001
0000
,
0100
0000
0010
0000
1000
0000
0000
1000
0100
0000
0010
0000
0001
0000
0000
0001
,
0010
1000
0010
0100
1000
0010
0011
1010
,
1001
0010
1100
1001
0101
0010
0110
0001
,
1001
0000
1000
0000
0100
0000
0010
0001
1000
0000
0100
0000
0010
0000
0001
0000
,
0100
0000
0010
1000
0100
0000
1000
0100
0001
0000
0100
0001
0010
0000
1000
0000
,
0010
0000
0001
0100
1000
0000
0100
1000
0010
0000
1000
0010
0001
0000
0010
0000
,
0100
0000
0001
0100
1010
0000
1000
0100
,
0011
0000
0000
1100
0000
0000
1001
0000
0000
0101
0000
0000
1010
0000
0000
0000
,
0001
0010
0100
0010
0001
1000
0001
0100
,
1000
0100
0010
1000
0100
0010
0001
0100
,
0020
0000
0000
0000
1030
0000
0000
0000
0200
0000
0000
0000
0301
0000
0000
0001
,
0100
0000
0000
0100
1000
0000
0000
1000
0001
0000
0000
0001
0010
0000
0000
0010
,
0100
0001
1000
0100
0001
1000
0010
0001
,
0100
1000
0100
0010
1000
0100
0010
0001
,
2000
3100
0002
0013
,
1100
0000
0000
1010
0000
0000
1001
0000
0101
0000
0000
0011
0000
0000
1001
0000
,
1000
0010
0001
0000
0110
0000
0000
0000
0000
0000
0000
0000
0000
0000
0000
0000
;

//---------------dance-single - ----------------
#NOTES:
     dance-single:
     :
     Medium:
     8:
     0.517,0.615,0.236,0.357,0.037:
0000
0000
0000
0000
,
0000
0000
0000
0000
,
0000
0000
0000
0000
,
0000
0000
0000
0000
,
0000
0000
0000
0000
,
0000
0000
0000
0000
,
0000
0000
0000
0000
,
0000
0000
0000
0000
,
0000
0000
0000
0000
,
1000
0000
0010
1000
0100
0000
0010
0001
,
1000
0001
0100
0000
0010
0000
1000
0001
,
0020
0000
0230
2300
,
3001
0101
1010
0101
,
0010
0000
0001
0100
0001
0000
1000
0100
,
1000
0010
0100
0000
0001
0010
0100
1000
,
0200
0000
0320
0032
,
0013
1100
0011
1100
,
0002
0000
0003
0200
0001
0300
0010
0100
,
1000
0000
0100
0001
0010
0000
0000
0100
,
1000
0000
0010
0001
0010
0000
0100
0001
,
1000
0000
0010
0000
1000
0100
0001
0000
,
0100
0000
0010
0001
0100
0000
1000
0000
,
0100
0010
1000
0001
0010
0000
0000
0100
,
0010
0000
1100
0000
0101
0000
0001
1000
,
0010
0000
0100
0000
0002
0010
0003
2000
,
0001
3000
0000
0010
0100
0001
1000
0100
,
0010
0000
0100
1000
0002
0000
0003
0100
,
0010
0000
0000
0000
0001
0000
0010
0000
1000
0000
0000
0100
0000
0000
0010
0000
,
0200
0000
1300
0000
0010
0001
0010
0000
,
1100
0000
0001
0100
0001
0000
1000
0000
,
0010
0100
1000
0001
0020
0000
0030
1000
,
0200
0001
2300
0010
3002
0100
0023
1000
,
0230
0000
0000
0310
,
2100
3010
0001
1000
,
0102
0000
0010
0000
1003
0000
0001
0100
,
0001
0000
1000
0100
1000
0000
0020
0000
,
0200
0000
0030
0000
0301
0010
0100
1000
,
0000
0001
0000
0101
0000
1000
0001
0100
,
0000
1000
0000
1100
0000
0001
1000
0100
,
0010
0000
0100
1000
0100
0000
0010
0001
,
0010
0000
0001
1000
0001
1000
0010
0100
,
0002
0013
0200
1300
,
0020
0000
1000
0000
0100
0000
0031
0010
,
1000
0000
0001
1000
0001
0000
0200
0000
,
0020
0000
0300
0000
1030
0100
0010
0001
,
0000
1100
0000
1001
0000
0001
0100
1000
,
0000
1001
0000
0011
0000
1000
0010
0001
,
0010
0000
0100
0001
0010
0000
0100
1000
,
0010
0000
0000
0010
0000
0000
0010
0000
0100
0000
0000
0100
0000
0000
0000
0000
,
0200
0000
0000
0000
,
0300
0000
0000
0000
,
0002
0000
0003
0010
0001
0000
0001
0100
,
1000
0000
0100
1000
0010
0000
0000
0001
,
0100
0000
0000
0000
0100
0000
0001
0000
0010
0000
0000
1000
0000
0000
0100
0000
,
0001
0000
0000
0010
0000
0000
0100
0000
1000
0000
0001
0000
1000
0000
0000
0000
,
0010
0000
0100
0001
0100
0000
0010
1000
,
0001
0010
1000
0001
0010
0000
0000
1000
,
0100
0000
0011
0000
1100
0000
0010
0001
,
0110
0000
0000
1000
0001
1000
0000
0020
,
1000
0030
0100
0010
0001
0010
1000
0001
,
0010
0000
0100
1000
0100
0010
0001
0000
,
1000
0000
0001
0000
0001
0000
0000
0000
0010
0000
0000
0100
0000
0000
1000
0000
,
0001
0000
0100
0010
0001
0010
1000
0000
,
0200
0000
0310
0001
0100
1000
0100
0010
,
1000
0100
0010
0001
0100
0001
0010
0000
,
1100
1010
0101
0011
,
1001
0000
0000
0100
0000
0000
0001
0000
1000
0000
0001
0000
0020
0000
0000
0000
,
0130
1000
0200
0000
0320
0000
0031
1000
,
0002
0000
0203
0000
0320
0000
1030
0100
,
0020
0000
0031
0100
2000
0000
3020
0000
,
0032
0000
0103
0010
0001
1000
0100
0010
,
0000
1000
0100
1000
0001
0100
0010
1000
,
0000
0001
0100
0001
1000
0001
0010
0100
,
0020
0000
0031
1000
0020
0000
0130
0001
,
0020
0000
0130
0100
0020
0000
0030
0000
,
1001
0100
0001
0000
1001
0100
1000
0000
,
1001
0100
0001
1000
0100
1000
0010
0010
,
0110
0000
1000
0100
0011
0000
1001
0000
,
0101
0000
0010
1000
0001
0100
0010
1000
,
0000
0001
0010
1000
0001
0100
1000
0100
,
0000
1000
0100
0001
1000
0010
0001
0010
,
0100
0000
1000
0010
0001
0000
0110
0000
,
0001
0000
0000
1000
0000
0000
0010
0000
0000
0100
0000
0000
0001
0000
0000
0000
,
0110
1000
0100
0010
0100
0000
0010
0001
,
1000
0010
0100
0000
0001
0010
1000
0010
,
0200
0000
1300
0001
0100
0000
0020
0000
,
2030
3200
0302
0023
,
1030
0100
1000
0001
0100
0001
1000
0010
,
1000
0001
0010
0001
1000
0100
0010
0001
,
0200
0310
0002
1003
,
0001
0000
0000
0010
0000
0000
0100
0000
1000
0000
0000
0010
0000
0000
0100
0000
,
0001
1000
1001
0000
0000
0000
0000
0000
;

//---------------dance-single - ----------------
#NOTES:
     dance-single:
     :
     Easy:
     6:
     0.389,0.492,0.195,0.344,0.007:
0000
0000
0000
0000
,
0000
0000
0000
0000
,
0000
0000
0000
0000
,
0000
0000
0000
0000
,
0000
0000
0000
0000
,
0000
0000
0000
0000
,
0000
0000
0000
0000
,
0000
0000
0000
0000
,
0000
0000
0000
0000
,
1000
0100
0010
0001
,
0001
0100
0010
0010
,
2000
0000
3200
0000
,
0320
0032
2003
3020
,
0130
0100
0001
1000
,
1000
0100
0010
0001
,
2000
0000
3002
0000
,
0203
0302
0023
0230
,
2300
3000
0010
0100
,
0001
0010
0100
0100
,
0000
0001
0000
0001
0000
1000
0000
1000
,
0010
0000
0000
0000
0100
0001
0100
0000
,
0010
1000
0001
0010
,
0100
0010
0001
0000
,
0000
1100
0000
0101
0000
1001
0000
0010
,
0100
0000
0000
0010
0001
0010
0000
0000
,
0001
0100
1000
0010
,
0001
0000
0100
0000
1000
0100
0001
0000
,
0000
1000
0000
1000
0000
0001
0000
0001
,
0010
0000
0000
0000
0010
0100
0010
0000
,
0001
1000
0010
0100
,
0001
0000
0001
0100
1000
0000
0000
0000
,
0000
0001
0000
0011
0000
1000
0000
1010
,
0010
0100
0010
0000
0000
0000
1001
0000
,
0002
0010
0103
0010
,
2000
0100
3001
1000
,
0010
2000
3200
0320
,
0032
0000
0003
0000
0100
0100
0100
0000
,
0000
0010
0000
0010
0000
0100
0000
0100
,
0000
0001
0000
0001
0000
1000
0000
1000
,
0100
0000
0011
0000
,
0100
0000
1010
0001
,
2000
3100
0002
0103
,
0020
0000
0100
0000
0130
0000
0010
0010
,
0010
0002
0203
0320
,
2030
0000
3000
0000
0001
0001
0001
0000
,
0000
0010
0000
0010
0000
0100
0000
0100
,
0000
1000
0000
1000
0000
0001
0000
0001
,
1000
0000
1001
0000
,
0010
0100
0001
1000
,
0110
0000
0000
0000
,
0000
0000
0000
0000
,
0002
0000
0013
0100
,
0010
0001
0200
0300
,
0000
0010
0000
0010
0000
1000
0000
1000
,
0100
0000
0000
0000
0010
0001
0010
0000
,
0100
1000
0001
0100
,
0010
0000
1000
1000
1000
0000
0000
0000
,
0000
0001
0000
1010
0000
1000
0000
0011
,
0001
0000
0000
1000
0001
1000
0000
0000
,
0001
0100
0010
1000
,
0001
0000
0010
0001
0010
0000
0000
0000
,
0100
0000
1000
0010
1000
0000
0001
0000
,
0010
0000
0000
0000
0100
1000
0100
0000
,
0010
0001
1000
0010
,
0100
0010
0100
0001
0100
0000
0000
0000
,
0000
0011
0000
0100
0000
1010
0000
0100
,
0010
0000
0010
0000
0010
0000
0010
1000
,
0100
1100
0010
0011
,
0101
0000
1000
0000
0001
0000
0100
0100
,
0100
0020
2030
3002
,
0023
0000
0030
0000
0100
1000
0100
0000
,
0000
1000
0000
1001
0000
0001
0000
1001
,
0000
0100
0000
0110
0000
0010
0000
0110
,
0100
0000
0001
0000
1000
0000
0001
0010
,
0001
0000
0010
0000
0100
1000
0100
0000
,
1000
1010
0001
0011
,
1001
0000
0101
0000
1100
0000
0001
0010
,
0001
0000
1000
0100
1000
0000
0001
0000
,
0100
0000
0010
0000
1000
0100
0010
0001
,
0000
1000
0000
1000
0000
0001
0100
0001
,
0000
0010
0000
0010
0000
0100
1000
0100
,
0010
0000
0100
1000
0100
0000
0010
0000
,
0101
0010
1000
0100
,
1100
0002
0203
0302
,
2003
3100
0020
0230
,
2300
3001
0100
0020
,
2030
3002
0023
0230
,
1300
0002
0203
2300
,
3200
0310
2000
3001
,
0020
0130
2000
3001
,
1000
0000
0000
1000
0000
0000
0000
0000
0001
0000
0000
0001
0000
0000
0000
0000
,
0000
1001
0000
0000
;

//---------------dance-single - ----------------
#NOTES:
     dance-single:
     :
     Beginner:
     2:
     0.149,0.215,0.047,0.000,0.000:
0000
0000
0000
0000
,
0000
0000
0000
0000
,
0000
0000
0000
0000
,
0000
0000
0000
0000
,
0000
0000
0000
0000
,
0000
0000
0000
0000
,
0000
0000
0000
0000
,
0000
0000
0000
0000
,
0000
0000
0000
0000
,
0001
0000
0000
0000
,
1000
0000
0000
0000
,
0100
0000
0000
0000
,
0010
0010
0010
0000
,
0001
0000
0000
0000
,
1000
0000
0000
0000
,
0010
0000
0000
0000
,
0100
0000
0100
0100
,
0100
0000
0000
0000
,
0001
0000
0000
0000
,
0000
1000
0000
0001
,
0000
0000
0000
0000
,
0010
0000
0000
0000
,
0100
0000
0000
0000
,
0010
0010
0010
0010
,
0010
0000
0000
0000
,
0000
0001
0000
0000
,
0000
1000
0000
0000
,
0100
0000
0010
0000
,
0001
0000
0000
0000
,
0000
0001
0000
0000
,
0000
1000
0000
0000
,
0010
0000
0100
0000
,
0110
0000
0000
1000
,
1000
0000
0000
0000
,
0001
0000
0000
0010
,
0010
0000
0100
0000
,
1000
0000
0000
0000
,
0000
0001
0000
0000
,
0000
0100
0000
0000
,
0010
0000
0100
0000
,
0001
0000
0000
0000
,
0010
0000
0000
0000
,
0100
0000
0000
1000
,
1000
0000
0000
0001
,
0001
0000
0100
0100
,
0000
0010
0000
0000
,
0000
0100
0000
0000
,
0001
0000
1000
0000
,
0001
0000
0010
0000
,
0110
0000
0000
0000
,
0000
0000
0000
0000
,
0100
0000
0000
0000
,
0100
0000
0000
0000
,
0000
0010
0000
0001
,
0001
0000
0000
0000
,
1000
0000
0000
0000
,
0010
0000
0000
0000
,
0000
0100
0000
0010
,
0010
0000
1000
0000
,
0100
0000
0000
0000
,
0010
0000
0000
0000
,
0001
0000
1000
0000
,
1001
0000
0000
0010
,
0010
0000
0000
0000
,
0100
0000
0000
0000
,
1001
0000
0110
0000
,
1001
0000
0000
0001
,
0001
0000
1000
0000
,
0100
0000
0000
0010
,
0010
0000
0100
0000
,
1000
0000
0010
0010
,
0000
0100
0100
0100
,
0000
0001
0001
0001
,
0000
1000
0000
0100
,
0100
0000
0010
0010
,
0010
0000
0100
0000
,
1000
0000
0001
0001
,
0001
0000
0100
0000
,
0010
0000
0100
0100
,
0000
0001
0001
0001
,
0000
1000
1000
1000
,
0000
0100
0100
0000
,
0010
0010
0010
0010
,
0010
0000
0001
0000
,
1000
0000
0100
0100
,
0100
0000
1000
0000
,
0001
0001
0001
0001
,
0000
0100
0100
0000
,
0010
0000
1000
1000
,
0000
0010
0010
0000
,
0100
0100
0100
0100
,
0000
0110
0000
0000
;

//---------------dance-double - ----------------
#NOTES:
     dance-double:
     :
     Challenge:
     8:
     0.482,0.522,0.263,0.195,0.034: // measure 1
00000000
00000000
00000000
00000000
,  // measure 2
00000000
00000000
00000000
00000000
,  // measure 3
00000000
00000000
00000000
00000000
,  // measure 4
00000000
00000000
00000000
00000000
,  // measure 5
00000000
00000000
00000000
00000000
,  // measure 6
00000000
00000000
00000000
00000000
,  // measure 7
00000000
00000000
00000000
00000000
,  // measure 8
00000000
00000000
00000000
00000000
,  // measure 9
00000000
00000000
00000000
00000000
,  // measure 10
00010000
00100000
01000000
00000000
10000000
00000000
00100000
01000000
,  // measure 11
00010000
00000000
00100000
00000000
00001000
00010000
00100000
00010000
,  // measure 12
00000200
00000000
00000310
00000002
,  // measure 13
00000203
00000320
00020030
00030200
,  // measure 14
00000310
00000000
00000001
00001000
00000010
00000000
00000100
00000001
,  // measure 15
00000010
00000000
00000100
00000000
00010000
00000000
00000010
00001000
,  // measure 16
00000200
00000000
00010300
00000000
,  // measure 17
00002000
02003000
03200000
20300000
,  // measure 18
30020000
00000000
00030000
00100000
00010000
00000000
01000000
00100000
,  // measure 19
10000000
00000000
00010000
00100000
01000000
00000000
00000000
00010000
,  // measure 20
10000000
00000000
00100000
01000000
00001000
00000000
01000000
00000000
,  // measure 21
01001000
00000000
00000000
00010000
00000100
00010000
00000100
00000000
,  // measure 22
00000010
00000000
00000100
00001000
00000001
00000000
00000100
00000001
,  // measure 23
00000010
00000100
00001000
00000100
00000010
00000001
00001000
00000001
,  // measure 24
00000100
00001100
00010000
00011000
,  // measure 25
00000110
00000000
00000000
00010000
01000000
00010000
00000000
00000010
,  // measure 26
00000100
00000000
00000000
00000001
00001000
00000000
00000100
00000010
,  // measure 27
00000001
00000000
00000010
00000100
00010000
00001000
00010000
00000000
,  // measure 28
00001000
01000000
01000000
00000000
00100000
10000000
10000000
00000000
,  // measure 29
10100000
00000000
00000000
01000000
00001000
00100000
01000000
00000000
,  // measure 30
00100000
00000000
00001000
01000000
10000000
00000000
01000000
00000000
,  // measure 31
00100000
10000000
00100000
10000000
01000000
00000000
00000000
00100000
,  // measure 32
00001000
00010100
00000010
00000101
,  // measure 33
00020020
00000000
00030030
00001001
,  // measure 34
00000010
00000100
00001000
00000000
00000010
00000000
00000001
00000000
,  // measure 35
00000100
00000010
00010000
00000000
00001000
00000000
00100000
01000000
,  // measure 36
10000000
00100000
01000000
00001000
,  // measure 37
00011000
00000000
00000100
00000000
00001000
00000010
00001000
00000001
,  // measure 38
00000000
00000001
00000010
00000100
00000000
00000011
00000000
00001100
,  // measure 39
00000000
00010000
00100000
01000000
00000000
00110000
00000000
11000000
,  // measure 40
00000000
00000000
00010000
01000000
00010000
00000000
10000000
01000000
,  // measure 41
20000000
00000000
30000000
00100000
01000000
00000000
00001000
00010000
,  // measure 42
00000100
00000010
00000100
00000000
00001000
00000000
00000001
00000100
,  // measure 43
00000001
00000000
00001010
00000000
00011000
00000000
00100000
00001000
,  // measure 44
00010000
00000000
00000010
00010000
00001000
00000000
00101000
00000000
,  // measure 45
01100000
00000000
00000000
01000000
10000000
01000000
00100000
00010000
,  // measure 46
00000000
10000000
00100000
01000000
00000000
01100000
00000000
01010000
,  // measure 47
00000000
00001000
00000010
00000100
00000000
00000110
00000000
00000101
,  // measure 48
00000000
00000000
00000010
00000100
00010000
00000000
00001000
01000000
,  // measure 49
00100000
00000000
00000000
00010000
00000000
00000000
00001000
00000000
00000000
00000010
00000000
00000000
00000100
00000000
00000000
00000000
,  // measure 50
00020000
00000000
00000000
00000000
,  // measure 51
00030000
00000000
00000000
00000000
,  // measure 52
01000000
00000000
00100000
10000000
,  // measure 53
00010000
00000000
00100000
00001000
00001000
00000000
00000000
00000010
,  // measure 54
00000100
00000000
00000000
00000000
00001000
00000000
00000001
00000000
00000001
00000000
00000000
00000100
00000000
00000000
00000010
00000000
,  // measure 55
00010000
00000000
00000000
00001000
00000000
00000000
01000000
00000000
00001000
00000000
00100000
00000000
01000000
00000000
00000000
00000000
,  // measure 56
10000000
00000000
00100000
10000000
00010000
00000000
00100000
00000000
,  // measure 57
00001000
00010000
00000010
00000001
00000010
00001000
00000100
00000000
,  // measure 58
00000010
00000001
00000000
00000101
00000000
00000010
00000000
00001010
,  // measure 59
00001010
00000000
00000000
00001010
00000000
00000000
00000100
00000000
00000010
00000000
00000100
00000000
00000000
00000000
00000010
00000000
,  // measure 60
00010000
00000000
00001000
01000000
01000000
00010000
00100000
01000000
,  // measure 61
10000000
00000000
00100000
10000000
00010000
10000000
01000000
00000000
,  // measure 62
00100000
00001000
00010000
00000000
01000000
00001000
00010000
00000000
,  // measure 63
00011000
00000000
00000000
00010000
00001000
00010000
00000010
00000000
,  // measure 64
00000100
00000000
00000001
00001000
00000001
00000010
00000100
00010000
,  // measure 65
00000010
00000100
00001000
00000100
00000001
00001000
00000001
00000010
,  // measure 66
00000100
00001100
00010000
00110000
,  // measure 67
00010100
00000000
00000000
00001000
00000000
00000000
00000010
00000000
00001000
00000000
00000010
00000000
00000100
00000000
00000000
00000000
,  // measure 68
00000001
00000100
00000001
00000000
00000100
00001000
00000100
00000010
,  // measure 69
00010000
00000000
00001000
00010000
00001000
00000000
01000000
00010000
,  // measure 70
01000000
00000000
00100000
10000000
02000000
00000000
03020000
00000000
,  // measure 71
00230000
00000000
01300000
00000000
00100000
00001000
00010000
00000010
,  // measure 72
00000000
00001000
00000100
00000010
00000000
00001001
00000000
00010100
,  // measure 73
00000000
10000000
01000000
00100000
00000000
10010000
00000000
01001000
,  // measure 74
00000000
00000000
00100000
10000000
00010000
00000000
00100000
00001000
,  // measure 75
01000000
00000000
00100000
00001000
00000100
00000010
00001000
00010000
,  // measure 76
01000000
00100000
00010000
00000000
01000000
00100000
10000000
00000000
,  // measure 77
00010000
10000000
01000000
00100000
00001000
00000000
00100000
00000100
,  // measure 78
00001000
00000020
00000032
00000203
,  // measure 79
00001300
00000000
00000100
00000010
00010000
00000010
00000100
00001000
,  // measure 80
00000000
00100000
00010000
01000000
00000000
10100000
00000000
01010000
,  // measure 81
00000000
00000010
00000001
00000100
00000000
00001010
00000000
00000101
,  // measure 82
00000000
00000000
00001000
00000001
00001000
00000000
00000010
00000100
,  // measure 83
00000010
00000000
00000000
00001000
00000000
00000000
00000001
00000000
00000010
00000000
00000000
00000100
00000000
00000000
00000000
00000000
,  // measure 84
00010000
01000000
10000000
01000000
00100000
00001000
00010000
01000000
,  // measure 85
10000000
01000000
00100000
00001000
00100000
00010000
01000000
00100000
,  // measure 86
00002000
00000100
00000010
00000001
,  // measure 87
00003020
00000032
00000203
00002300
,  // measure 88
00003010
00000100
00001000
00010000
00000001
00001000
00000010
00000100
,  // measure 89
00001000
00010000
00000001
00001000
00000010
00000100
00001000
00010000
,  // measure 90
00002000
00000000
02003000
00000000
,  // measure 91
03100000
00000000
00000000
00010000
00000000
00000000
00001000
00000000
00000100
00000000
00000000
00000010
00000000
00000000
00000001
00000000
,  // measure 92
00000000
00011000
00000000
00000000
;
