#TITLE:風姿華傳;
#SUBTITLE:;
#ARTIST:白虎;
#TITLETRANSLIT:Fuushi Katen;
#SUBTITLETRANSLIT:;
#ARTISTTRANSLIT:Byakko;
#GENRE:;
#CREDIT:Frozen_Heat/Azn_Punk_07;
#MENUCOLOR:Blue;
#BANNER:Fuushi Katen-bn.png;
#BACKGROUND:Fuushi Katen-bg.png;
#LYRICSPATH:;
#CDTITLE:!cdtitle.png;
#MUSIC:Fuushi Katen.mp3;
#OFFSET:-0.087;
#SAMPLESTART:40.900;
#SAMPLELENGTH:15.000;
#SELECTABLE:YES;
#LISTSORT:;
#BPMS:0.000=100.000,20.000=400.003,724.000=200.005,740.000=400.003;
#STOPS:;
#TICKCOUNT:0.000=2;
#BGCHANGES:;
#KEYSOUNDS:;
#ATTACKS:;

//---------------dance-single - ----------------
#NOTES:
     dance-single:
     :
     Hard:
     10:
     0.868,1.000,0.675,0.334,0.000:
0000
0000
0000
0000
,
0000
0000
0000
0000
,
0000
0000
0000
0000
,
0000
0000
0000
0000
,
0000
0000
0000
0000
,
0001
0010
0100
1000
,
1001
0100
0010
0001
,
1001
0010
0100
1000
,
1001
0010
1001
0000
,
1000
0010
0100
0001
,
1001
0100
0010
1000
,
1001
0010
0100
0001
,
1001
0100
1001
0000
,
0001
0010
0001
0000
0010
0000
0100
0000
,
1000
0000
0000
0000
0010
1000
0010
0000
,
0100
0000
0000
0000
1000
0100
1000
0000
,
0100
0010
0001
0000
,
1000
0010
0100
0001
,
1000
0100
0010
0001
,
1000
0100
1000
0000
0001
0100
0001
0000
,
0000
1001
1001
1001
,
0010
1000
0100
1000
,
0010
0000
1010
0000
,
0011
0000
2000
3200
,
0320
0032
0203
0300
,
0001
0100
0001
0010
,
0001
0000
0011
0000
,
1010
0000
0002
0203
,
0320
2030
3200
0300
,
1000
0100
0001
0100
,
1000
0000
1001
0000
,
0110
0000
0000
0000
0001
0000
0000
0001
,
0010
0000
0000
0010
0100
0000
0000
0100
,
1000
0010
0100
0001
,
0000
0011
0000
1000
,
1010
0000
1001
0010
,
0000
0110
0110
0110
,
0001
0100
1000
0001
,
0100
1000
0001
0100
,
1000
0001
0100
1000
,
0001
0100
1000
0100
,
0001
1000
0100
0001
,
1000
0100
0001
1000
,
0100
0001
1000
0100
,
0001
1000
0100
0001
,
0010
1000
0001
0010
,
1000
0001
0010
1000
,
0001
0010
1000
0001
,
0010
1000
0001
0010
,
1000
0010
0001
1000
,
0010
0001
1000
0010
,
0001
1000
0010
0001
,
0000
1001
1001
1001
,
0010
0100
0010
0000
1000
0000
0100
0000
,
1000
0010
1000
0100
,
1000
0000
0010
0000
0100
0000
0000
0100
,
0001
0000
0000
0001
0010
0000
0000
0010
,
0001
0000
0100
0000
0001
0000
0100
0010
,
0100
0000
0001
0000
1000
0100
1000
0000
,
0001
0010
0001
0000
0110
0000
1000
0000
,
0000
1001
1001
1001
,
0001
0100
0001
0000
0010
0000
0100
0000
,
1000
0010
0100
0001
,
1000
0000
0100
0000
1000
0000
0000
1000
,
0010
0000
0000
0010
0100
0000
0000
0100
,
0010
1000
0100
1100
,
0000
0101
0000
0010
,
1001
0000
1001
0000
,
0110
0110
0110
0000
,
0001
0000
0000
0001
0010
0000
0000
0001
,
0100
0000
0000
0001
1000
0000
0000
1000
,
0100
0000
1100
0000
0000
0000
1000
0001
,
1000
0001
1000
0010
0100
0000
0000
0000
,
1000
0000
0000
1000
0100
0000
0000
1000
,
0010
0000
0000
1000
0001
0000
0000
0001
,
0010
0000
0000
0010
0100
0000
0000
0100
,
1000
1001
1001
0000
,
0001
0010
0001
0000
1000
0010
1000
0000
,
0001
1000
0001
0000
1000
0001
1000
0000
,
0000
1000
0000
1000
,
0100
0010
0001
0001
,
1000
0010
1000
0000
0001
0010
0001
0000
,
1000
0001
1000
0000
0001
1000
0001
0000
,
0001
0010
0100
1000
,
1001
0110
1001
0000
,
0001
0100
1000
0100
,
0010
0100
1000
0100
,
0010
0100
1000
0100
,
0010
0100
0001
0000
,
1000
0100
0001
0100
,
0010
0100
0001
0100
,
0010
0100
0001
0100
,
1000
0100
0010
0000
,
0001
0100
1000
0100
,
0010
0100
1000
0100
,
0001
0010
1000
0010
,
0100
0010
0001
0000
,
1000
0010
0001
0010
,
0100
0010
0001
0010
,
1000
0100
0001
0100
,
0010
0100
1000
0000
,
2000
0000
0000
3020
,
0000
0000
0230
0000
,
0302
0000
0000
0023
,
0000
0000
0230
0000
,
2300
0000
0000
3020
,
0000
0000
0230
0302
,
0023
0000
0000
0000
,
0000
0000
0030
0000
,
0002
0000
1000
0203
,
0010
0000
0320
0001
,
2030
0000
0100
3020
,
0001
0000
0230
1000
,
0302
0000
0010
0203
,
1000
0000
0320
0001
,
2030
0000
0001
0000
,
3000
1001
1001
0000
,
2000
0010
0001
3020
,
0100
1000
0230
0301
,
2000
0010
0100
3020
,
0001
0100
0032
0010
,
2003
0100
0001
3200
,
0010
1000
0320
0001
,
0230
0000
0000
0000
,
0010
0010
0310
0110
,
0000
1001
0000
0000
,
1000
0000
0000
1000
0100
0000
0000
0100
,
0010
0000
0001
0100
,
0000
0000
0001
1000
,
0001
0000
0000
1100
,
0000
0000
0010
0000
,
0101
0000
0010
0000
,
0000
0100
0100
0000
,
1010
0000
0010
1000
,
0100
0000
0010
0000
,
0011
0000
0010
0001
,
0100
0000
0010
0000
,
1001
0000
1000
0100
,
0001
0000
0010
0000
,
1001
0000
0001
0100
,
1000
0000
0010
0000
,
0110
0000
1000
0010
,
0001
0010
0100
0001
,
1000
0000
1000
0001
,
0010
1000
0010
0100
,
1000
0000
0001
0100
,
1000
0100
0010
1000
,
0100
0100
0010
0010
,
0001
1001
1000
1001
,
0001
0100
1000
0100
,
0002
0000
0010
0000
,
1003
0000
1100
1100
,
0010
0101
0101
0000
,
1000
0100
0001
0100
,
2000
0000
0100
0000
,
3001
0000
0011
0011
,
0100
1010
1010
0000
,
1001
0010
0100
0010
,
1001
0000
0100
0000
,
0010
0000
0000
1000
0100
0000
0000
0001
,
0100
0000
0000
0010
0100
0000
0000
0000
,
1100
0010
0001
0010
,
0101
1000
0010
1000
,
0011
0100
1000
0100
,
1010
0001
0100
0001
,
1000
0100
2000
0000
0100
0000
0100
0000
,
3001
0000
0001
0100
,
1100
0000
0011
0011
,
0100
1000
0100
1000
0100
0000
0000
0000
,
0001
0010
0002
0000
0010
0000
0010
0000
,
1003
0000
1000
0010
,
0011
0000
1100
1100
,
0010
0001
0010
0001
0010
0000
0000
0000
,
1000
0010
1000
0000
0001
0010
0001
0000
,
1001
0000
0100
0010
,
1001
0000
0000
0001
0010
0000
0000
0010
,
0100
0000
0000
0100
1000
0000
0000
1000
,
0001
0100
0001
0101
,
0000
1010
0000
1000
,
0100
0010
0011
0000
,
1100
0010
1100
0000
,
0101
0000
0010
1000
0000
0010
0001
0000
,
1100
0000
0010
0001
0000
0010
1000
0000
,
1001
0000
0001
0001
0000
1000
1000
0000
,
0010
0100
0010
0100
0010
0100
0010
0100
,
0001
0001
0010
0100
,
1000
1000
0010
0100
,
0001
0001
0010
0100
,
1001
0000
0100
0010
,
0001
0001
0100
0010
,
1000
1000
0100
0010
,
0001
0001
0100
0010
,
1001
0000
0000
0000
,
0001
0010
0100
0000
1000
0000
0010
0000
,
0100
0010
1000
0000
0100
0000
0010
0000
,
0001
0100
0010
0000
1000
0000
0001
0000
,
1001
0000
1000
0001
,
1000
0100
0010
0000
0001
0000
1000
0000
,
0010
0100
0001
0000
0010
0000
0100
0000
,
1000
0010
0100
0000
0001
0010
0100
0000
,
1001
1001
1001
0000
,
1001
0010
0100
0010
,
1001
0100
0010
0100
,
0001
0010
0100
1000
0001
0010
0100
0000
,
2002
0000
0000
0000
,
0000
0000
0000
0000
,
0000
0000
0000
0000
,
0000
0000
0000
0000
,
0000
0000
0000
0000
,
0000
0000
0000
0000
,
3003
0000
0000
0000
;

//---------------dance-single - ----------------
#NOTES:
     dance-single:
     :
     Easy:
     6:
     0.449,0.672,0.362,0.554,0.000:
0000
0000
0000
0000
,
0000
0000
0000
0000
,
0000
0000
0000
0000
,
0000
0000
0000
0000
,
0000
0000
0000
0000
,
1000
0000
0100
0000
,
0010
0000
0000
0000
,
0001
0000
0100
0000
,
0010
0000
0010
0000
,
1000
0000
0100
0000
,
0010
0000
0000
0000
,
0001
0000
0100
0000
,
0010
0000
0010
0000
,
1000
0000
0100
0000
,
0010
0000
0010
0000
,
0100
0000
1000
0000
,
0100
0000
0010
0000
,
0001
0000
0001
0000
,
0100
0000
0100
0000
,
0101
0000
1001
0000
,
1100
0000
1001
0000
,
0100
0000
0100
0000
,
0110
0000
0000
0000
,
0000
0000
0010
0000
,
0010
0000
0010
0000
,
1000
0000
1000
0000
,
1001
0000
0000
0000
,
0000
0000
0100
0000
,
0100
0000
0100
0000
,
0001
0000
0001
0000
,
1001
0000
0000
0000
,
0000
0000
0000
0000
,
0000
0000
0001
1000
,
0001
0000
0000
0000
,
0000
1000
0000
0001
,
1000
0000
0000
0000
,
1100
0000
0000
0000
,
0200
0000
2300
0000
,
3020
0000
0230
0000
,
0302
0000
0023
0000
,
0230
0000
0000
0000
,
2300
0000
3020
0000
,
0032
0000
2003
0000
,
3200
0000
0302
0000
,
0023
0000
0000
0000
,
0230
0000
2300
0000
,
3020
0000
2030
0000
,
3002
0000
0023
0000
,
0032
0000
0000
0000
,
2003
0000
3200
0000
,
0302
0000
2003
0000
,
3020
0000
0032
0000
,
2003
0000
0000
0000
,
3001
0000
0000
0000
,
0100
0000
0000
0000
,
0101
0000
1000
0000
,
0100
0000
1000
0000
,
1010
0000
0000
1001
,
0000
0000
0011
0000
,
1001
0000
0000
0000
,
0110
0000
0000
0000
,
1001
0000
0000
0000
,
0010
0000
0000
0000
,
0100
0000
1000
0000
,
0010
0000
0100
0000
,
0001
0000
0000
0011
,
0000
0000
1001
0000
,
1010
0000
0100
0000
,
0020
0000
0000
0000
,
1030
0000
0100
0000
,
1000
0000
0010
0000
,
1000
0000
1000
0000
,
1000
0001
1000
0000
,
0001
0000
0010
0000
,
0001
0000
0100
0000
,
0001
0000
0001
0000
,
0001
1000
0001
0000
,
0010
0000
0010
0000
,
0010
0000
0000
0100
,
0000
0000
0100
0000
,
0100
0000
0100
0000
,
1000
0000
1000
0000
,
1000
0000
0000
0000
,
0001
0000
0001
0000
,
0001
0000
0000
0000
,
1000
0000
0000
0000
,
0010
0000
0000
0000
,
0100
0000
0000
0000
,
0001
0000
0000
0000
,
0010
0000
0000
0000
,
0100
0000
0000
0000
,
1000
0000
0000
0000
,
0010
0000
1000
0000
,
0001
0000
0000
0000
,
0010
0000
0000
0000
,
0001
0000
0000
0000
,
1000
0000
0000
0000
,
0010
0000
0000
0000
,
0100
0000
0000
0000
,
0001
0000
1000
0000
,
0001
0000
1001
0000
,
2000
0000
0000
3020
,
0000
0000
0230
0000
,
0302
0000
0000
0023
,
0000
0000
0230
0000
,
2300
0000
0000
3020
,
0000
0000
0230
0302
,
0023
0000
0000
0000
,
0000
0000
0030
0000
,
0002
0000
0100
0203
,
0000
0000
0320
0000
,
2030
0000
0100
3200
,
0000
0000
0320
0000
,
0032
0000
0100
0203
,
0000
0000
0320
0000
,
2030
0000
0001
0000
,
3000
1001
1001
0000
,
2000
0000
0000
3002
,
0000
0010
0023
0000
,
0230
0000
0000
2300
,
0000
0001
3002
0000
,
2003
0000
0000
3002
,
0000
0010
0023
0000
,
0230
0000
0000
0000
,
0010
0010
0310
0110
,
0000
1001
0000
0000
,
1000
0000
0001
0000
,
1000
0000
0000
1001
,
0000
0000
0010
0000
,
0010
0000
0000
0000
,
0100
0000
0000
0000
,
0110
0000
0000
0000
,
0000
0000
0000
0000
,
2000
0000
0000
0000
,
0000
0000
0000
0000
,
3002
0000
0000
0000
,
0000
0000
0000
0000
,
2003
0000
0000
0000
,
0000
0000
0000
0000
,
3002
0000
0010
0000
,
1000
0000
0010
0000
,
2003
0000
0000
0000
,
0000
0000
0000
0000
,
3002
0000
0000
0000
,
0000
0000
0000
0000
,
2003
0000
0010
0000
,
0001
0000
0010
0000
,
3002
0000
0010
0000
,
1000
0000
0010
0000
,
1003
0000
0100
0000
,
1100
0000
0000
0000
,
0000
0000
1001
0000
,
0101
0000
1001
0000
,
0001
0000
0100
0000
,
0101
0000
0000
0000
,
0000
0000
1001
0000
,
1100
0000
1001
0000
,
1000
0000
0010
0000
,
0100
0000
0000
0000
,
0000
0000
1001
0000
,
0110
0000
1001
0000
,
0110
0000
0000
0000
,
0000
1001
0000
0001
,
1000
0000
0000
0000
,
1001
0000
0000
0000
,
0001
0000
0011
0000
,
1100
0000
0000
0000
,
0000
0000
0002
0000
,
2003
0000
3002
0000
,
1003
0000
1010
0000
,
0101
0000
0000
0000
,
0000
0000
2000
0000
,
3002
0000
2003
0000
,
3001
0000
0011
0000
,
1001
0000
0000
0000
,
0000
0000
1100
0000
,
0001
0000
1000
0000
,
0001
0000
0000
0000
,
0000
0110
0000
0010
,
0100
0000
0000
0000
,
0110
0000
0000
0000
,
0001
0000
0000
0000
,
1000
0000
0000
0000
,
0001
0000
0000
0000
,
1000
0001
1000
0001
,
1000
0000
0100
0000
,
1000
0000
0000
0000
,
0001
0000
0100
0000
,
0001
0000
0000
0000
,
1000
0000
0010
0000
,
1000
0000
0000
0000
,
0001
0000
0010
0000
,
0001
0000
0000
0000
,
2000
0000
0100
0000
,
0010
0000
0100
0000
,
0001
0000
0001
0000
,
3001
0000
1000
0000
,
0002
0000
0100
0000
,
0010
0000
0100
0000
,
1000
0000
1000
0000
,
1003
0000
0001
0000
,
1000
0100
1000
0000
,
0001
0100
0001
0000
,
1001
0000
0110
0000
,
2002
0000
0000
0000
,
0000
0000
0000
0000
,
0000
0000
0000
0000
,
0000
0000
0000
0000
,
0000
0000
0000
0000
,
0000
0000
0000
0000
,
3003
0000
0000
0000
;

//---------------dance-single - ----------------
#NOTES:
     dance-single:
     :
     Challenge:
     10:
     0.972,1.000,0.647,0.618,0.000:
0000
0000
0000
0000
,
0000
0000
0000
0000
,
0000
0000
0000
0000
,
0000
0000
0000
0000
,
0000
0000
0000
0000
,
1000
0100
1000
0000
0010
0000
0100
0000
,
0001
0010
0001
0000
0100
0000
0010
0000
,
1000
0010
1000
0000
0100
0000
0010
0000
,
0001
0011
0100
1001
,
0001
0010
0001
0000
0100
0000
0010
0000
,
1000
0100
1000
0000
0010
0000
0100
0000
,
0001
0100
0001
0000
0010
0000
0100
0000
,
1000
1100
0010
1001
,
1000
0100
0010
0001
,
0101
0000
0001
0100
,
1010
0000
0010
1000
,
1100
0010
0001
0100
,
0001
0010
0100
1000
,
0001
0010
0100
1000
,
0001
0100
0001
0000
1000
0010
1000
0000
,
0000
1001
1001
0000
,
2000
3200
0302
0203
,
2300
3000
0110
0000
,
1010
0000
0011
0011
,
0001
0101
0101
0000
,
0002
0203
2300
3200
,
0302
0003
0110
0000
,
0101
0000
1010
1010
,
1000
1100
1100
0000
,
2000
3200
0320
0032
,
0203
0300
1001
0000
,
0110
0000
0000
0000
1000
0000
0000
1000
,
0100
0000
0000
0100
0010
0000
0000
0010
,
0001
0100
0001
1000
,
0000
1001
0000
0010
,
1001
0000
0100
1001
,
0000
0010
1001
1001
,
0001
0010
0100
1000
,
0010
0100
0001
0010
,
0100
1000
0001
0100
,
1000
1000
0100
0100
,
0001
0010
1000
0001
,
0100
1000
0001
0010
,
1000
0001
0100
1000
,
0010
0010
0001
0001
,
1000
0100
0001
0010
,
1000
0100
0001
0010
,
1000
0100
0001
0010
,
1000
1000
0100
0100
,
0001
0100
1000
0010
,
0001
0100
1000
0010
,
0001
1000
0001
0000
1000
0001
1000
0000
,
0000
1001
1001
0000
,
0102
0000
0010
0000
,
1000
0000
0100
0000
,
0013
0000
0000
0010
0100
0000
0000
0100
,
1000
0000
0000
1000
0010
0000
0000
0010
,
2000
0000
0000
0000
3001
0100
0001
0100
,
0002
0000
0000
0000
0103
0010
0100
0010
,
0200
0000
0000
0000
0310
1000
0010
1000
,
0020
0000
0000
0000
1030
0001
1000
0001
,
2000
0000
0001
0000
,
0100
0000
0010
0000
,
3001
0000
0000
0001
0010
0000
0000
0010
,
0100
0000
0000
0100
1000
0000
0000
1000
,
0001
0010
0001
0010
0001
0000
1000
0010
,
1000
0010
1000
0000
0001
0100
0001
0000
,
1000
0100
1000
0100
1000
0000
0000
0000
,
1001
0110
1001
0000
,
0001
0010
0000
0000
0001
0100
0000
0000
,
0001
1000
0000
0000
0001
0010
0100
1000
,
0000
0000
0110
0000
0000
0000
1000
0001
,
1000
0001
1000
0010
0100
0000
0000
0000
,
1000
0100
0000
0000
1000
0010
0000
0000
,
1000
0001
0000
0000
1000
0100
0010
0001
,
1000
0001
0000
0000
1000
0001
1000
0000
,
0010
0110
0110
0000
,
0001
0100
0001
0000
1000
0100
1000
0000
,
0001
0010
0100
0000
0000
0100
1000
0000
,
0000
0100
1000
0000
0000
0100
1000
0000
,
0100
0000
0010
0000
0001
1000
0001
0000
,
1000
0010
1000
0000
0001
0010
0001
0000
,
1000
0100
0010
0000
0001
1000
0001
0000
,
1001
0010
0000
1000
,
1001
0001
1001
0000
,
0100
0001
1000
0010
,
0100
0001
0100
1000
,
0100
0010
1000
0100
,
0010
0001
0010
0001
0100
0000
0000
0000
,
0001
0010
0100
1000
,
0010
0100
0001
1000
,
0100
1000
0010
0100
,
0010
1000
0010
1000
0100
0000
0000
0000
,
0010
0001
0100
0010
,
1000
0100
0001
0100
,
1000
0010
1000
0001
,
0100
0001
1000
0010
0100
0000
0000
0000
,
1000
0100
0010
0001
,
0100
1000
0100
0001
,
1000
0100
1000
0000
0001
0100
0001
0000
,
1001
1001
1001
0000
,
2000
0000
0000
3020
,
0000
0000
0230
0000
,
0302
0000
0000
0023
,
0000
0000
0230
0000
,
2300
0000
0000
3020
,
0000
0000
0230
0302
,
0023
0000
0000
0000
,
0000
0000
0030
0000
,
0002
0010
1000
0203
,
0000
0001
0320
0000
,
2030
0001
0100
3020
,
0000
0001
0230
0000
,
0302
1000
0010
0203
,
0000
1000
0320
0000
,
2030
0100
0001
0001
,
3000
1001
1001
0000
,
2000
0010
0100
3002
,
1000
0100
0023
0001
,
2030
0010
0001
3200
,
1000
0010
0302
0010
,
2003
0001
0010
3200
,
1000
0001
0320
1000
,
0230
0000
0000
0000
,
0010
0010
0310
0110
,
0000
1001
0000
0000
,
0001
0000
0000
0001
0100
0000
0000
0100
,
0010
0000
0010
1000
,
0000
0000
0001
0010
,
0100
0000
1000
0001
,
1000
0000
1000
0010
,
0100
0000
0010
1000
,
0000
0001
0010
0000
,
0001
0100
0010
1000
,
0100
0000
0000
0100
1000
0000
0000
1000
,
0010
0100
0001
1000
,
0100
0000
0000
0100
0010
0000
0000
0010
,
0001
0100
1000
0100
,
0001
0000
0000
0001
0010
0000
0000
0010
,
0100
1000
0010
0001
,
0010
0000
0000
0010
1000
0000
0000
1000
,
0100
1000
0100
1000
,
0001
0100
0010
0100
,
0001
0001
0100
0010
,
1000
1000
0010
0100
,
0001
0001
0010
0010
,
0100
0100
1000
1000
,
0001
0100
0001
0000
1000
0100
1000
0000
,
0000
1001
1001
0000
,
2100
0000
0000
0000
0000
0000
0000
0000
0000
0000
0000
0000
0000
0000
0000
0000
0200
3300
0000
0000
0000
0000
0000
0000
0000
0000
0000
0000
0000
0000
0000
0000
0020
0030
0000
0000
0000
0000
0000
0000
0000
0000
0000
0000
0000
0000
0000
0000
0102
0000
0000
0000
0000
0000
0000
0000
0000
0000
0000
0000
0000
0000
0000
0000
,
0203
0300
0000
0000
0000
0000
0000
0000
0000
0000
0000
0000
0000
0000
0000
0000
0000
0000
0000
0000
0000
0000
0000
0000
0000
0000
0000
0000
0000
0000
0000
0000
0110
0000
0000
0000
0000
0000
0000
0000
0000
0000
0000
0000
0000
0000
0000
0000
0000
0000
0000
0000
0000
0000
0000
0000
0000
0000
0000
0000
0000
0000
0000
0000
,
1001
0000
0000
0000
0001
0010
0001
0000
,
1000
0010
1000
0010
1000
0000
0000
0000
,
0012
0000
0000
0000
0000
0000
0000
0000
0000
0000
0000
0000
0000
0000
0000
0000
0020
0033
0000
0000
0000
0000
0000
0000
0000
0000
0000
0000
0000
0000
0000
0000
0200
0300
0000
0000
0000
0000
0000
0000
0000
0000
0000
0000
0000
0000
0000
0000
2010
0000
0000
0000
0000
0000
0000
0000
0000
0000
0000
0000
0000
0000
0000
0000
,
0020
3030
0000
0000
0000
0000
0000
0000
0000
0000
0000
0000
0000
0000
0000
0000
0000
0000
0000
0000
0000
0000
0000
0000
0000
0000
0000
0000
0000
0000
0000
0000
0110
0000
0000
0000
0000
0000
0000
0000
0000
0000
0000
0000
0000
0000
0000
0000
0000
0000
0000
0000
0000
0000
0000
0000
0000
0000
0000
0000
0000
0000
0000
0000
,
1001
0000
0000
0000
1000
0100
1000
0000
,
0001
0100
0001
0100
0001
0000
0000
0000
,
1002
0000
0000
0000
0000
0000
0000
0000
0000
0000
0000
0000
0000
0000
0000
0000
0020
0033
0000
0000
0000
0000
0000
0000
0000
0000
0000
0000
0000
0000
0000
0000
2100
0000
0000
0000
0000
0000
0000
0000
0000
0000
0000
0000
0000
0000
0000
0000
0020
3030
0000
0000
0000
0000
0000
0000
0000
0000
0000
0000
0000
0000
0000
0000
,
2002
3003
0000
0000
0000
0000
0000
0000
0000
0000
0000
0000
0000
0000
0000
0000
0000
0000
0000
0000
0000
0000
0000
0000
0000
0000
0000
0000
0000
0000
0000
0000
0110
0000
0000
0000
0000
0000
0000
0000
0000
0000
0000
0000
0000
0000
0000
0000
0000
0000
0000
0000
0000
0000
0000
0000
0000
0000
0000
0000
0000
0000
0000
0000
,
1001
0000
0000
0001
0010
0000
0000
0010
,
0100
0000
0000
0100
1000
0000
0000
1000
,
0010
1000
0001
0010
,
0100
0000
1000
0000
0010
0000
0100
0010
,
0100
0000
0010
0000
0100
0000
0001
1000
,
0001
1000
0100
0010
,
0012
0000
0000
0000
0000
0000
0000
0000
0000
0000
0000
0000
0000
0000
0000
0000
0200
0300
0000
0000
0000
0000
0000
0000
0000
0000
0000
0000
0000
0000
0000
0000
2000
3000
0000
0000
0000
0000
0000
0000
0000
0000
0000
0000
0000
0000
0000
0000
0200
0300
0000
0000
0000
0000
0000
0000
0000
0000
0000
0000
0000
0000
0000
0000
,
0020
0033
0000
0000
0000
0000
0000
0000
0000
0000
0000
0000
0000
0000
0000
0000
0000
0000
0000
0000
0000
0000
0000
0000
0000
0000
0000
0000
0000
0000
0000
0000
1001
0000
0000
0000
0000
0000
0000
0000
0000
0000
0000
0000
0000
0000
0000
0000
0000
0000
0000
0000
0000
0000
0000
0000
0000
0000
0000
0000
0000
0000
0000
0000
,
0110
0000
1001
1010
,
0010
0100
1000
0100
0010
0000
0000
0000
,
2100
0000
0000
0000
0000
0000
0000
0000
0000
0000
0000
0000
0000
0000
0000
0000
0020
0030
0000
0000
0000
0000
0000
0000
0000
0000
0000
0000
0000
0000
0000
0000
0002
0003
0000
0000
0000
0000
0000
0000
0000
0000
0000
0000
0000
0000
0000
0000
0020
0030
0000
0000
0000
0000
0000
0000
0000
0000
0000
0000
0000
0000
0000
0000
,
0200
3300
0000
0000
0000
0000
0000
0000
0000
0000
0000
0000
0000
0000
0000
0000
0000
0000
0000
0000
0000
0000
0000
0000
0000
0000
0000
0000
0000
0000
0000
0000
1001
0000
0000
0000
0000
0000
0000
0000
0000
0000
0000
0000
0000
0000
0000
0000
0000
0000
0000
0000
0000
0000
0000
0000
0000
0000
0000
0000
0000
0000
0000
0000
,
0110
0000
1001
0101
,
0001
0010
0100
0010
0001
0000
0000
0000
,
0220
0030
0000
0000
0000
0000
0000
0000
0000
0000
0000
0000
0000
0000
0000
0000
0002
0003
0000
0000
0000
0000
0000
0000
0000
0000
0000
0000
0000
0000
0000
0000
2000
3000
0000
0000
0000
0000
0000
0000
0000
0000
0000
0000
0000
0000
0000
0000
0002
0003
0000
0000
0000
0000
0000
0000
0000
0000
0000
0000
0000
0000
0000
0000
,
0020
0330
0000
0000
0000
0000
0000
0000
0000
0000
0000
0000
0000
0000
0000
0000
0000
0000
0000
0000
0000
0000
0000
0000
0000
0000
0000
0000
0000
0000
0000
0000
0011
0000
0000
0000
0000
0000
0000
0000
0000
0000
0000
0000
0000
0000
0000
0000
0000
0000
0000
0000
0000
0000
0000
0000
0000
0000
0000
0000
0000
0000
0000
0000
,
1010
0000
0000
0000
1000
0100
0010
0000
,
0001
0100
0010
0000
1000
0010
0100
0000
,
0001
0010
0100
0000
1000
0000
0001
0000
,
0000
1001
0000
0100
,
1001
0010
1001
0100
,
1001
1001
1001
0000
,
0001
0010
0100
1000
0000
1000
0001
0000
,
1000
0010
0100
0001
0000
0001
1000
0000
,
0001
0010
0100
1000
0000
1000
0001
0000
,
1000
1000
0100
0100
0010
0010
0001
0001
,
1000
0010
1000
0000
0100
0000
0010
0000
,
0001
0100
0001
0000
0010
0000
0100
0000
,
1000
0100
1000
0010
1000
0001
1000
0000
,
1001
0000
0001
0100
,
0001
0010
0001
0000
0100
0000
0010
0000
,
1000
0100
1000
0000
0010
0000
0100
0000
,
0001
0010
0001
0100
0001
1000
0001
0000
,
1001
0000
0101
0000
,
1000
0010
1000
0010
1000
0000
0001
0000
,
1000
0100
1000
0100
1000
0000
0001
0000
,
0100
0010
1000
0000
0100
0000
0010
0000
,
0002
0000
1003
1000
,
0001
0010
0001
0010
0001
0000
1000
0000
,
0001
0100
0001
0100
0001
0000
1000
0000
,
0010
0100
0001
0000
0010
0100
1000
0000
,
1001
0010
1001
0100
,
0011
0011
0100
0100
,
1010
1010
0100
0100
,
0001
0010
0001
0000
1000
0010
1000
0000
,
2002
0000
0000
0000
,
0000
0000
0000
0000
,
0000
0000
0000
0000
,
0000
0000
0000
0000
,
0000
0000
0000
0000
,
0000
0000
0000
0000
,
3003
0000
0000
0000
;

//---------------dance-single - ----------------
#NOTES:
     dance-single:
     :
     Medium:
     8:
     0.643,0.746,0.441,0.469,0.000:
0000
0000
0000
0000
,
0000
0000
0000
0000
,
0000
0000
0000
0000
,
0000
0000
0000
0000
,
0000
0000
0000
0000
,
0000
1000
0100
1000
,
0001
0000
0001
1000
,
0100
0000
1000
0001
,
0100
0001
1000
0001
,
0000
0001
0100
0001
,
1000
0000
1000
0001
,
0100
0000
0001
1000
,
0100
1000
0001
1000
,
0010
0100
0010
0100
,
0010
0000
1000
0001
,
1000
0000
0100
0010
,
0100
0010
0100
0000
,
0001
0010
0100
1000
,
0001
0010
0100
1000
,
0002
0000
2000
3003
,
0000
0010
0010
0000
,
1000
0010
1000
0100
,
1000
0000
0001
0000
,
0011
0000
2000
0000
,
3200
0000
2300
0000
,
3001
0010
0001
0100
,
0001
0000
1000
0000
,
1010
0000
0002
0000
,
0203
0000
0302
0000
,
0013
0100
1000
0100
,
0010
0000
0011
0000
,
0101
0000
0010
0000
,
1000
0000
0100
0000
,
1000
0000
0010
1000
,
0000
0100
0000
0010
,
0001
0000
0100
0000
,
0001
1000
1001
0000
,
0001
0010
0100
0000
,
0001
0010
0100
0000
,
0001
0010
0100
0000
,
0001
0010
0100
1000
,
1000
0010
0100
0000
,
1000
0010
0100
0000
,
1000
0010
0100
0001
,
0010
0100
1000
0100
,
0010
0001
1000
0000
,
0010
0001
1000
0000
,
0010
0001
1000
0000
,
0010
0001
1000
0100
,
0100
1000
0001
0000
,
0100
1000
0001
0000
,
0100
0000
0100
0010
,
0000
0010
0100
0000
,
2100
0000
0010
0000
,
0001
0000
0010
0000
,
3100
0000
0020
0000
,
2030
0000
3002
0000
,
0203
0000
0000
1000
,
0000
0000
0010
0000
,
0302
0000
0010
0000
,
2003
0000
0100
0000
,
3002
0000
0010
0000
,
0100
0000
1000
0000
,
0103
0000
0200
0000
,
0302
0000
2003
0000
,
3020
0000
0000
0001
,
0000
0000
0100
0000
,
2030
0000
0100
0000
,
3002
1000
1000
0000
,
1003
0000
1100
0000
,
1010
0000
0001
1000
,
0000
1000
0001
0000
,
0010
0100
0010
0000
,
0001
0000
0011
0000
,
0101
0000
1001
0000
,
1010
0000
1100
0000
,
1001
0010
0100
0000
,
0011
0000
1100
0000
,
0011
0000
0001
0100
,
0000
1010
0000
1000
,
0001
1000
0010
0000
,
0001
0000
0101
0000
,
1000
0000
1100
0000
,
1001
0000
0110
0000
,
0001
0010
0100
0000
,
1000
0100
1000
0000
,
0011
0000
1000
0010
,
1000
0000
0101
0000
,
1000
0100
1000
0000
,
0001
0100
0001
0000
,
1010
0000
0001
0010
,
0001
0000
1100
0000
,
0001
0100
0001
0000
,
1000
0000
0001
0000
,
1001
0000
0000
0010
,
0000
1000
0000
0010
,
1000
0001
0010
0000
,
0100
0000
0010
0000
,
0001
0000
0100
0000
,
0020
0000
0200
0000
,
0330
0110
0110
0000
,
2000
0000
0000
3020
,
0000
0000
0230
0000
,
0302
0000
0000
0023
,
0000
0000
0230
0000
,
2300
0000
0000
3020
,
0000
0000
0230
0302
,
0023
0000
0000
0000
,
0000
0000
0030
0000
,
0002
0000
0100
0203
,
0000
0000
0320
1000
,
2030
0000
0000
3200
,
0000
0010
0320
0000
,
0032
0000
0100
0203
,
0000
0000
0320
1000
,
2030
0000
0001
0000
,
3000
1001
1001
0000
,
2000
0000
0001
3002
,
1000
0000
0023
0100
,
0230
0000
1000
2300
,
0010
0000
3002
1000
,
2003
0000
0001
3002
,
0010
0000
0023
0100
,
0230
0000
0000
0000
,
0010
0010
0310
0110
,
0000
1001
0000
0000
,
0001
0000
0100
0000
,
0010
0000
1000
0100
,
0000
0001
0100
0000
,
1001
0000
0000
0110
,
0000
0000
1001
0000
,
0220
0000
0000
0000
,
0000
0000
0000
0330
,
1000
0000
0000
1000
,
0000
0000
0100
0000
,
0100
0000
0000
0010
,
0000
0000
0010
0000
,
0001
0000
0000
0001
,
0000
0000
0100
0000
,
0100
0000
0010
0000
,
0010
0000
1000
0000
,
0001
0000
0000
1000
,
0000
0000
0001
0000
,
0010
0000
0100
0000
,
1000
0000
0010
0000
,
0100
0000
0001
0000
,
1000
0000
0100
0000
,
0020
0000
0200
0000
,
0330
1001
1001
0000
,
0001
0010
0001
0010
,
0002
0000
0100
0000
,
1003
0000
1000
0001
,
1000
0001
1000
0000
,
1000
0010
1000
0010
,
2000
0000
0100
0000
,
3001
0000
0001
1000
,
0001
1000
0001
0000
,
0001
0010
0100
1000
,
0200
0000
1000
0000
,
0310
0000
0011
0000
,
1100
0000
0011
0000
,
1001
0000
0000
0000
,
0000
0110
0000
0010
,
0100
0000
0110
0000
,
1000
0001
1001
0000
,
1000
0100
0010
0100
,
1000
0000
1001
0000
,
0110
0000
1000
0100
,
1000
0100
1000
0000
,
0001
0010
0100
0010
,
0001
0000
1001
0000
,
0110
0000
0001
0100
,
0010
0100
0001
0000
,
0010
0100
1000
0100
,
0010
0000
1001
0000
,
0110
0000
1000
0000
,
0001
0000
1001
0000
,
0110
0000
0001
1000
,
0000
1000
0001
0000
,
1001
0000
0100
0010
,
0000
0010
0100
0000
,
0110
0000
0000
1000
0000
1000
0000
0000
,
0110
0000
0000
0001
0000
0001
0000
0000
,
1001
0000
0000
0010
0000
0010
0000
0000
,
1000
0001
1000
0001
1000
0000
0001
0000
,
2000
0000
0100
0000
,
0001
0000
0100
0000
,
3010
0100
1000
0100
,
0010
0000
1001
0000
,
0002
0000
0010
0000
,
1000
0000
0010
0000
,
0103
0010
0001
0010
,
0100
0000
1001
0000
,
1000
0100
0010
0100
,
1000
0100
0010
0100
,
1000
0001
1000
0001
,
1000
0000
0010
0100
,
0001
0010
0100
0010
,
0001
0010
0100
0010
,
0001
1000
0001
1000
,
0001
0000
1001
0000
,
1000
1000
0100
0010
,
0001
0001
0100
0010
,
0100
0100
0010
0010
,
2002
0000
0000
0000
,
0000
0000
0000
0000
,
0000
0000
0000
0000
,
0000
0000
0000
0000
,
0000
0000
0000
0000
,
0000
0000
0000
0000
,
3003
0000
0000
0000
;

//---------------dance-single - ----------------
#NOTES:
     dance-single:
     :
     Beginner:
     4:
     0.149,0.580,0.142,0.235,0.000:
0000
0000
0000
0000
,
0000
0000
0000
0000
,
0000
0000
0000
0000
,
0000
0000
0000
0000
,
0000
0000
0000
0000
,
0010
0000
0000
0000
,
0000
0000
0000
0000
,
0000
0000
0000
0000
,
0000
0000
0000
0000
,
0100
0000
0000
0000
,
0000
0000
0000
0000
,
0000
0000
0000
0000
,
0000
0000
0000
0000
,
0001
0000
0000
0000
,
0000
0000
0000
0000
,
0000
0000
0000
0000
,
0000
0000
0000
0000
,
1000
0000
0000
0000
,
0000
0000
0000
0000
,
0000
0000
0000
0000
,
0000
0000
0000
0000
,
2002
0000
0000
0000
,
3003
0000
0000
0000
,
0000
0000
0000
0000
,
0000
0000
0000
0000
,
0220
0000
0000
0000
,
0330
0000
0000
0000
,
0000
0000
0000
0000
,
0000
0000
0000
0000
,
2002
0000
0000
0000
,
3003
0000
0000
0000
,
0000
0000
0000
0000
,
0000
0000
0000
0000
,
0220
0000
0000
0000
,
0330
0000
0000
0000
,
0000
0000
0000
0000
,
0000
0000
0000
0000
,
1000
0000
0000
0000
,
0000
0000
0000
0000
,
1000
0000
0000
0000
,
0000
0000
0000
0000
,
0001
0000
0000
0000
,
0000
0000
0000
0000
,
0001
0000
0000
0000
,
0000
0000
0000
0000
,
0010
0000
0000
0000
,
0000
0000
0000
0000
,
0010
0000
0000
0000
,
0000
0000
0000
0000
,
0100
0000
0000
0000
,
0000
0000
0000
0000
,
0200
0000
0000
0000
,
0000
0000
0000
0000
,
0300
0000
0000
0000
,
0000
0000
0000
0000
,
0000
0000
0000
0000
,
0000
0000
0000
0000
,
0010
0000
0000
0000
,
0000
0000
0000
0000
,
0000
0000
0000
0000
,
0000
0000
0000
0000
,
1001
0000
0000
0000
,
0000
0000
0000
0000
,
0000
0000
0000
0000
,
0000
0000
0000
0000
,
0100
0000
0000
0000
,
0000
0000
0000
0000
,
0000
0000
0000
0000
,
0000
0000
0000
0000
,
1001
0000
1001
0000
,
1001
0000
0000
0000
,
0000
0000
0000
0000
,
0000
0000
0000
0000
,
0000
0000
0000
0000
,
0000
0000
0000
0000
,
0000
0000
0000
0000
,
0000
0000
0000
0000
,
0110
0000
0110
0000
,
0110
0000
0000
0000
,
0000
0000
0000
0000
,
0000
0000
0000
0000
,
0010
0000
0000
0000
,
0000
0000
0000
0000
,
0100
0000
0000
0000
,
0000
0000
0000
0000
,
0001
0000
0000
0000
,
0001
0000
0000
0000
,
0001
0000
0000
0000
,
0000
0000
0000
0000
,
1000
0000
0000
0000
,
1000
0000
0000
0000
,
1000
0000
0000
0000
,
0000
0000
0000
0000
,
0100
0000
0000
0000
,
0100
0000
0000
0000
,
0100
0000
0000
0000
,
0000
0000
0000
0000
,
0010
0000
0000
0000
,
0010
0000
0000
0000
,
0010
0000
0000
0000
,
0000
0000
0000
0000
,
2000
0000
0000
0000
,
3000
0000
0000
0000
,
0002
0000
0000
0000
,
0003
0000
0000
0000
,
2000
0000
0000
0000
,
3000
0000
0000
0000
,
0002
0000
0000
0000
,
0003
0000
0000
0000
,
0200
0000
0000
0000
,
0300
0000
0000
0000
,
0020
0000
0000
0000
,
0030
0000
0000
0000
,
0200
0000
0000
0000
,
0300
0000
0000
0000
,
0020
0000
0000
0000
,
0030
0000
0000
0000
,
2000
0000
0000
0000
,
3000
0000
0000
0000
,
0200
0000
0000
0000
,
0300
0000
0000
0000
,
0020
0000
0000
0000
,
0030
0000
0000
0000
,
0002
0000
0000
0000
,
0003
0000
0000
0000
,
2002
0000
0000
0000
,
0000
0000
0000
0000
,
3003
0000
0000
0000
,
0000
0000
0000
0000
,
0220
0000
0000
0000
,
0000
0000
0000
0000
,
0330
0000
0000
0000
,
0000
0000
0000
0000
,
1000
0000
0000
0000
,
0000
0000
0000
0000
,
0001
0000
0000
0000
,
0000
0000
0000
0000
,
0100
0000
0000
0000
,
0000
0000
0000
0000
,
0010
0000
0010
0000
,
0010
0000
0000
0000
,
1000
0000
0000
0000
,
0000
0000
0000
0000
,
0001
0000
0000
0000
,
0000
0000
0000
0000
,
0010
0000
0000
0000
,
0000
0000
0000
0000
,
0100
0000
0100
0000
,
0100
0000
0000
0000
,
2000
0000
0000
0000
,
3000
0000
0000
0000
,
0000
0000
0000
0000
,
0000
0000
0000
0000
,
0002
0000
0000
0000
,
0003
0000
0000
0000
,
0000
0000
0000
0000
,
0000
0000
0000
0000
,
0020
0000
0000
0000
,
0030
0000
0000
0000
,
0000
0000
0000
0000
,
0000
0000
0000
0000
,
0200
0000
0000
0000
,
0000
0000
0000
0000
,
0300
0000
0000
0000
,
0000
0000
0000
0000
,
0002
0000
0000
0000
,
0003
0000
0000
0000
,
0000
0000
1001
0000
,
0000
0000
0000
0000
,
2000
0000
0000
0000
,
3000
0000
0000
0000
,
0000
0000
0110
0000
,
0000
0000
0000
0000
,
0200
0000
0000
0000
,
0300
0000
0000
0000
,
0000
0000
0000
0000
,
0000
0000
0000
0000
,
0020
0000
0000
0000
,
0000
0000
0000
0000
,
0030
0000
0000
0000
,
0000
0000
0000
0000
,
0000
0000
0000
0000
,
0010
0000
0000
0000
,
0010
0000
0000
0000
,
0010
0000
0010
0000
,
0010
0000
0000
0000
,
0000
0000
0000
0000
,
0000
0000
0000
0000
,
0000
0000
0000
0000
,
0100
0000
0000
0000
,
0000
0000
0000
0000
,
0100
0000
0100
0000
,
0100
0000
0000
0000
,
0001
0000
0000
0000
,
0000
0000
0000
0000
,
0000
0000
0000
0000
,
0000
0000
0000
0000
,
1000
0000
0000
0000
,
0000
0000
0000
0000
,
1000
0000
1000
0000
,
1000
0000
0000
0000
,
1001
0000
0000
0000
,
0110
0000
0000
0000
,
1001
0000
0110
0000
,
1001
0000
0000
0000
;

//---------------dance-double - ----------------
#NOTES:
     dance-double:
     :
     Challenge:
     10:
     0.875,1.000,0.611,0.448,0.025: // measure 1
00001000
00000000
00000000
00000100
00010000
00000000
00001000
00000000
,  // measure 2
01000000
00000000
00000000
00100000
00000000
00000000
10000000
00000000
00010000
00000000
00000000
00000000
00000000
00010000
00001000
00000100
,  // measure 3
00000010
00000000
00000000
00000000
00000000
00000001
00000100
00001000
00100000
00000000
00000000
00000000
00000000
10000000
01000000
00100000
,  // measure 4
00001000
00001000
00010000
00000010
00000100
00000000
00001001
00000000
,  // measure 5
00011000
00000000
00000000
00000000
,  // measure 6
00000000
00000001
00000100
00001000
,  // measure 7
00010000
00000000
00000100
00001000
,  // measure 8
00010000
00000000
00001000
00100000
,  // measure 9
10000000
00100000
00001000
00000100
,  // measure 10
00000000
00001000
00010000
01000000
,  // measure 11
10000000
00000000
00010000
01000000
,  // measure 12
10000000
00000000
01000000
10000000
,  // measure 13
00100000
00001000
00000100
00000010
,  // measure 14
00000001
00000100
00000001
00000000
00000010
00000000
00000100
00000000
,  // measure 15
00011000
00000000
00000000
00000000
00000001
00000100
00000001
00000000
,  // measure 16
00001010
00000000
00000000
00000000
00000001
00000010
00000001
00000000
,  // measure 17
00001100
00000001
00001000
00000001
,  // measure 18
00000010
00000100
00010000
00001000
,  // measure 19
01000000
00100000
00010000
00100000
,  // measure 20
10000000
01000000
10000000
00000000
00100000
00010000
00100000
00000000
,  // measure 21
00001000
00000110
00000110
00000000
,  // measure 22
00020000
00230000
20300000
30200000
,  // measure 23
00320000
00030000
00001001
00000000
,  // measure 24
00000110
00000000
00000001
00000101
,  // measure 25
00001000
00000100
00010000
00000100
00001000
00000000
00000000
00000000
,  // measure 26
00002000
00003200
00000302
00000203
,  // measure 27
00002300
00003000
10010000
00000000
,  // measure 28
01100000
00000000
10000000
10100000
,  // measure 29
00010000
00100000
00001000
00100000
00010000
00000000
00000000
00000000
,  // measure 30
00020000
00030200
00002300
02003000
,  // measure 31
03200000
00300000
00011000
00000000
,  // measure 32
00000110
00000000
00000000
00000001
00000010
00000000
00000000
00000010
,  // measure 33
00000100
00000000
00000000
00000100
00001000
00000000
00000001
00000000
,  // measure 34
00000100
00000000
00001000
00010000
,  // measure 35
00000000
00100000
00000000
01000000
,  // measure 36
00001000
00000000
00010000
00000000
,  // measure 37
10000000
01000000
00010000
00000000
,  // measure 38
10000000
00100000
00010000
00100000
,  // measure 39
10000000
01000000
00001000
01000000
,  // measure 40
10000000
00100000
00010000
00100000
,  // measure 41
00001000
00000100
00000010
00001000
,  // measure 42
00000001
00000010
00001000
00000010
,  // measure 43
00000001
00000100
00010000
00000100
,  // measure 44
00000001
00000010
00001000
00000010
,  // measure 45
00000001
00001000
00000010
00010000
,  // measure 46
00001000
00010000
00100000
00010000
,  // measure 47
00001000
00000100
00000010
00000100
,  // measure 48
00001000
00010000
00100000
00010000
,  // measure 49
00001000
00001000
00001000
00001000
,  // measure 50
00100000
10000000
00100000
00010000
,  // measure 51
00001000
00000100
00000010
00000100
,  // measure 52
00001000
00010000
00100000
10000000
,  // measure 53
00000000
00011000
00011000
00011000
,  // measure 54
00000200
00000000
00001000
00000000
,  // measure 55
00000010
00000000
00000001
00000000
,  // measure 56
00000010
00000000
00000000
00000000
00010300
00000000
00000000
00010000
,  // measure 57
00001000
00000000
00000000
00001000
01000000
00000000
00000000
01000000
,  // measure 58
00100000
10000000
00100000
10000000
00100000
00000000
01000000
00001000
,  // measure 59
01000000
00001000
01000000
00000000
00001000
00010000
00001000
00000000
,  // measure 60
00010000
00000100
00010000
00000000
00001010
00000000
00000100
00000000
,  // measure 61
00000000
00000011
00000011
00000011
,  // measure 62
00002000
00000000
00000010
00000000
,  // measure 63
00000100
00000000
00010000
00000000
,  // measure 64
00103000
00000000
00000000
00100000
10000000
00000000
00000000
10000000
,  // measure 65
01000000
00000000
00000000
01000000
00010000
00000000
00000000
00010000
,  // measure 66
00000010
00000001
00000010
00000001
00000010
00000000
00001000
00000001
,  // measure 67
00001000
00000001
00001000
00000000
00000100
00010000
00000100
00000000
,  // measure 68
00100000
00001000
00100000
00000000
10010000
00000000
00000000
00000000
,  // measure 69
01100000
01100000
01100000
00000000
,  // measure 70
00010000
00001000
00000000
00000000
00001000
00000100
00000000
00000000
,  // measure 71
00000100
00000001
00000000
00000000
00000001
00001000
00000001
00000000
,  // measure 72
00000000
00000000
00001001
00000000
00000000
00000000
00000001
00000010
,  // measure 73
00000100
00001000
00000001
00000000
00000010
00000000
00000100
00000000
,  // measure 74
00010000
00000000
00000000
00010000
00001000
00000000
00000000
00001000
,  // measure 75
01000000
00000000
00000000
01000000
00100000
00000000
00000000
00100000
,  // measure 76
10000000
00000000
00000000
10000000
01000000
00000000
00000000
01000000
,  // measure 77
00100000
00100000
10010000
00000000
,  // measure 78
00011000
00000000
00001001
00000000
,  // measure 79
00011000
00000000
10010000
01000000
,  // measure 80
00000000
00100000
00000000
00001000
,  // measure 81
00000100
00000010
00001000
00000001
,  // measure 82
00000011
00000000
00001010
00000000
,  // measure 83
00110000
00000000
10100000
00000000
,  // measure 84
10000000
01000000
00010000
00001000
,  // measure 85
00000100
00000001
00001000
00000000
,  // measure 86
00000001
00000100
00010000
00000100
,  // measure 87
00000001
00000100
00001000
00000100
,  // measure 88
00000010
00010000
00001000
00100000
,  // measure 89
01000000
10000000
01000000
10000000
01000000
00000000
00000000
00000000
,  // measure 90
10000000
00100000
00001000
00100000
,  // measure 91
10000000
00100000
00010000
00100000
,  // measure 92
01000000
00100000
00001000
00000010
,  // measure 93
00000100
00000001
00000100
00000001
00000100
00000000
00000000
00000000
,  // measure 94
00000001
00000010
00000100
00001000
,  // measure 95
00011000
00000000
10010000
00100000
,  // measure 96
00000000
01000000
00100000
00001000
,  // measure 97
00000100
00000010
00001000
00000001
,  // measure 98
00000010
00010000
00001000
01000000
,  // measure 99
10000000
00100000
01000000
00010000
,  // measure 100
10000000
01000000
10000000
00000000
00010000
01000000
00010000
00000000
,  // measure 101
00011000
00011000
00011000
00000000
,  // measure 102
20000000
00000000
00000000
30200000
,  // measure 103
00000000
00000000
02300000
00000000
,  // measure 104
03020000
00000000
00000000
00030020
,  // measure 105
00000000
00000000
00000230
00000000
,  // measure 106
00002300
00000000
00000000
00003020
,  // measure 107
00000000
00000000
00000230
00000302
,  // measure 108
00000023
00000000
00000000
00000000
,  // measure 109
00000000
00000000
00000030
00000000
,  // measure 110
00000002
00000010
00001000
00000203
,  // measure 111
00000000
00010000
00000320
00000000
,  // measure 112
00002030
00010000
01000000
00203000
,  // measure 113
00000000
00010000
02300000
00000000
,  // measure 114
03020000
10000000
00100000
02030000
,  // measure 115
00000000
10000000
03200000
00000000
,  // measure 116
00302000
01000000
00010000
00010000
,  // measure 117
00003000
00011000
00011000
00000000
,  // measure 118
20000000
00100000
01000000
30020000
,  // measure 119
10000000
01000000
00230000
00010000
,  // measure 120
20300000
00100000
00010000
32000000
,  // measure 121
10000000
00100000
03020000
00000010
,  // measure 122
00032000
00000001
00000010
00003200
,  // measure 123
00001000
00000001
00000320
00001000
,  // measure 124
00000230
00000000
00000000
00000000
,  // measure 125
00000010
00000010
00000310
00000110
,  // measure 126
00000000
00011000
00000000
00000000
,  // measure 127
00010000
00000000
00100000
00000000
,  // measure 128
10000000
00000000
00100000
00010000
,  // measure 129
00000000
00001000
00000100
00000000
,  // measure 130
00000001
00000000
00000000
00000010
,  // measure 131
00000000
00000000
00000100
00000000
,  // measure 132
00002000
00000000
00000000
00000000
,  // measure 133
00000000
00000000
00000000
00003000
,  // measure 134
00011000
00000000
00100000
10000000
,  // measure 135
01000000
00000000
00010000
00000000
,  // measure 136
00011000
00000000
00000010
00000001
,  // measure 137
00000100
00000000
00001000
00000000
,  // measure 138
00011000
00000000
01000000
10000000
,  // measure 139
00100000
00000000
00010000
00000000
,  // measure 140
00011000
00000000
00001100
00000000
,  // measure 141
00011000
00000000
01010000
00000000
,  // measure 142
00011000
00000000
00000100
00000001
,  // measure 143
00000010
00000000
00001000
00000000
,  // measure 144
00011000
00000000
01000000
10000000
,  // measure 145
00100000
00000000
00010000
00000000
,  // measure 146
00001000
00010000
00001000
00010000
,  // measure 147
00000100
00000010
00000100
00000010
,  // measure 148
00000001
00000100
00000001
00000000
00001000
00000100
00001000
00000000
,  // measure 149
00000000
00011000
00011000
00000000
,  // measure 150
00100000
10000000
00100000
10000000
01000000
00000000
00110000
00000000
,  // measure 151
00110000
00000000
00010000
00000000
,  // measure 152
00011000
00000000
00002000
00010000
,  // measure 153
00100000
01000000
00103000
00000000
,  // measure 154
00000100
00000001
00000100
00000001
00000010
00000000
00001100
00000000
,  // measure 155
00001100
00000000
00001000
00000000
,  // measure 156
00011000
00000000
00020000
00001000
,  // measure 157
00000100
00000010
00030100
00000000
,  // measure 158
00010000
00001000
00010000
00001000
00100000
00000000
00010100
00000000
,  // measure 159
00101000
00000000
00001000
00000000
,  // measure 160
00011000
00000000
00000000
00001000
00010000
00000000
00000000
00010000
,  // measure 161
00001000
00000000
00000000
00001000
00010000
00000000
00000000
00000000
,  // measure 162
10010000
00000000
00010000
00001000
,  // measure 163
00000000
00001001
00000000
00001000
,  // measure 164
00010000
00000000
10010000
00000000
,  // measure 165
00011000
00000000
00001001
00000000
,  // measure 166
01010000
00000000
00100000
00000000
00010000
01000000
00010000
01000000
,  // measure 167
00001000
00000000
00011000
00000000
,  // measure 168
00010010
00000000
00000002
00000023
,  // measure 169
00002030
00000000
00000000
00000000
00000000
00000000
00000000
00000000
00000000
00000000
00000000
00000000
00000000
00000000
00000000
00000000
00000200
00000300
00000000
00000000
00000000
00000000
00000000
00000000
00000000
00000000
00000000
00000000
00000000
00000000
00000000
00000000
00003002
00000003
00000000
00000000
00000000
00000000
00000000
00000000
00000000
00000000
00000000
00000000
00000000
00000000
00000000
00000000
00000000
00000000
00000000
00000000
00000000
00000000
00000000
00000000
00000000
00000000
00000000
00000000
00000000
00000000
00000000
00000000
,  // measure 170
00001010
00000000
00000100
00000000
00001000
00000010
00001000
00000010
,  // measure 171
00010000
00000000
00011000
00000000
,  // measure 172
01001000
00000000
20000000
32000000
,  // measure 173
03020000
00000000
00000000
00000000
00000000
00000000
00000000
00000000
00000000
00000000
00000000
00000000
00000000
00000000
00000000
00000000
00200000
00300000
00000000
00000000
00000000
00000000
00000000
00000000
00000000
00000000
00000000
00000000
00000000
00000000
00000000
00000000
20030000
30000000
00000000
00000000
00000000
00000000
00000000
00000000
00000000
00000000
00000000
00000000
00000000
00000000
00000000
00000000
00000000
00000000
00000000
00000000
00000000
00000000
00000000
00000000
00000000
00000000
00000000
00000000
00000000
00000000
00000000
00000000
,  // measure 174
00010100
00000000
00100000
00000000
00010000
00000100
00010000
00000100
,  // measure 175
00001000
00000000
00011000
00000000
,  // measure 176
00110000
00000000
00000000
00000000
00001000
00000000
00000000
00001000
,  // measure 177
00000100
00000000
00000000
00000100
00000010
00000000
00000000
00000010
,  // measure 178
00001000
00000001
00001000
00000001
,  // measure 179
00000000
00000100
00000000
00001000
,  // measure 180
00010000
00000000
01100000
00000000
,  // measure 181
10000000
01000000
00010000
00000000
,  // measure 182
00000100
00000000
00000000
01000000
00000000
01000000
00000000
00000000
,  // measure 183
00001000
00000000
00000000
10000000
00000000
10000000
00000000
00000000
,  // measure 184
00000010
00000000
00000000
00100000
00000000
00100000
00000000
00000000
,  // measure 185
00001000
00000100
00000010
00000001
00000010
00000100
00001000
00000000
,  // measure 186
00000100
00010000
00000010
00010000
,  // measure 187
00001000
00100000
00010000
01000000
,  // measure 188
00100000
10000000
00010000
00100000
,  // measure 189
01000000
00000000
10000000
10000000
,  // measure 190
00100000
00010000
00001000
00000100
,  // measure 191
00000001
00000010
00000100
00001000
,  // measure 192
00000010
00010000
00001000
00100000
,  // measure 193
01000000
00000000
10010000
00000000
,  // measure 194
00100000
00001000
00100000
00000000
00001000
00000000
01000000
00000000
,  // measure 195
00010000
00100000
00001000
00000000
00010000
00000000
00000010
00000000
,  // measure 196
00000100
00000001
00000100
00000001
00001000
00000000
00000100
00000000
,  // measure 197
00000010
00000000
00000001
00000001
,  // measure 198
00000100
00000010
00010000
00000000
00001000
00000000
00100000
00000000
,  // measure 199
01000000
10000000
01000000
00000000
00100000
00000000
00010000
00000000
,  // measure 200
01000000
00001000
01000000
00001000
00010000
00000000
00000100
00000000
,  // measure 201
00000110
00000110
00000110
00000000
,  // measure 202
00000001
00000100
00000001
00000100
00001000
00010000
00001000
00010000
,  // measure 203
00100000
10000000
00100000
10000000
01000000
00000000
01000000
00000000
,  // measure 204
00010000
00001000
00011000
00010000
,  // measure 205
00022000
00000000
00000000
00000000
,  // measure 206
00000000
00000000
00000000
00000000
,  // measure 207
00000000
00000000
00000000
00000000
,  // measure 208
00000000
00000000
00000000
00000000
,  // measure 209
00000000
00000000
00000000
00000000
,  // measure 210
00000000
00000000
00000000
00033000
;
