#TITLE:Floating Darkness...;
#SUBTITLE:;
#ARTIST:Tatsh feat. 月子;
#TITLETRANSLIT:;
#SUBTITLETRANSLIT:;
#ARTISTTRANSLIT:Tatsh feat. Tsukiko;
#GENRE:;
#CREDIT:AznPunk07/Frozen_Heat/GuardianFrozen;
#MENUCOLOR:#bc0061;
#BANNER:Floating Darkness-bn.png;
#BACKGROUND:Floating Darkness-bg.png;
#LYRICSPATH:Floating Darkness.lrc;
#CDTITLE:!cdtitle.png;
#MUSIC:Floating Darkness....mp3;
#OFFSET:-1.306;
#SAMPLESTART:25.020;
#SAMPLELENGTH:20.000;
#SELECTABLE:YES;
#LISTSORT:;
#BPMS:0.000=91.000,18.000=364.000,90.000=182.000,150.000=91.000,152.000=364.000,216.000=182.000,280.000=364.000;
#STOPS:279.000=0.665
;
#TICKCOUNT:0.000=2;
#BGCHANGES:;
#KEYSOUNDS:;
#ATTACKS:;

//---------------dance-single - ----------------
#NOTES:
     dance-single:
     :
     Hard:
     8:
     0.586,0.851,0.336,0.343,0.065:
0000
0000
0000
0000
,
2000
0000
3000
0002
0000
0003
2000
0000
,
3000
0000
0000
0000
0000
0000
0100
0010
,
0002
0000
0003
2000
0000
3000
0002
0200
,
0303
0000
2002
0000
,
0000
0000
0000
3003
,
0000
0000
0010
0000
,
1000
0100
1000
0000
,
0001
0100
0001
0000
,
0010
0100
0010
0000
,
1100
0000
0101
0000
,
0010
0001
1000
0000
,
0010
1000
0001
0000
,
0100
0010
0100
0000
,
0011
0000
1010
0000
,
0001
0010
1000
0000
,
0001
0100
1000
0000
,
0010
1000
0101
0000
,
1100
0000
1001
0000
,
0010
0100
0010
0000
,
0001
0100
0010
1000
,
0100
0010
0001
0100
,
0001
1000
0100
0011
,
0100
1010
0002
0023
,
2030
3020
0031
0101
,
1000
1100
2000
3020
,
0032
0003
0010
1000
,
0100
0000
0000
0000
0010
0000
0000
0000
0001
0000
0000
0010
0001
0000
0000
1000
,
0001
0000
0000
0100
0001
0000
0000
0000
1000
0000
0000
0000
0010
0000
0000
0000
,
0001
0000
0000
0000
0010
0000
0000
0000
1000
0000
0000
0001
1000
0000
0000
0100
,
1000
0000
0100
0010
0100
0000
1000
0000
,
0010
0001
0020
0230
,
0302
0000
0000
0000
1003
0000
0000
1000
0100
0000
0000
0000
0010
0000
0000
0000
,
0001
0000
0100
0000
0010
0100
0010
0000
,
0110
0000
0001
1000
0001
0000
0010
0000
,
0100
0000
0000
0000
1000
0000
0000
1000
0010
0000
0000
0001
0020
0000
0000
0000
,
0230
0000
2300
0000
3001
0010
1000
0000
,
1000
0100
0001
0000
0020
1000
0031
0000
,
0100
1000
0100
1000
,
0000
0001
0100
0001
,
0000
0010
0001
1000
,
0001
1000
0010
1000
,
0000
0100
0001
0100
,
0000
0010
1000
0010
,
0000
1000
0100
1000
,
0001
0010
0100
1000
,
0000
0001
1000
0001
,
0000
0100
0001
0100
,
0000
0010
1000
0010
,
1000
0100
0010
0001
,
0000
1000
0001
1000
,
0000
0010
1000
0010
,
0100
0000
0010
0000
,
0220
0000
0330
0000
,
1000
1010
0001
0011
,
1000
0100
0010
0000
0002
0000
0103
0000
,
0010
1000
0001
0000
0020
0000
0130
0000
,
1000
0010
0001
0000
0010
1000
0100
0000
,
0001
0101
1000
1100
,
0001
0000
0000
0010
0100
0000
0000
0000
1000
0000
0000
1000
0010
0000
0000
0000
,
0100
0000
0000
0000
1001
0000
0000
0000
0100
0000
0000
0100
0010
0000
0000
0000
,
0011
0000
0101
0000
0100
0010
1000
0000
,
0002
0000
0000
0000
0010
0000
0000
0000
0100
0000
0000
0000
1003
0000
0000
1000
,
0010
0000
0000
0010
0100
0000
0000
0100
0001
0000
0000
0001
0010
0000
0000
0010
,
0200
0000
0000
0000
1000
0000
0000
0000
0010
0000
0000
0000
0301
0000
0000
0001
,
0100
0000
0000
0100
1000
0000
0000
1000
0010
0000
0100
0000
0010
0000
0000
0000
,
2000
0100
0001
3100
,
0010
0001
0010
0000
1000
0010
1000
0001
,
0020
1000
0100
1030
,
0010
0000
0000
0000
0000
0000
0000
0000
0001
0000
0000
0000
0000
0000
0000
0000
0100
0000
0000
0000
0000
0000
0000
0000
0000
0000
0000
0000
0000
0000
0000
0000
0220
0000
0000
0000
0000
0000
0000
0000
0000
0000
0000
0000
0000
0000
0000
0000
0000
0330
0000
0000
0000
0000
0000
0000
0000
0000
0000
0000
0000
0000
0000
0000
,
1001
0000
0101
0000
,
0010
0000
0000
1000
0000
0000
0100
0000
,
1000
0000
1100
0000
,
0010
0000
0000
0001
0000
0000
0100
0000
,
0010
0000
0101
0000
,
0010
0000
0000
1000
0000
0000
0001
0000
,
0010
0000
0000
0100
0000
0000
1000
0000
,
0010
0100
0001
0010
,
0100
1000
0100
0000
,
0010
0000
0000
0001
0000
0000
1000
0000
,
0010
0000
0011
0000
,
0010
0000
0000
1000
0000
0000
0001
0000
,
0010
0000
1010
0000
,
0100
0000
0000
0010
0000
0000
0100
0000
,
0020
0000
0031
0000
,
0200
0000
1300
0000
,
1001
0000
1010
0000
,
0100
0000
0000
0001
0000
0000
0010
0000
,
0001
0000
0011
0000
,
0100
0000
0000
1000
0000
0000
0010
0000
,
0100
0000
1010
0000
,
0100
0000
0000
0001
0000
0000
1000
0000
,
0100
0000
0000
0010
0000
0000
0001
0000
,
0100
0010
1000
0100
,
0010
0001
0010
0000
,
0100
0000
0000
1000
0000
0000
0001
0000
,
0100
0000
1100
0000
,
0100
0000
0000
0001
0000
0000
1000
0000
,
0100
0000
0101
0000
,
0010
0000
0100
0010
,
0000
1000
0001
1000
,
0020
0100
0030
0000
,
1010
0000
0101
0000
,
0010
0000
0000
0100
0000
0000
1000
0000
,
0200
0000
0310
0000
,
0001
0000
0000
0100
0000
0000
0001
0000
,
0020
0000
0130
0000
,
1000
0000
0000
0001
0000
0000
1000
0000
,
0010
0000
0000
0100
0000
0000
0010
0000
,
1000
0100
0010
0001
,
2000
0000
0010
0000
,
0100
0000
3001
1000
,
0001
0000
0010
0000
,
0001
0000
0100
0000
,
1001
0000
0010
0100
,
0000
1001
0000
0110
,
0000
0001
0010
0000
,
0001
0100
0001
0000
,
2000
0000
3100
0000
,
0010
0000
0000
0001
0000
0000
1000
0000
,
0020
0000
0001
0000
,
0130
0000
0000
0001
0000
0000
0010
0000
,
0200
0000
1000
0000
,
0001
0000
1000
0000
,
0310
0000
1100
0000
,
0011
0000
1100
0000
,
0011
0000
1000
0100
,
0000
1000
0010
1000
,
0000
0001
0010
0000
,
1001
0000
0110
0000
,
2002
0000
0000
0000
,
0000
0000
0000
0000
,
0000
0000
0000
0000
,
3003
0000
0000
0000
,
0001
0000
1000
0000
,
0001
0000
1000
0000
,
0001
0000
0010
0100
,
0010
0000
0100
0010
,
0200
0000
1000
0000
,
0010
0000
0001
0000
,
2300
0000
0010
0000
,
0100
0000
3001
0100
,
0002
0000
0010
0000
,
1000
0000
0100
0000
,
0023
0000
1000
0000
,
0001
0000
1000
0000
,
0130
0010
0100
0000
,
0010
0100
0010
0000
,
0011
0000
1010
0000
,
0001
1000
0001
0000
,
1000
0010
0100
0001
,
1000
0000
1000
0100
,
1000
0000
1000
0010
,
1000
0001
1000
0001
,
0010
0000
0001
0000
,
0100
0001
0100
0010
,
0100
1000
0100
0001
,
0010
0100
1000
0000
,
0001
0000
1000
0000
,
0001
0010
0100
1000
,
0100
0000
1000
0010
,
0001
0010
1000
0100
,
2002
0000
0000
0000
,
0000
0000
0000
0000
,
0000
0000
0000
0000
,
0000
0000
3003
0000
;

//---------------dance-single - ----------------
#NOTES:
     dance-single:
     :
     Challenge:
     10:
     0.950,1.000,0.734,0.069,0.288:
0000
0000
0000
0000
,
0000
0000
0000
0000
,
0010
0010
1000
0100
1000
0100
0010
0010
0001
0100
0001
0100
0010
0100
0010
0100
,
0010
0010
1000
0100
1000
0001
0010
0010
0001
0100
0001
1000
0010
0010
0100
0001
,
0010
0010
0100
1000
0100
1000
0010
0010
0200
0000
0000
0000
0020
0000
0000
0000
,
0000
0000
0000
0000
,
0330
0000
1001
0000
,
0001
0010
0100
0100
,
1000
0010
0100
0000
,
0010
1000
0101
0010
,
1100
0000
1001
0000
,
1000
0100
0010
0010
,
0001
0100
0010
0000
,
1000
0001
1010
0100
,
0001
0000
1100
0000
,
0010
0100
0010
0001
,
0100
0001
1000
0000
,
0001
1000
0011
0100
,
1010
0100
1001
0000
,
1000
0100
1000
0001
,
0010
0100
1001
0010
,
0100
0000
0001
0000
1000
0100
0010
0001
,
1000
0000
0100
0000
0010
0000
0001
0000
1000
0000
0000
0001
1000
0000
0000
0010
,
1000
0000
0000
0100
1000
0000
0000
1000
0100
0000
0000
0100
0010
0000
0000
0010
,
0001
0000
0000
1000
0001
0000
0010
0000
0001
0100
0001
0000
0010
0000
0000
0001
,
0100
0000
0000
0001
1000
0000
0000
0001
0100
0000
0000
0010
1000
0000
0000
1000
,
0100
0000
0010
0000
0001
0000
0000
0000
1000
0010
1000
0000
0001
0000
0000
1000
,
0100
0000
0000
1000
0010
0000
0000
1000
0001
0000
0000
0001
0100
0000
0000
0100
,
0010
0000
0000
0010
1000
0000
0100
0000
0010
0100
0010
0000
0001
0000
0000
0010
,
0001
0000
0000
0100
0001
0000
0000
0001
1000
0000
0000
1000
0100
0000
0000
0100
,
0010
0000
0110
0000
1001
0000
0000
0000
0010
1000
0010
0000
0100
0000
0000
0001
,
0100
0000
0000
0010
1000
0000
0000
0000
0001
0010
0001
0000
0010
0000
0000
0010
,
0100
0000
0000
0100
1000
0000
0000
0000
1000
0010
1000
0000
0010
0000
0000
1000
,
0010
0000
0000
0100
0001
0000
0000
0000
0100
0001
0100
0000
0010
0000
0000
0000
,
1001
0000
0010
0000
1000
0001
1000
0000
0001
1000
0001
0000
0100
0000
0010
0000
,
1000
0100
1000
0100
1000
0000
0010
0000
0100
0001
0100
0000
0010
0000
1000
0000
,
0001
0010
0001
0010
0001
0000
0010
0000
0100
1000
0100
0000
1000
0000
0001
0000
,
0100
0001
0100
0000
0001
0000
0010
0000
0001
1000
0001
0000
0100
0000
0000
0000
,
0010
1000
0001
0001
,
0010
1000
0010
0010
,
0100
1000
0001
0001
,
0100
0010
1000
1000
,
0100
0001
0100
0100
,
0010
0001
1000
1000
,
0010
0001
0010
0010
,
0100
0001
1000
1000
,
0100
0010
0100
0000
0001
0000
1000
0000
,
0010
0100
0010
0000
1000
0000
0001
0000
,
1000
0100
1000
0000
0010
0000
0100
0000
,
0001
0010
0001
0000
0100
0000
0010
0000
,
1000
0001
0100
0000
0010
0000
1000
0000
,
0001
1000
0100
0000
0010
0000
0001
0000
,
1000
0001
1000
0001
1000
0001
1000
0001
,
0100
0010
0100
0010
0100
0010
0100
0010
,
1000
0000
0000
1000
0100
0000
0000
0100
0010
0000
0000
0010
0001
0000
0000
0000
,
0101
0000
0000
0000
1001
0000
0000
0000
0101
0000
0000
0000
0011
0000
0000
0001
,
0010
0000
0000
0010
0100
0000
0000
0100
1000
0000
0000
1000
0010
0000
0000
0000
,
0011
0000
1010
0000
0010
0100
0010
0000
,
1000
0100
0001
0100
1000
0010
0001
0010
,
1000
0100
0010
0001
0100
0010
1000
0001
,
0010
1000
0010
0001
0100
0010
1000
0001
,
0200
0000
1000
0000
0310
1000
0001
0000
,
0011
0000
0000
0000
1100
0000
0000
0000
0011
0000
0000
0000
1010
0000
0000
0010
,
0001
0000
0000
0010
1000
0000
0000
0100
0001
0000
0000
0100
1000
0000
0000
0000
,
1000
0010
1000
0000
0001
0010
0001
0000
,
1001
0000
0110
0000
1001
0010
0100
0000
,
0001
0000
0000
0001
0100
0000
0000
0100
0010
0000
0000
0010
1000
0000
0000
1000
,
0100
0000
0000
1000
0010
0000
0000
1000
0001
0000
0000
0001
0100
0000
0001
0000
,
0010
0100
1010
0000
0100
0010
0101
0000
,
0001
0000
0000
0000
0000
0000
0000
0000
1000
0000
0000
0000
0000
0000
0000
0000
0110
0000
0000
0000
0000
0000
0000
0000
0000
0000
0000
0000
0000
0000
0000
0000
2002
0000
0000
0000
0000
0000
0000
0000
0000
0000
0000
0000
0000
0000
0000
0000
0000
3003
0000
0000
0000
0000
0000
0000
0000
0000
0000
0000
0000
0000
0000
0000
,
0001
0010
0001
0000
0100
0000
0010
0000
,
1100
0000
0000
1010
0000
0000
1001
0000
,
1000
0100
1000
0000
0010
0000
0100
0000
,
0101
0000
0000
1010
0000
0000
1100
0000
,
0001
0100
0001
0000
0010
0000
1000
0000
,
0011
0000
0000
1100
0000
0000
1001
0000
,
0101
0000
0000
1010
0000
0000
0101
0000
,
1000
0100
0010
0001
,
1000
0100
1000
0100
1000
0000
0010
0000
,
0101
0000
0000
1010
0000
0000
1100
0000
,
0001
0010
0001
0010
0001
0000
0010
0000
,
1100
0000
0000
0101
0000
0000
1001
0000
,
0010
0100
0010
0100
0010
0000
1000
0000
,
0011
0000
0000
0101
0000
0000
1010
0000
,
1000
0100
0010
0001
,
1000
0010
0100
0001
,
1000
0100
1000
0000
0010
0000
0100
0000
,
0011
0000
0000
0101
0000
0000
1001
0000
,
0001
0010
0001
0000
0100
0000
0010
0000
,
1010
0000
0000
0101
0000
0000
0011
0000
,
1000
0010
1000
0000
0100
0000
0001
0000
,
1100
0000
0000
0011
0000
0000
1001
0000
,
1010
0000
0000
0101
0000
0000
1010
0000
,
0001
0010
0100
1000
,
0001
0010
0001
0100
0001
0000
0100
0000
,
1010
0000
0000
0101
0000
0000
0011
0000
,
1000
0100
1000
0010
1000
0000
0100
0000
,
0011
0000
0000
1010
0000
0000
1001
0000
,
0100
0010
1000
0001
0100
0000
0001
0000
,
1100
1010
0000
0101
,
0000
0001
0010
0100
,
1000
0001
1000
0010
0100
0001
0100
0010
,
1000
0100
1000
0100
1000
0100
1000
0000
,
0101
0000
0000
0011
0000
0000
1001
0000
,
0001
0100
0001
0100
0001
0100
0001
0000
,
1010
0000
0000
1001
0000
0000
1100
0000
,
0010
0100
0010
0100
0010
0100
0010
0000
,
0101
0000
0000
1010
0000
0000
1001
0000
,
1100
0000
0001
0010
0000
0100
1000
0000
,
0110
0000
1000
0010
0000
0100
0001
0000
,
0110
0001
1000
0001
,
1000
0001
0010
0100
,
0010
0001
0200
1300
,
0200
0310
0200
0301
,
1100
0000
0101
1001
,
0000
1100
0000
0101
,
0000
0001
1000
0001
,
0010
0100
0010
0100
0010
0000
0000
0000
,
0001
0010
0001
0100
0001
0010
0001
0000
,
1010
0000
0000
0101
0000
0000
1010
0000
,
1000
0100
1000
0010
1000
0100
1000
0000
,
0011
0000
0000
1100
0000
0000
0011
0000
,
0001
0100
1000
0100
0010
0100
1000
0100
,
0001
0100
1000
0100
0010
0100
0001
0100
,
0010
0000
1010
0000
,
0011
0000
1001
0000
,
1001
0010
0100
0101
,
0000
1100
0000
1010
,
0000
0011
0000
1100
,
0000
0101
0000
1001
,
0000
0100
0001
0000
,
0010
0100
1000
0000
,
0001
0100
1000
0100
,
0001
0000
0010
0000
0100
0000
0100
1000
,
0100
0010
0001
1000
,
0001
1000
0010
0100
,
0001
0000
0010
0100
1000
0001
0100
0010
,
1000
0000
0100
0000
0010
0001
0010
0100
,
1000
0000
0001
0000
0100
0000
0001
1000
,
0001
0000
1000
0100
0000
1000
0010
0000
,
1000
0001
1000
0001
0010
0100
0010
0100
,
1000
0010
0001
0010
,
1000
0100
1000
0000
0100
0000
0010
0000
,
0001
0000
1000
0000
0001
0010
0100
1000
,
0001
0000
0010
0000
0001
0100
0010
1000
,
0100
0000
0010
0000
0001
0010
0100
1000
,
0001
1000
0010
0100
,
0001
0010
1000
0001
,
0100
1000
0010
0001
,
1000
0000
0100
0000
0001
0010
0001
0000
,
1000
0010
0001
0010
1000
0100
0010
0001
,
1000
0000
0001
0000
1000
0010
0001
1000
,
0100
0000
0010
0100
0001
0010
1000
0010
,
0100
1000
0100
0010
0001
0000
1000
0010
,
1000
0001
0100
0001
,
1000
0100
1000
0100
0010
0000
0001
0010
,
0100
1000
0001
0010
0100
1000
0010
0001
,
0010
0100
0001
0010
0100
1000
0100
0000
,
0010
0001
0010
0001
0010
0001
0010
0001
,
1000
0100
1000
0100
1000
0100
1000
0100
,
0010
0001
1000
0001
0100
0010
1000
0010
,
0100
0001
0010
1000
0001
0100
1000
0001
,
0220
0000
0000
0000
,
0000
0000
0000
0000
,
0000
0000
0000
0000
,
0000
0000
0330
0000
;

//---------------dance-single - ----------------
#NOTES:
     dance-single:
     :
     Medium:
     7:
     0.507,0.851,0.384,0.439,0.000:
0000
0000
0000
0000
,
0000
0000
0000
0000
,
0000
0000
0000
0000
,
0000
0000
0000
0000
,
0000
0000
0200
0000
,
0000
0000
0000
0000
,
0000
0000
0310
0000
,
2000
0000
3100
0000
,
0002
0000
0103
0000
,
0010
0000
0110
0000
,
0110
0000
0002
0000
,
0013
0000
2000
0000
,
3010
0000
0200
0000
,
0310
0000
2002
0000
,
3003
0000
0010
0000
,
0002
0000
1003
0000
,
0020
0000
1030
0000
,
0100
0000
1010
0000
,
1100
0000
0200
0000
,
0301
0000
0020
0000
,
0031
0000
2000
0000
,
3001
0000
2002
0000
,
3003
0000
0010
1000
,
0100
0001
0020
1000
,
0100
0031
1000
0100
,
0001
0100
2000
0010
,
3001
0000
0001
0100
,
1000
0010
0002
0100
,
1000
0013
0100
1000
,
0010
0001
0020
0100
,
1030
0000
0001
0011
,
0001
0101
1000
1010
,
0011
1010
1000
1100
,
0001
0101
1000
1010
,
1100
0000
0010
0010
,
0001
1000
0010
0010
,
0100
0001
1000
1000
,
0001
0001
0020
0130
,
0001
0100
0001
0100
,
0000
0001
0100
0001
,
0000
0010
0001
0010
,
0000
0001
0100
0001
,
0000
1000
0100
1000
,
0000
0010
1000
0010
,
0000
1000
0100
1000
,
0000
0100
0001
0100
,
0000
1000
0010
1000
,
0000
0001
0010
0001
,
0000
0100
0001
0100
,
0000
0010
1000
0010
,
0000
1000
0100
1000
,
0000
0100
0001
0100
,
0000
0010
0001
0010
,
0000
0001
1000
0001
,
0010
1100
0010
0101
,
2000
3200
0302
0203
,
1300
1010
0001
0011
,
0002
0203
2300
3000
,
0100
0001
0010
0100
,
1000
1100
1001
1010
,
0001
0100
1000
0100
,
1001
0000
0011
0000
0101
0000
0010
0100
,
0010
1000
0100
0010
,
0002
0203
0302
0023
,
0130
1100
0001
0101
,
2000
3020
0032
0003
,
0010
1010
0001
0011
,
2000
3200
2300
3002
,
0103
1000
0100
0010
,
1000
1001
0220
0330
,
0001
0000
0001
0000
,
0001
0000
0110
0000
,
1000
0000
1000
0000
,
1000
0000
0110
0000
,
0001
0000
0010
0000
,
0001
0000
0110
0000
,
1000
0000
0100
0000
,
1000
0100
1000
0001
,
0010
0001
0100
0000
,
0100
0000
0110
0000
,
0010
1000
0100
0000
,
0100
0000
0110
0000
,
0001
1000
0100
0000
,
0010
0000
0110
0000
,
1000
0001
0100
0000
,
0010
0000
0110
0000
,
0011
0000
1100
0000
,
0001
0000
0000
0001
0000
0000
0001
0000
,
0100
0000
1010
0000
,
1000
0000
0000
1000
0000
0000
1000
0000
,
0100
0000
0011
0000
,
0001
0000
0000
1000
0000
0000
0001
0000
,
1000
0000
0000
0001
0000
0000
1000
0000
,
0100
0000
0010
0000
,
0002
0020
0000
0033
,
1000
0000
0000
0001
0000
0000
2000
0000
,
0020
0000
0000
3030
,
1000
0000
0000
0001
0000
0000
0200
0000
,
0020
0000
0330
0000
,
0000
0000
0000
1001
,
0000
0001
0010
0100
,
1000
0000
0000
0000
,
1001
0000
0110
0000
,
0001
0000
0000
0010
0000
0000
0001
0000
,
0101
0000
1000
0100
,
1000
0000
0000
0010
0000
0000
1000
0000
,
1100
0000
0010
0000
,
0100
0000
0000
0100
0000
0000
0100
0000
,
0010
0000
0000
0010
0000
0000
0010
0000
,
0001
1000
0001
1000
,
0002
0000
0000
0000
,
0000
0000
2003
0002
,
0000
3003
1001
0000
,
0110
0000
1001
0000
,
0110
0000
0001
1000
,
0000
1010
0000
0011
,
0000
0000
0200
0000
,
0020
0000
0330
0000
,
0012
0000
0103
0000
,
1000
0000
0000
0001
0000
0000
1000
0000
,
2010
0000
3100
0000
,
0010
0000
0000
0010
0000
0000
0010
0000
,
0200
0000
1000
0000
,
0010
0000
0001
0000
,
0010
0000
2300
0000
,
3020
0000
0032
0000
,
0023
0000
0130
0001
,
0000
1000
0000
0100
,
0000
0010
0000
0001
,
0000
1000
0000
0020
,
0000
0000
0000
0000
,
0000
0000
0000
0000
,
0000
0000
0000
0000
,
0030
0000
0000
0000
,
0001
0000
0000
0000
,
0010
0000
0000
0000
,
0100
0000
0000
0100
,
1000
0000
0001
0000
,
1000
0000
0000
0000
,
0010
0000
0000
0000
,
0100
0000
0000
0000
,
0001
0000
0010
0100
,
0010
0000
0010
0000
,
0100
0000
0100
0000
,
1000
0000
0001
1000
,
0001
0000
1000
0000
,
0010
0000
0100
0000
,
0001
0000
0001
0000
,
0020
0000
0000
0000
,
0030
0000
0000
0000
,
0001
0000
0010
0000
,
0100
0000
0000
0000
,
1000
0000
0010
0000
,
0100
0000
0001
0000
,
2000
0000
0000
0000
,
3001
1000
0001
1000
,
0100
0010
0001
1000
,
0002
0000
1000
0000
,
0103
0010
0100
0010
,
1000
0001
1000
0001
,
0010
0100
0010
0100
,
1000
0001
1000
0001
,
2002
0000
0000
0000
,
0000
0000
0000
0000
,
0000
0000
0000
0000
,
0000
0000
3003
0000
;

//---------------dance-single - ----------------
#NOTES:
     dance-single:
     :
     Easy:
     5:
     0.386,0.624,0.123,0.542,0.000:
0000
0000
0000
0000
,
0000
0000
0000
0000
,
0000
0000
0000
0000
,
0000
0000
0000
0000
,
0000
0000
0010
0000
,
0000
0000
0000
0000
,
0000
0000
0002
0000
,
0000
0000
0023
0000
,
0000
0000
0230
0000
,
0000
0000
2300
0000
,
0010
0000
3200
0000
,
0000
0000
2300
0000
,
0000
0000
3020
0000
,
0000
0000
0032
0000
,
0000
0000
0023
0000
,
0000
0000
0230
0000
,
0000
0000
0302
0000
,
0000
0000
2003
0000
,
0001
0000
3200
0000
,
0000
0000
0320
0000
,
0000
0000
0032
0000
,
0000
0000
2003
0000
,
0000
0000
3010
0001
,
0010
1000
0100
0010
,
0001
0000
0100
0001
,
0010
1000
0010
0100
,
1000
0000
0001
0100
,
0001
0010
0100
1000
,
0010
0001
0010
0100
,
0001
1000
0100
0100
,
0010
0000
1000
0001
,
0000
0100
0001
0010
,
1000
0010
0100
1000
,
0000
0010
0001
0010
,
0100
0000
0001
0001
,
0010
0100
1000
1000
,
0010
0010
0100
0001
,
0010
0000
0000
0000
0100
0000
0000
0000
2000
3000
0000
0000
0002
0003
0000
0000
,
0020
0000
0000
0000
,
0032
0000
0000
0000
,
0203
0000
0000
0000
,
0320
0000
0000
0000
,
2030
0000
0000
0000
,
3200
0000
0000
0000
,
2300
0000
0000
0000
,
3020
0000
0000
0000
,
0230
0000
0010
0000
,
0302
0000
1000
0000
,
0023
0000
0001
0000
,
2030
0000
0010
0000
,
3002
0000
0100
0000
,
0203
0000
1000
0000
,
2300
0000
0010
0000
,
3002
0000
1000
1000
,
1003
0100
0001
0010
,
1000
0100
0001
0010
,
1000
1000
0100
0100
,
0010
0001
0010
0000
,
0001
0100
1000
0010
,
0001
0100
1000
0010
,
0001
0001
0100
0100
,
0010
1000
0010
0000
,
1000
0100
0001
1000
,
0010
0001
0100
1000
,
0100
0001
0010
1000
,
0001
0100
1000
0000
,
0001
0100
1000
0001
,
0010
1000
0100
0001
,
0100
1000
0010
0001
,
1000
0100
0001
0000
,
0010
0000
1000
0000
,
0100
0000
0100
0000
,
0110
0000
0000
0000
,
0001
0000
1000
0000
,
1001
0000
0000
0000
,
0001
0100
0000
0000
,
1000
0100
0000
0000
,
0001
1000
0001
0000
,
0010
0000
0000
0000
,
0100
0000
0010
0000
,
0110
0000
0000
0000
,
0001
0000
1000
0000
,
1001
0000
0000
0000
,
1000
0000
0010
0000
,
1001
0000
0000
0000
,
0110
0000
0000
0000
,
0100
0000
0001
0000
,
0010
0000
0010
0000
,
0110
0000
0000
0000
,
1000
0000
0001
0000
,
1001
0000
0000
0000
,
1000
0010
0000
0000
,
0001
0010
0000
0000
,
1000
0001
1000
0000
,
0100
0000
0000
0000
,
0010
0000
0100
0000
,
0110
0000
0000
0000
,
1000
0000
0001
0000
,
1001
0000
0000
0000
,
0000
0000
0000
0000
,
0001
0000
0100
0000
,
1001
0000
0000
0000
,
0010
0000
0010
0000
,
1000
0000
0100
0000
,
2100
0000
3001
0000
,
0010
0000
0010
0000
,
0102
0000
1003
0000
,
0001
0000
0000
0000
,
1000
0000
0000
0000
,
0100
0000
0010
0000
,
0110
0000
0000
0000
,
1000
0000
0001
0000
,
1000
0000
0010
0000
,
0100
0000
0001
0000
,
0010
0000
0000
0000
,
0100
0000
0000
0000
,
0220
0000
0000
0000
,
0330
0000
0000
0000
,
0001
0000
0100
0000
,
0001
0000
0010
0000
,
0100
0000
1000
0000
,
0010
0000
1000
0000
,
0200
0000
1000
0000
,
0010
0000
0001
0000
,
0310
0000
0000
0000
,
1001
0000
0110
0000
,
1001
0000
0000
0000
,
0001
0000
0100
0000
,
1000
0000
0001
0000
,
0010
0000
1000
0000
,
0200
0000
0000
0000
,
0000
0000
0000
0000
,
0300
0000
0000
0000
,
0000
0000
0000
0000
,
2000
0000
0000
0000
,
0000
0000
0000
0000
,
0000
0000
3002
0000
,
0203
0000
0320
0000
,
2030
0000
0000
0000
,
3200
0000
0320
0000
,
0032
0000
0000
0000
,
0000
0000
0000
0000
,
0023
0000
0000
0000
,
0000
0000
0032
0000
,
0203
0000
0302
0000
,
2003
0000
3002
0000
,
0203
0000
0000
0000
,
0320
0000
0000
0000
,
2030
0000
0000
0000
,
0000
0000
0000
0000
,
3002
0000
0203
0000
,
2300
0000
3002
0000
,
0023
0000
2030
0000
,
3200
0000
0320
0000
,
0032
0000
0000
0000
,
2003
0000
3020
0000
,
2030
0000
3200
0000
,
0302
0000
0203
0000
,
0320
0000
0000
0000
,
0032
0000
2003
0000
,
3200
0000
0302
0000
,
2003
0000
0000
0000
,
0002
0000
0000
0000
,
0000
0000
0000
0000
,
0000
0000
0000
0000
,
0000
0000
3003
0000
;

//---------------dance-single - ----------------
#NOTES:
     dance-single:
     :
     Beginner:
     4:
     0.181,0.444,0.199,0.007,0.000:
0000
0000
0000
0000
,
0000
0000
0000
0000
,
0000
0000
0000
0000
,
0000
0000
0000
0000
,
0000
0000
0010
0000
,
0000
0000
0000
0000
,
0000
0000
0010
0000
,
0000
0000
0000
0000
,
0000
0000
0000
0000
,
0000
0000
0000
0000
,
0000
0000
1000
0000
,
0000
0000
0000
0000
,
0000
0000
0000
0000
,
0000
0000
0000
0000
,
0000
0000
0001
0000
,
0000
0000
0000
0000
,
0000
0000
0000
0000
,
0000
0000
0000
0000
,
0000
0000
0100
0000
,
0000
0000
0000
0000
,
0000
0000
1001
0000
,
0000
0000
0000
0000
,
0000
0000
0010
0000
,
0000
0000
1000
0000
,
0000
0000
0100
0000
,
0000
0000
0001
0000
,
0001
0000
0001
0000
,
0000
0000
0100
0000
,
0000
0000
1000
0000
,
0000
0000
0010
0000
,
0010
0000
0010
0000
,
0000
0000
0100
0000
,
0000
0000
0001
0000
,
0000
0000
1000
0000
,
1000
0000
1000
0000
,
0000
0000
0100
0000
,
0000
0000
0010
0000
,
0000
0000
0001
0000
,
0000
0000
0000
0000
,
0000
0000
0000
0000
,
0100
0000
0000
0000
,
0000
0000
0000
0000
,
0010
0000
0000
0000
,
0000
0000
0000
0000
,
1000
0000
0000
0000
,
0000
0000
0000
0000
,
0001
0000
0000
0000
,
0000
0000
0000
0000
,
0010
0000
0000
0000
,
0000
0000
0000
0000
,
0100
0000
0000
0000
,
0000
0000
0000
0000
,
1001
0000
0000
0000
,
0000
0000
0000
0000
,
0010
0000
0010
0000
,
0010
0000
0000
0000
,
0100
0000
0100
0000
,
0100
0000
0000
0000
,
0001
0000
0001
0000
,
0001
0000
0000
0000
,
1000
0000
1000
0000
,
1000
0000
0000
0000
,
0100
0100
0100
0000
,
0010
0000
0000
0000
,
0001
0001
0001
0000
,
1000
0000
0000
0000
,
0010
0000
0000
0000
,
0100
0000
0000
0000
,
0001
0000
0010
0000
,
0100
0000
1000
0000
,
1001
0000
0000
0000
,
0000
0000
0000
0000
,
0110
0000
0000
0000
,
0000
0000
0000
0000
,
1001
0000
0000
0000
,
0000
0000
0000
0000
,
0010
0000
0010
0000
,
0010
0000
0010
0000
,
0110
0000
0000
0000
,
0000
0000
0000
0000
,
0100
0000
0000
0000
,
0000
0000
0000
0000
,
1000
0000
0000
0000
,
0000
0000
0000
0000
,
0001
0000
0001
0000
,
0001
0000
0000
0000
,
1001
0000
0000
0000
,
0010
0000
0010
0000
,
0100
0000
0000
0000
,
0000
0000
0000
0000
,
0010
0000
0000
0000
,
0000
0000
0000
0000
,
0001
0000
0001
0000
,
1000
0000
1000
0000
,
1001
0000
0000
0000
,
0000
0000
0000
0000
,
0100
0000
0000
0000
,
0000
0000
0000
0000
,
0110
0000
0000
0000
,
0000
0000
0000
0000
,
0010
0000
0010
0000
,
0010
0000
0000
0000
,
1001
0000
0000
0000
,
0100
0000
0100
0000
,
0100
0000
0000
0000
,
0010
0000
0010
0000
,
0010
0000
0000
0000
,
1000
0000
1000
0000
,
0001
0000
0001
0000
,
0010
0000
0100
0000
,
0110
0000
0000
0000
,
0001
0000
1000
0000
,
0001
0000
0000
0000
,
0100
0000
0000
0000
,
1001
0000
0000
0000
,
0110
0000
0000
0000
,
1001
0000
0000
0000
,
0001
0000
0001
0000
,
0001
0000
0000
0000
,
1000
0000
1000
0000
,
1001
0000
0000
0000
,
0010
0000
0010
0000
,
0110
0000
0000
0000
,
0100
0000
0000
0010
,
0000
0000
1001
0000
,
0110
0000
1001
0000
,
0110
0000
0000
0000
,
0110
0000
0000
0000
,
1001
0000
0000
0000
,
1001
0000
0000
0000
,
0020
0000
0000
0000
,
0000
0000
0000
0000
,
0030
0000
0000
0000
,
0000
0000
0000
0000
,
1001
0000
0000
0000
,
0000
0000
0000
0000
,
0000
0000
0100
0000
,
0100
0000
0000
0000
,
0010
0000
0000
0000
,
0000
0000
0000
0000
,
0000
0000
0001
0000
,
0001
0000
0000
0000
,
1000
0000
0000
0000
,
0000
0000
0000
0000
,
0000
0000
0010
0000
,
0010
0000
0000
0000
,
0100
0000
0000
0000
,
0000
0000
0000
0000
,
0000
0000
0000
0000
,
0000
0000
0000
0000
,
1000
0000
0000
0000
,
0001
0000
0000
0000
,
1001
0000
0000
0000
,
0010
0000
0100
0000
,
0110
0000
0000
0000
,
0010
0000
0000
0000
,
0100
0000
0100
0000
,
0100
0000
0000
0000
,
1001
0000
0010
0000
,
0100
0000
0010
0000
,
0110
0000
0001
0000
,
1000
0000
0001
0000
,
1001
0000
0000
0000
;

//---------------dance-double - ----------------
#NOTES:
     dance-double:
     :
     Challenge:
     9:
     0.636,1.000,0.507,0.281,0.110: // measure 1
00000000
00000000
00000000
00000000
,  // measure 2
00000000
00000000
00000000
00000000
,  // measure 3
00010000
01000000
00000000
00001000
00010000
00000000
00000100
00001000
00000000
00010000
00001000
00000000
00000100
00000000
00000010
00000000
,  // measure 4
00010000
00000100
00000000
00000000
00001000
00000000
00100000
00010000
00000000
00001000
00010000
00000000
01000000
00100000
00010000
10000000
,  // measure 5
00010000
00000000
01000000
00001000
01000000
00000000
00001000
00010000
00001000
00000000
00000000
00000000
00000000
00000000
00000000
00000000
,  // measure 6
00000000
00000000
00000000
00000000
,  // measure 7
00000000
00000000
00001001
00000000
,  // measure 8
00000010
00000100
00000010
00000000
,  // measure 9
00100000
01000000
00100000
00000000
,  // measure 10
00000010
00000100
00000010
00000000
,  // measure 11
00011000
00000000
01100000
00000000
,  // measure 12
00100000
00010000
01000000
00000000
,  // measure 13
00000010
00001000
00000100
00000000
,  // measure 14
00100000
00010000
01000000
00000000
,  // measure 15
10010000
00000000
00011000
00000000
,  // measure 16
00001000
00000010
00000001
00000000
,  // measure 17
00010000
00100000
10000000
00000000
,  // measure 18
00001000
00000010
00000001
00000000
,  // measure 19
00001001
00000000
00011000
00000000
,  // measure 20
01000000
00100000
01000000
00000000
,  // measure 21
00000100
00000010
00000100
00000001
,  // measure 22
00001000
00000010
00000100
00000100
,  // measure 23
00001000
00010000
00100000
10100000
,  // measure 24
01000000
01010000
20000000
32000000
,  // measure 25
03020000
00032000
00003010
00000011
,  // measure 26
00000100
00001100
00000002
00000203
,  // measure 27
00000320
00000030
00001000
00010010
,  // measure 28
00001000
00010000
00002000
00203000
,  // measure 29
00320000
00030020
00000031
00001010
,  // measure 30
00000001
00001100
00020000
00032000
,  // measure 31
02003000
00000000
03100000
10000000
01000000
00000000
00101000
00000000
,  // measure 32
00010000
10100000
00020000
00032000
,  // measure 33
00003200
00002300
00103000
11000000
,  // measure 34
00010000
00001010
00020000
00030200
,  // measure 35
00000302
00000000
00000103
00001000
00000010
00000000
00010010
00000000
,  // measure 36
00000100
00001010
00000200
00020300
,  // measure 37
02030000
23000000
30100000
00110000
,  // measure 38
10000000
00000000
00000000
00000000
00000000
00000000
00000000
00000000
00000000
00000000
00000000
00000000
00000000
00000000
00000000
00000000
11000000
00000000
00000000
00000000
00000000
00000000
00000000
00000000
00000000
00000000
00000000
00000000
00000000
00000000
00000000
00000000
20000000
30000000
00000000
00000000
00000000
00000000
00000000
00000000
02000000
03000000
00000000
00000000
00000000
00000000
00000000
00000000
00020000
00030000
00000000
00000000
00000000
00000000
00000000
00000000
00000000
00000000
00000000
00000000
00000000
00000000
00000000
00000000
,  // measure 39
00001000
00000010
00000001
00000100
,  // measure 40
00000010
00010000
00000100
00000010
,  // measure 41
00000001
00000100
00001000
00000100
,  // measure 42
00000010
00010000
00000010
00010000
,  // measure 43
00001000
01000000
00100000
10000000
,  // measure 44
01000000
00100000
00010000
10000000
,  // measure 45
01000000
10000000
01000000
00100000
,  // measure 46
00001000
01000000
00100000
00000000
,  // measure 47
10000000
00100000
00001000
00100000
,  // measure 48
01000000
00010000
10000000
01000000
,  // measure 49
00001000
00000010
00000001
00001000
,  // measure 50
00000100
00000001
00000010
00000100
,  // measure 51
00010000
00001000
01000000
00010000
,  // measure 52
00100000
01000000
10000000
00100000
,  // measure 53
00001000
00010000
00001000
00000000
01000000
00000000
00001000
00000000
,  // measure 54
00010000
00000100
00000010
00000001
,  // measure 55
00001000
00000000
00000000
00000000
00001100
00000000
00000000
00000000
00010000
00000000
00000000
00000000
00011000
00000000
00000000
00001000
,  // measure 56
01000000
00000000
00000000
01000000
00100000
00000000
00000000
00100000
10000000
00000000
00000000
10000000
00010000
00000000
00000000
00000000
,  // measure 57
00010000
00000000
00000000
00000000
01010000
00000000
00000000
00000000
00001000
00000000
00000000
00000000
00011000
00000000
00000000
00010000
,  // measure 58
00000100
00000000
00000000
00000100
00000010
00000000
00000000
00000010
00000001
00000000
00001000
00000000
00000001
00000000
00000000
00000000
,  // measure 59
00000100
00000000
00000000
00000000
00010100
00000000
00000000
00000000
00100000
00000000
00000000
00000000
00101000
00000000
00000000
00001000
,  // measure 60
01000000
00000000
00000000
00001000
00100000
00000000
00000000
00100000
01000000
00000000
00000000
00100000
10000000
00000000
00000000
00000000
,  // measure 61
00010000
00000000
00000000
00000000
00011000
00000000
00000000
00000000
00000010
00000000
00000000
00000000
00000110
00000000
00000000
00000100
,  // measure 62
00001000
00000000
00000000
00000100
00000001
00000000
00000000
00000001
00000010
00000000
00000000
00000000
00001000
00000000
00010000
00000000
,  // measure 63
00001000
01000000
00011000
00000010
,  // measure 64
00021000
00230000
20300000
30200000
,  // measure 65
00301000
00000100
00011000
00100000
,  // measure 66
00012000
00000000
00003020
00000000
00000032
00000010
00001003
00000000
,  // measure 67
00001000
00000000
00000000
00001000
00000100
00000000
00000000
00000000
00000100
00000000
00000000
00000100
00010000
00000000
00000000
00000000
,  // measure 68
00010000
00000000
00000000
00010000
00001000
00000000
00000000
00000000
00001000
00000000
00000000
00001000
01000000
00000000
00000000
00000000
,  // measure 69
00100000
00000000
00000000
10000000
00010000
00000000
00000000
00000000
01000000
00000000
00000000
00001000
00010000
00000000
00000000
00000000
,  // measure 70
00000010
00000000
00000000
00000000
00000000
00000000
00000000
00000000
00000000
00000000
00000000
00000000
00001000
00000000
00000000
00000000
00000100
00000000
00000000
00000000
00000000
00000000
00000000
00000000
00000000
00000000
00000000
00000000
00000000
00000000
00000000
00000000
00000022
00000000
00000000
00000000
00000000
00000000
00000000
00000000
00000000
00000000
00000000
00000000
00000000
00000000
00000000
00000000
00000000
00000033
00000000
00000000
00000000
00000000
00000000
00000000
00000000
00000000
00000000
00000000
00000000
00000000
00000000
00000000
,  // measure 71
00001001
00000000
00000101
00000000
,  // measure 72
00000001
00000000
00000000
00000010
00000000
00000000
00000100
00000000
,  // measure 73
00001000
00000000
00011000
00000000
,  // measure 74
00010000
00000000
00000000
01000000
00000000
00000000
00100000
00000000
,  // measure 75
10000000
00000000
10010000
00000000
,  // measure 76
10000000
00000000
00000000
01000000
00000000
00000000
00010000
00000000
,  // measure 77
00001000
00000000
00000000
01000000
00000000
00000000
00100000
00000000
,  // measure 78
00001000
00000100
00000010
00001000
,  // measure 79
00000001
00000010
00000100
00000000
,  // measure 80
00001000
00000000
00000000
00000010
00000000
00000000
00000001
00000000
,  // measure 81
00000010
00010000
00000100
00000000
,  // measure 82
00010000
00000000
00000000
01000000
00000000
00000000
00100000
00000000
,  // measure 83
00001000
01000000
10000000
00000000
,  // measure 84
01000000
00000000
00000000
00010000
00000000
00000000
10000000
00000000
,  // measure 85
01000000
00100000
01000000
00100000
,  // measure 86
00001000
00010000
00001000
00010000
,  // measure 87
00000010
00000000
00000101
00000000
,  // measure 88
00010000
00000000
00000000
00001000
00000000
00000000
01000000
00000000
,  // measure 89
00100000
00000000
11000000
00000000
,  // measure 90
00100000
00000000
00000000
00001000
00000000
00000000
00010000
00000000
,  // measure 91
00000100
00000000
00011000
00000000
,  // measure 92
00000010
00000000
00000000
00001000
00000000
00000000
00100000
00000000
,  // measure 93
00010000
00000000
00000000
00001000
00000000
00000000
00000010
00000000
,  // measure 94
00000001
00000010
00001000
00010000
,  // measure 95
01000000
10000000
00010000
00000000
,  // measure 96
10000000
00000000
00000000
00100000
00000000
00000000
00001000
00000000
,  // measure 97
00010000
00000000
00101000
00000000
,  // measure 98
00010000
00000000
00000000
00000010
00000000
00000000
00000001
00000000
,  // measure 99
00001000
00000000
00010010
00000000
,  // measure 100
00001000
00100000
00000000
00011000
,  // measure 101
00000000
00010000
00100000
01000000
,  // measure 102
10000000
00100000
00010000
00001000
,  // measure 103
00000100
00000000
00011000
00000000
,  // measure 104
00110000
00000000
00000000
01010000
00000000
00000000
10010000
00000000
,  // measure 105
01000000
00000000
00011000
00000000
,  // measure 106
00001100
00000000
00000000
00001010
00000000
00000000
00001001
00000000
,  // measure 107
00000100
00000000
00011000
00000000
,  // measure 108
01000000
00000000
00000000
01000000
00000000
00000000
00010000
00000000
,  // measure 109
00000100
00000000
00000000
00000100
00000000
00000000
00001000
00000000
,  // measure 110
00010000
01000000
10000000
00100000
,  // measure 111
00010000
00000000
00100000
10000000
,  // measure 112
01000000
00000000
00100000
00000000
,  // measure 113
00101000
00000000
00001000
00000000
,  // measure 114
00001100
00000000
00000100
00000000
,  // measure 115
00000110
00000000
00000001
00001000
,  // measure 116
00000000
00001100
00000000
00000011
,  // measure 117
00000000
00000000
00001000
00000000
,  // measure 118
00010000
00001000
00010000
00000000
,  // measure 119
01010000
00000000
10100000
00000000
,  // measure 120
11000000
00000000
00000000
10010000
00000000
00000000
01000000
00000000
,  // measure 121
00100000
00001000
01000000
00000000
,  // measure 122
00101000
00000000
00000000
00100100
00000000
00000000
00001100
00000000
,  // measure 123
00010200
00000000
00000010
00000000
,  // measure 124
00000001
00000000
00000010
00000000
,  // measure 125
00001300
00000000
00001001
00000000
,  // measure 126
00000110
00000000
00001001
00000000
,  // measure 127
00000110
00000000
00001000
00010000
,  // measure 128
00000000
00100000
00000000
10000000
,  // measure 129
00000000
00100000
00000000
00010000
,  // measure 130
00000000
00100000
00000000
02000000
,  // measure 131
00000000
00000000
00000000
00000000
,  // measure 132
00000000
00000000
00000000
00000000
,  // measure 133
00000000
00000000
00000000
00000000
,  // measure 134
03000000
00000000
00000000
00000000
,  // measure 135
10010000
00000000
00100000
00000000
,  // measure 136
01000000
00000000
00100000
00000000
,  // measure 137
00010000
00000000
01000000
00000000
,  // measure 138
00001000
00000000
00010000
00000010
,  // measure 139
00010000
00000000
00000100
00000000
,  // measure 140
00000010
00000000
00000001
00000000
,  // measure 141
00000100
00000000
00001000
00010000
,  // measure 142
00001000
00100000
01000000
10000000
,  // measure 143
00100000
00000000
00001000
00000000
,  // measure 144
00000100
00000000
00000010
00000000
,  // measure 145
00010000
00000000
00000100
00000010
,  // measure 146
00000001
00000100
00000010
00001000
,  // measure 147
00000100
00000000
00010000
01000000
,  // measure 148
10000000
00000000
10000000
01000000
,  // measure 149
00100000
00000000
00001000
00000000
,  // measure 150
01000000
00000000
00100000
00001000
,  // measure 151
00000100
00000010
00000001
00001000
,  // measure 152
00000100
00000000
00010000
00001000
,  // measure 153
00010000
00000000
00000010
00000000
,  // measure 154
00010000
00100000
10000000
01000000
,  // measure 155
00100000
00000000
00001000
00010000
,  // measure 156
00001000
00000000
00000100
00000000
,  // measure 157
00000110
00000000
00000001
00000100
,  // measure 158
00000010
00001000
00000100
00000000
,  // measure 159
00010000
00001000
00010000
00001000
,  // measure 160
00100000
01000000
00100000
01000000
,  // measure 161
00010000
00001000
00010000
00001000
,  // measure 162
00000010
00000100
00000010
00000100
,  // measure 163
00022000
00000000
00000000
00000000
,  // measure 164
00000000
00000000
00000000
00000000
,  // measure 165
00000000
00000000
00000000
00000000
,  // measure 166
00000000
00000000
00033000
00000000
;
