#TITLE:FRUITS CLiPPER;
#SUBTITLE:;
#ARTIST:capsule;
#TITLETRANSLIT:;
#SUBTITLETRANSLIT:;
#ARTISTTRANSLIT:;
#GENRE:;
#CREDIT:AznPunk07/Frozen_Heat/GuardianFrozen;
#MENUCOLOR:#ff5a00;
#BANNER:FRUITS CLiPPER-bn.png;
#BACKGROUND:FRUITS CLiPPER-bg.png;
#LYRICSPATH:FRUITS CLiPPER.lrc;
#CDTITLE:!cdtitle.png;
#MUSIC:FRUITS CLiPPER.mp3;
#OFFSET:-1.341;
#SAMPLESTART:61.300;
#SAMPLELENGTH:20.000;
#SELECTABLE:YES;
#LISTSORT:;
#BPMS:0.000=128.000,60.000=256.000,64.000=128.000;
#STOPS:59.750=0.938
;
#TICKCOUNT:0.000=2;
#BGCHANGES:;
#KEYSOUNDS:;
#ATTACKS:;

//---------------dance-single - ----------------
#NOTES:
     dance-single:
     :
     Hard:
     7:
     0.432,0.470,0.139,0.075,0.054:
0000
0000
0000
0000
,
0000
0000
0000
0000
,
0000
0000
0000
0000
,
0000
0000
0000
0000
,
0001
1000
0001
1000
,
0100
0010
0100
0010
,
0001
0100
0010
1000
,
0002
2003
3002
2003
,
3100
0000
1000
0100
1000
0000
1000
0010
,
1000
0000
1000
0001
1000
0010
0100
0000
,
0010
0000
0001
0010
0001
0000
0001
1000
,
0001
0000
0001
0100
0001
0010
0100
0000
,
1000
0000
0100
0010
0001
0001
0100
0010
,
1000
1000
0100
0010
0001
0001
0100
0000
,
0010
0000
1000
0100
1000
0001
0100
0001
,
1000
0000
0000
0000
,
1001
0000
0001
0010
0001
0000
0100
0001
,
0010
0001
0100
0000
1010
0000
0100
0000
,
0001
0000
1000
0100
1000
0000
0010
1000
,
0001
1000
0010
1000
0100
0000
0010
0000
,
0001
0000
0100
0001
0100
0000
0010
1000
,
0010
0000
1000
0000
0001
0000
0010
0100
,
0010
0000
0100
0000
1001
0000
0100
0010
,
0000
0010
0100
0000
1001
0000
0110
0000
,
1001
0000
0010
0000
0100
0000
0001
0010
,
0000
0010
0001
0000
0100
0010
0100
0010
,
1000
0000
0100
0000
0010
0000
0100
1000
,
0000
1000
0001
0000
0100
0010
0100
0001
,
1000
0000
0100
1000
0100
0000
0001
0100
,
0001
0000
0010
0000
1000
0000
0001
0010
,
0100
0000
0010
0001
1000
0000
1000
0010
,
0000
0010
0100
0000
1001
0000
0110
0000
,
1000
1100
0001
0101
,
0010
0000
1001
0000
1000
0100
0001
0100
,
0010
0011
0100
1100
,
0001
0000
1000
0010
0001
0001
0010
0000
,
1000
0000
1000
0000
0100
0000
0100
0000
0010
0001
0010
0000
0001
0000
0001
0000
,
1000
0010
1000
0100
1000
0001
0100
0001
,
0010
0000
0001
0000
0001
0000
0100
0000
0010
0000
0010
0000
1000
0001
1000
0000
,
0010
0010
0100
0001
1000
1000
0100
0000
,
0001
0000
0000
0001
0100
0000
0000
0000
0001
0000
0000
0001
0010
0000
0000
0000
,
0100
0000
0000
1000
0001
0000
0000
0000
0010
0000
0100
0000
1000
0000
0100
0000
,
0010
0000
0000
0010
0001
0000
0000
0000
1000
0000
0000
1000
0001
0000
0000
0000
,
0100
0000
0000
0100
0010
0000
1000
0000
0001
0000
1000
0000
0001
0000
0000
0000
,
0001
0000
0001
0000
0010
0000
0010
0000
0100
1000
0100
0000
1000
0000
1000
0000
,
0001
0100
0001
0010
0001
1000
0010
1000
,
0100
0000
1000
0000
1000
0000
0010
0000
0100
0000
0100
0000
0001
1000
0001
0000
,
0100
0100
0010
1000
0001
0001
0020
0000
,
0200
0030
2000
3300
;

//---------------dance-single - ----------------
#NOTES:
     dance-single:
     :
     Challenge:
     9:
     0.591,0.653,0.064,0.193,0.445:
0000
0000
0000
0000
,
0000
0000
0000
0000
,
0000
0000
0000
0000
,
0000
0000
0000
0000
,
0010
0000
0001
0100
0000
0001
0010
0001
,
0100
0000
1000
0100
0000
1000
0010
1000
,
0100
0000
0010
0100
0000
1000
0001
1000
,
0020
0032
0203
2300
,
3000
0010
0001
0010
0000
0010
1000
0010
,
0000
0001
0010
0100
0010
0000
1010
0000
,
0000
0001
0100
0001
0000
1000
0100
1000
,
0000
1000
0010
0001
0010
0000
0101
0000
,
0010
0100
1000
0100
0000
0010
0001
0010
,
0000
1000
1000
0010
0001
0000
0011
0000
,
1100
0001
0010
1000
0000
0010
0001
0010
,
0200
0000
0310
0001
1000
0100
0010
0001
,
1000
0000
0000
1000
0010
0000
0000
0001
1000
0100
1000
0000
0001
0000
0100
0000
,
0000
0000
0001
0000
0010
0000
0100
0000
1000
0000
0010
0001
0010
0100
0010
1000
,
0200
0000
0000
0000
0010
0000
0000
0000
1300
0000
0001
1000
0100
0010
0100
1000
,
0002
0000
0000
0000
0100
0000
0000
0000
1003
0000
0010
0100
0010
1000
0001
0010
,
0001
0000
0000
0001
0100
0000
0000
1000
0001
0010
0001
0000
1000
0000
0010
0000
,
0000
0000
1000
0000
0100
0000
0010
0000
0001
0000
0100
1000
0100
0010
0100
0001
,
0020
0000
0000
0000
1030
0000
0010
0000
0001
0000
1000
0001
0010
0100
0010
0001
,
2000
0000
0000
0000
0001
0000
0002
0000
3003
0000
0010
0100
0001
1000
0100
0010
,
0001
0000
0000
0001
0010
0000
0000
0010
0100
1000
0001
0000
1000
0000
0020
0000
,
0000
0000
0001
0000
0001
0000
0000
0000
0130
0000
0001
0010
1000
0010
0100
1000
,
0002
0000
0000
0000
0010
0000
0000
0000
1003
0000
0010
0001
0010
1000
0100
0001
,
0200
0000
0000
0000
1000
0000
0000
0000
0310
0000
1000
0010
1000
0001
0010
0100
,
1000
0000
0000
1000
0100
0000
0000
0100
0010
0001
1000
0000
0001
0000
0200
0000
,
0000
0000
1000
0000
1000
0000
0000
0000
0310
0000
1000
0100
0001
0100
0010
0001
,
2000
0000
0000
0000
0100
0000
0000
0000
3001
0000
0100
1000
0100
0001
0010
1000
,
0020
0001
0100
1030
,
0001
0100
0001
0000
0001
0010
0001
0000
,
0010
0100
1000
0000
0010
0001
0010
0100
,
0010
1000
0001
0000
0010
0100
1000
0100
,
0010
0000
0001
1000
0001
0001
0100
0000
,
0010
1000
0010
0000
0100
0001
0100
0000
1000
0100
1000
0000
0001
0010
0001
0000
,
1000
0001
1000
0000
0010
0100
0010
0000
0001
0010
0001
0000
1000
0100
1000
0000
,
0001
0100
1000
0000
0100
0010
1000
0000
0001
0010
1000
0000
0010
0100
1000
0000
,
0010
0100
0010
0000
1000
0001
1000
0000
0001
0010
0100
0000
1001
0000
0000
0000
,
1000
0000
0000
1000
0100
0000
0000
0001
1000
0000
0000
0001
0100
0000
0000
0100
,
0001
0000
0000
0010
0100
0000
0000
1000
0001
0000
0100
0000
0100
0000
0100
0000
,
0010
0000
0000
1000
0100
0000
1000
0000
0001
0000
0000
0001
0100
0000
0010
0000
,
1000
0000
0001
1000
0001
0000
0010
0000
0100
0000
0100
0000
0100
0000
0000
0000
,
1000
0010
1000
0000
0001
0100
0001
0000
0010
0001
0010
0000
0100
1000
0100
0000
,
0001
0010
1000
0000
0010
0100
0010
0000
1000
0010
0100
0000
0001
0100
0001
0000
,
0010
0100
1000
0000
0010
1000
0001
0000
0100
0001
0010
0000
0001
1000
0100
0000
,
0010
0100
0010
0000
1000
0001
1000
0000
0010
0000
1001
0000
0020
0000
0000
0000
,
0200
0030
0000
0300
;

//---------------dance-single - ----------------
#NOTES:
     dance-single:
     :
     Medium:
     6:
     0.343,0.409,0.064,0.011,0.000:
0000
0000
0000
0000
,
0000
0000
0000
0000
,
0000
0000
0000
0000
,
0000
0000
0000
0000
,
1000
1000
1000
1000
,
0001
0001
0001
0001
,
0100
0100
0100
0100
,
0020
0000
0000
0030
,
0001
0010
1000
0010
,
0001
0000
0010
0000
1000
0010
0001
0000
,
1000
0100
0001
0100
,
1000
0000
0100
0000
0001
0100
1000
0000
,
0001
0000
0010
1000
0010
0000
0010
0001
,
0010
0000
0010
0100
0010
0000
0010
0000
,
0100
0000
0100
1000
0100
0000
0100
0001
,
0100
0000
0000
0000
,
0010
0000
0001
0000
0100
0000
0010
1000
,
0000
1000
0100
0000
0010
0000
0000
0000
,
0001
0000
0100
0000
0001
0000
0010
0100
,
0000
1000
0010
0001
0010
0000
0100
0010
,
0100
0000
0001
0000
1000
0000
0100
0010
,
0000
0010
0100
0000
1000
0000
0001
1000
,
0001
0000
0010
0000
0100
0000
1000
0010
,
0000
0010
0001
0000
0110
0000
1001
0000
,
0010
0000
0001
0010
0001
0000
0010
1000
,
0000
1000
0010
0000
0001
0000
0100
1000
,
0100
0000
0010
0100
0010
0000
1000
0100
,
0000
0100
0010
0000
0001
0000
0001
0100
,
0001
0000
1000
0000
0010
0000
0001
0010
,
0000
0010
0100
0000
0001
0000
1000
0100
,
0000
0100
0001
0000
0100
0000
1000
0001
,
0000
0001
0010
0100
,
1000
1000
0001
0001
,
0010
0000
0100
0000
0001
1000
0001
0000
,
0010
0100
1000
0000
0001
0010
0100
0000
,
1000
0000
1000
0010
0100
0001
0010
0000
,
0001
0100
0001
0000
0001
0010
0001
0000
,
0001
1000
0001
0000
0001
0100
0010
0000
,
1000
0100
1000
0000
1000
0001
1000
0000
,
1000
0010
1000
0000
1000
0100
0010
0000
,
0001
0001
1000
1000
,
0010
0000
0010
0000
0100
0010
0100
0000
,
0001
0011
1000
1010
,
0100
0000
0010
1000
0100
0010
0001
0000
,
1000
0010
1000
0000
0001
0010
0001
0000
,
1000
0100
1000
0000
0001
0100
0001
0000
,
1000
0010
1000
0001
0010
0001
1000
0100
,
1000
0001
0100
0001
1001
0000
0110
0000
;

//---------------dance-single - ----------------
#NOTES:
     dance-single:
     :
     Beginner:
     2:
     0.151,0.257,0.118,0.129,0.000:
0000
0000
0000
0000
,
0000
0000
0000
0000
,
0000
0000
0000
0000
,
0000
0000
0000
0000
,
0010
0000
0000
0000
,
0100
0000
0000
0000
,
0010
0000
0000
0000
,
1000
0000
0001
0000
,
1000
0000
0000
0000
,
0100
0000
0100
0000
,
0010
0000
0000
0000
,
0001
0000
0001
0000
,
1000
0000
0000
0000
,
0010
0000
0100
0000
,
1001
0000
0000
0000
,
0100
0000
0000
0000
,
0010
0000
0001
0000
,
0100
0000
0000
0000
,
0010
0000
1000
0000
,
0100
0000
0000
0000
,
0001
0000
0001
0000
,
0100
0100
0100
0000
,
0010
0000
1000
0000
,
0001
0000
1000
0000
,
0100
0000
1000
0000
,
0010
0010
0010
0000
,
0100
0000
0001
0000
,
0010
0000
1000
0000
,
0001
0000
1000
0000
,
0001
0001
0001
0000
,
1000
1000
1000
0000
,
1001
0000
0000
0000
,
0020
0000
0030
0000
,
0200
0000
0300
0000
,
0002
0000
0003
0000
,
2000
0000
3000
0000
,
0001
0000
0001
0000
,
1000
0000
1000
0000
,
0100
0000
0100
0000
,
0010
0000
0010
0000
,
2002
0000
3003
0000
,
0220
0000
0330
0000
,
2002
0000
3003
0000
,
0220
0000
0330
0000
,
1001
0000
0110
0000
,
1001
0000
0110
0000
,
1000
1000
1000
0000
,
0001
0001
0001
0000
,
0110
0000
0000
0000
;

//---------------dance-single - ----------------
#NOTES:
     dance-single:
     :
     Easy:
     4:
     0.259,0.281,0.096,0.150,0.000:
0000
0000
0000
0000
,
0000
0000
0000
0000
,
0000
0000
0000
0000
,
0000
0000
0000
0000
,
1000
0100
0000
1000
,
0001
0100
0000
0001
,
0010
0100
0000
0010
,
0200
0000
0000
0300
,
1000
0100
0002
0003
,
1000
0010
0002
0003
,
0001
0100
2000
3000
,
0001
0010
2000
3000
,
0001
0010
1000
0010
,
0001
0100
1000
1001
,
0100
0010
1001
0010
,
0100
0000
0000
0000
,
0001
0010
0100
0100
,
1000
0010
0001
0000
,
0010
1000
0001
0001
,
0010
1000
0010
0000
,
0001
0100
0010
1000
,
0001
0001
1000
0100
,
0010
0010
0001
1000
,
0020
0000
0030
0000
,
0100
0001
0100
0001
,
0010
0010
0100
0000
,
1000
0010
0001
0010
,
0100
0001
1000
0000
,
0100
0010
0010
0001
,
1000
0010
0001
0010
,
0100
0100
0001
1000
,
0200
0000
0000
0310
,
2000
3000
0002
0003
,
0200
0000
0300
0000
0001
0001
0001
0000
,
0020
0030
0002
0003
,
2000
0000
3000
0000
0100
0100
0100
0000
,
1000
0010
0001
0100
,
1000
0010
0001
0100
,
1000
0100
0001
0010
,
1000
0100
0002
1003
,
0101
0000
1100
0000
,
1001
0000
0000
0000
0010
0010
0010
0000
,
1001
0000
1010
0000
,
0011
0000
0000
0000
0100
0100
0100
0000
,
0001
0100
1000
0010
,
0001
0100
1000
0010
,
0001
0010
1000
0100
,
0001
0010
1000
1001
;

//---------------dance-double - ----------------
#NOTES:
     dance-double:
     :
     Challenge:
     8:
     0.462,0.444,0.204,0.161,0.021: // measure 1
00000000
00000000
00000000
00000000
,  // measure 2
00000000
00000000
00000000
00000000
,  // measure 3
00000000
00000000
00000000
00000000
,  // measure 4
00000000
00000000
00000000
00000000
,  // measure 5
00000020
00000000
00000030
00010000
00000000
00010000
00001000
00000000
,  // measure 6
00200000
00000000
00300000
00001000
00000000
00001000
00010000
00000000
,  // measure 7
00000200
00000000
00000300
00001000
00000000
00010000
00001000
00000000
,  // measure 8
02000000
10000000
00100000
03010000
,  // measure 9
00001000
00000000
00000100
00000010
00000001
00000001
00000100
00000010
,  // measure 10
00010000
00010000
00000100
00000010
00000001
00000001
00000100
00000010
,  // measure 11
00010000
00000000
00001000
00100000
10000000
10000000
00100000
00010000
,  // measure 12
01000000
01000000
00001000
00100000
10000000
10000000
00200000
00000000
,  // measure 13
00320000
00000000
01030000
00001000
00000100
00000100
00001000
00100000
,  // measure 14
10000000
10000000
00100000
00001000
00000100
00000100
00000002
00000000
,  // measure 15
00000023
00000000
00001030
00010000
01000000
01000000
00010000
00001000
,  // measure 16
00000200
00000000
00000000
00000000
,  // measure 17
00000310
00000000
00001010
00000000
00000101
00000000
00000001
00000010
,  // measure 18
00000000
00000010
00001000
00010000
01000000
00000000
10000000
00100000
,  // measure 19
00010000
00000000
01010000
00000000
00101000
00000000
00000010
00010000
,  // measure 20
00001000
00010000
00000100
00010000
00000020
00000000
00000001
00000000
,  // measure 21
00000130
00000000
00000001
00000010
00000001
00000000
00000010
00001000
,  // measure 22
00000010
00000000
00010000
00000000
00100000
00000000
10000000
01000000
,  // measure 23
10000000
00100000
00010000
00100000
01000000
00000000
00001000
00010000
,  // measure 24
00000000
00010000
00001000
00000000
01000000
00000000
00001000
00010000
,  // measure 25
00001000
00000000
00000000
00001000
00100000
00000000
00000000
00100000
01000000
00000000
00000000
00000000
10000000
00000000
00100000
00000000
,  // measure 26
00010000
00100000
01000000
00001000
00000100
00000000
00000001
00000010
,  // measure 27
00001000
00000000
00000010
00000100
00010000
00000000
00010000
00001000
,  // measure 28
01000000
00001000
00100000
00001000
00020000
00000000
01000000
00000000
,  // measure 29
00031000
00000000
00000000
00001000
00000010
00000000
00000000
00000010
00000001
00000000
00000000
00000000
00001000
00000000
00000010
00000000
,  // measure 30
00000001
00000000
00000001
00000010
00001000
00000000
00000100
00010000
,  // measure 31
00000000
00010000
00001000
01000000
00100000
10000000
01000000
00020000
,  // measure 32
00000000
00032000
00003020
00000032
,  // measure 33
00001003
00001010
00000001
00000011
,  // measure 34
00001100
00000000
00110000
00000000
10000000
00100000
00010000
00001000
,  // measure 35
00000100
00000101
00000001
00000011
,  // measure 36
00001010
00000000
01010000
00000000
10100000
00001000
00010000
00000000
,  // measure 37
10000000
01000000
10000000
01000000
00100000
00010000
00100000
00010000
,  // measure 38
00001000
00000010
00001000
00000010
00000100
00000001
00000100
00000001
,  // measure 39
00000010
00001000
00000010
00000100
00000010
00001000
00000010
00000100
,  // measure 40
00000001
00000100
00001000
00010000
00100000
00100000
10000000
00000000
,  // measure 41
01000000
11000000
00100000
00110000
,  // measure 42
10000000
00000000
10100000
00000000
00010000
00001000
00000100
00001000
,  // measure 43
00010000
11000000
00100000
01010000
,  // measure 44
00001010
00000000
00000100
00001000
00010000
00001000
00000100
00000000
,  // measure 45
00000001
00000010
00001000
00000010
00000100
00001000
00000010
00001000
,  // measure 46
00000100
00001000
00100000
00001000
00000100
00000010
00001000
00010000
,  // measure 47
01000000
10000000
01000000
00010000
00100000
01000000
00100000
00010000
,  // measure 48
00001000
00000100
00000010
00001000
00000001
00000010
00000100
00000000
,  // measure 49
00010000
00100000
01000000
00000000
00000100
00001000
00010000
00000000
;
