#TITLE:Electric Light Moon Light;
#SUBTITLE:;
#ARTIST:Capsule;
#TITLETRANSLIT:;
#SUBTITLETRANSLIT:;
#ARTISTTRANSLIT:;
#GENRE:;
#CREDIT:AznPunk07/Frozen_Heat/GuardianFrozen;
#MENUCOLOR:#fcff00;
#BANNER:Electric Light Moon Light-bn.png;
#BACKGROUND:Electric Light Moon Light-bg.png;
#LYRICSPATH:Electric Light Moon Light.lrc;
#CDTITLE:!cdtitle.png;
#MUSIC:Electric Light Moon Light.mp3;
#OFFSET:-0.147;
#SAMPLESTART:79.460;
#SAMPLELENGTH:20.000;
#SELECTABLE:YES;
#LISTSORT:;
#BPMS:0.000=96.000,76.000=384.000,80.000=96.000,124.000=191.999,132.000=96.000,176.000=48.000,177.250=96.000;
#STOPS:27.000=1.875
;
#TICKCOUNT:0.000=2;
#BGCHANGES:;
#KEYSOUNDS:;
#ATTACKS:;

//---------------dance-single - ----------------
#NOTES:
     dance-single:
     :
     Hard:
     7:
     0.346,0.424,0.100,0.146,0.150: // measure 1
0000
0000
0000
0000
,  // measure 2
0000
0000
0000
0000
,  // measure 3
0000
0000
0000
0000
,  // measure 4
0000
0000
0000
0000
0000
0000
0000
0000
1000
0000
0000
0001
0000
1000
0000
0000
,  // measure 5
0001
0010
0000
0010
0002
0000
0003
0000
,  // measure 6
2000
3000
0020
0130
,  // measure 7
0001
1000
0000
1000
0001
0000
0010
0000
,  // measure 8
0100
0010
1001
0010
1000
0000
0001
0010
,  // measure 9
0001
0000
1000
0100
0010
0001
0100
1000
,  // measure 10
0100
0010
1000
0100
,  // measure 11
0010
0000
0001
0010
0001
1000
0001
0000
,  // measure 12
0010
0010
0001
0000
1000
1000
0001
1000
,  // measure 13
0010
0000
0100
0100
0010
0000
0001
1000
,  // measure 14
0001
0010
0100
1000
,  // measure 15
0010
0000
1000
0100
1000
0001
1000
0000
,  // measure 16
0001
1000
0002
0000
0100
1000
1000
0000
,  // measure 17
0100
0000
0000
0000
0010
0000
0000
0000
0100
0000
0000
1000
1000
0000
0000
0000
,  // measure 18
0103
0000
2000
0000
0100
0001
0001
0000
,  // measure 19
0100
0002
0000
0000
,  // measure 20
0000
0000
3003
0000
,  // measure 21
0010
0100
1001
0100
0001
1000
0001
0000
,  // measure 22
0100
0010
1001
0010
1000
0001
1000
0000
,  // measure 23
0001
0010
0100
0000
1000
0010
0100
0000
,  // measure 24
0010
0000
0100
0000
0010
0000
0000
0000
0001
0000
0000
1000
0000
0001
0000
0000
,  // measure 25
0010
0100
1000
0100
0010
0001
0100
0000
,  // measure 26
0001
0100
1000
0100
0010
1000
0100
0000
,  // measure 27
1000
0010
1000
0000
0001
0010
0001
0000
,  // measure 28
0100
0000
0010
0000
0100
0000
0000
0000
0001
0000
0000
0010
0000
0100
0000
0000
,  // measure 29
2000
0000
0000
0100
0000
0000
3002
0000
1000
0000
1000
0000
0000
0000
0010
0000
,  // measure 30
0100
0100
0000
0010
1003
0000
1001
0010
,  // measure 31
0002
0023
0230
2300
,  // measure 32
0002
0000
0000
0000
,  // measure 33
0000
0000
3003
0000
1000
0001
1000
0001
,  // measure 34
1000
0000
0100
0000
0010
0100
0000
1000
0000
0000
0001
0000
1000
0000
0000
0000
,  // measure 35
0001
0000
0100
0000
0010
0100
0000
0001
0000
0000
0010
0000
0100
0000
0000
0000
,  // measure 36
1000
0000
1000
0100
1000
0000
0001
0100
0001
0000
1000
0010
1000
0000
0001
0010
,  // measure 37
0001
0000
0010
0000
0100
0010
0000
0110
0000
0000
0010
0000
0001
1000
0001
1000
,  // measure 38
0001
0000
0100
0000
0010
0100
0000
1001
0000
0000
1001
0000
0010
0000
0000
0000
,  // measure 39
1000
0000
0010
0000
0100
0010
0000
1010
0000
0000
0011
0000
0100
0000
0000
0000
,  // measure 40
1001
0000
0001
0100
0000
0000
1000
0100
0000
0000
0001
0010
0001
0000
0110
0000
,  // measure 41
1000
0010
1000
0000
0001
0010
0000
0100
0000
0000
1000
0000
0001
1000
0001
1000
,  // measure 42
0002
0000
0010
1000
1000
0000
0100
0000
,  // measure 43
1000
0000
0000
0000
0010
0000
0000
1000
1000
0000
0000
0000
0013
0000
0000
0000
,  // measure 44
2000
0000
0010
0001
0001
0000
0010
0000
,  // measure 45
0002
0000
0000
0000
0000
3003
0000
0000
0000
0000
0000
0000
0000
0000
0000
0000
;

//---------------dance-single - ----------------
#NOTES:
     dance-single:
     :
     Medium:
     5:
     0.236,0.281,0.064,0.109,0.000:
0000
0000
0000
0000
,
0000
0000
0000
0000
,
0000
0000
0000
0000
,
0000
0000
0020
1000
,
0130
0000
0000
0001
0001
0000
0000
0000
,
0010
0000
0000
1000
1000
0000
0200
0000
,
0020
0300
0000
0030
,
0000
0000
0001
0100
0001
0000
0010
0000
,
0000
0000
1000
0100
1000
0000
0010
0000
,
0000
1000
0100
0001
,
0010
1000
0100
0001
,
0000
0000
1000
0100
0010
0000
0001
1000
,
0000
0000
0001
0100
0010
0000
1000
0001
,
0000
0001
0100
1000
,
0010
0001
0100
1000
,
0200
0010
0000
1000
,
0000
0010
0000
0301
,
0000
0020
0000
0100
,
0000
0200
0000
0000
,
0330
0000
0000
0000
,
0001
0010
0100
0000
1000
0010
0100
0000
,
2000
0000
0100
0000
3010
0100
0010
0000
,
0001
0001
0001
0000
1000
1000
1000
0000
,
0010
0010
0010
0000
0200
0000
0300
0000
,
0001
0000
1000
0000
0010
0100
0010
0000
,
1000
0000
0001
0000
0010
0010
0100
0000
,
1000
0100
1000
0000
1000
0010
1000
0000
,
0001
0001
0010
0000
2002
0000
3003
0000
,
1000
0001
0110
0000
,
1000
0001
1000
0001
,
0020
1000
0100
0001
,
0200
0000
0000
0000
,
0000
0330
0000
0000
,
1001
0000
0010
0000
1000
0100
0000
0000
,
1001
0000
0010
0000
0001
0100
0000
0000
,
0010
1000
0100
1000
0010
1000
0100
0010
,
0001
0100
0001
0010
0001
0000
0000
0000
,
0010
1000
0001
0000
0010
0000
0010
0000
,
0010
0001
1000
0000
0010
0000
0010
0000
,
1000
0100
1000
0000
0001
0100
0001
0000
,
0010
0001
1000
0010
1000
0000
0001
0000
,
0010
0000
0100
1000
0100
0000
1010
0000
,
0100
0000
0010
0001
0010
0000
0101
0000
,
0010
0000
1000
0001
1000
0000
0100
0000
,
1001
0000
0000
0000
;

//---------------dance-single - ----------------
#NOTES:
     dance-single:
     :
     Beginner:
     1:
     0.077,0.120,0.036,0.055,0.000:
0000
0000
0000
0000
,
0000
0000
0000
0000
,
0000
0000
0000
0000
,
0000
0000
0000
0000
,
0010
0000
0000
0000
,
0000
0000
0000
0100
,
0100
0000
0000
0000
,
0000
1000
0000
1000
,
0000
0001
0000
0001
,
0000
0010
0000
0000
,
0000
0110
0000
0000
,
0000
0001
0000
0001
,
0000
1000
0000
1000
,
0000
0100
0000
0000
,
0000
0110
0000
0000
,
0000
0002
0000
0003
,
0000
0000
0000
0000
,
0000
2000
0000
3000
,
0000
0000
0000
0000
,
0000
0000
0000
0000
,
0000
0000
0000
0010
,
0000
0000
0000
0100
,
0000
0000
0000
0001
,
0000
0000
0000
1000
,
0000
0000
0000
0100
,
0000
0000
0000
0010
,
0000
0000
0000
1000
,
0000
0000
0000
0001
,
0001
0000
0000
0000
,
1000
0000
0000
0000
,
0220
0000
0000
0000
,
0330
0000
0000
0000
,
0000
0000
0000
0000
,
0000
0001
0000
0001
,
0000
1000
0000
1000
,
0000
0100
0000
0100
,
0000
0010
0000
0010
,
0010
0000
0001
0000
,
1000
0000
0010
0000
,
0200
0000
0300
0000
,
0020
0000
0030
0000
,
1000
1000
0000
0000
,
0001
0001
0000
0000
,
0010
0010
0000
0000
,
1001
0000
0000
0000
;

//---------------dance-single - ----------------
#NOTES:
     dance-single:
     :
     Easy:
     2:
     0.150,0.201,0.064,0.073,0.000:
0000
0000
0000
0000
,
0000
0000
0000
0000
,
0000
0000
0000
0000
,
0000
0000
0000
0000
,
0001
0000
1000
0000
,
0001
0000
1000
0001
,
1000
0000
0001
0110
,
0000
1000
0100
1000
,
0000
0001
0100
0001
,
0000
0010
0000
0100
,
0000
0001
1000
1001
,
0000
1000
0100
1000
,
0000
0001
0100
0001
,
0000
0010
0100
1000
,
0001
0100
0010
0110
,
0000
2000
0000
3100
,
0000
0002
0000
0103
,
0000
0020
0000
0200
,
0030
0000
0000
0000
,
0300
0000
0000
0000
,
0000
0100
0100
0100
,
0000
0010
0010
0010
,
1000
0000
0001
0000
,
1001
0000
0000
0000
,
0010
0100
0010
0000
,
0100
0010
0100
0000
,
1000
0000
0001
0000
,
1001
0000
1000
0100
,
0001
0000
0100
0000
,
1000
0000
0100
0000
,
0220
0000
0000
0000
,
0330
0000
0000
0000
,
0000
0000
0000
0000
,
1000
0010
0100
0000
,
0001
0010
0100
0000
,
1000
0000
0100
0000
,
0010
0000
0001
0000
,
0100
0010
1000
0000
,
0100
0010
0001
0000
,
2000
0010
3001
1000
,
0002
0010
1003
0001
,
1000
1000
0100
0100
,
0010
0010
0001
0001
,
1000
0001
1000
0001
,
1001
0000
0000
0000
;

//---------------dance-single - ----------------
#NOTES:
     dance-single:
     :
     Challenge:
     8:
     0.367,0.424,0.036,0.100,0.278: // measure 1
0000
0000
0000
0000
,  // measure 2
0000
0000
0000
0000
,  // measure 3
0000
0000
0000
0000
,  // measure 4
0000
0000
0000
0000
,  // measure 5
0001
0100
0000
1000
0100
0000
1001
0000
,  // measure 6
0010
0000
1000
0000
0000
0000
0000
0010
0001
0000
0000
0000
1001
0000
0000
0000
,  // measure 7
0100
0000
0000
0000
0000
0000
0000
0000
0001
0000
0000
0000
0000
0000
0000
0000
0000
0000
0000
0000
0000
0000
0000
0000
0100
0000
0000
0000
0000
0000
0000
0000
1000
0000
0000
0000
0000
0000
0000
0000
0000
0000
0000
0000
0000
0000
0000
0000
0220
0330
0000
0000
0000
0000
0000
0000
0000
0000
0000
0000
0000
0000
0000
0000
,  // measure 8
1000
0001
1000
0001
1000
0000
0100
0000
0010
0001
0000
0001
0000
0000
1000
0000
,  // measure 9
0001
0000
0000
0000
0100
0000
0001
0000
0010
0100
0000
0100
0000
0000
1000
0000
,  // measure 10
0010
0000
0000
0000
1000
0000
0100
1000
0000
0001
0000
0100
0000
0000
1000
0100
,  // measure 11
1000
0010
0200
0001
0310
1000
0001
0000
,  // measure 12
0010
0001
0100
0001
0010
0000
0100
0000
1000
0100
0000
1000
0000
0000
0001
0000
,  // measure 13
0100
0000
0000
0000
0001
0000
1000
0000
0001
0100
0000
0001
0000
0000
0010
0000
,  // measure 14
0100
0000
0000
0000
1000
0000
0001
0010
0000
0000
0001
1000
0001
0000
1000
0000
,  // measure 15
0010
1000
0000
0001
0000
0000
1000
0000
0001
0100
0000
0100
0000
0000
0010
0000
,  // measure 16
1000
0001
1000
0001
1000
0000
0000
0000
0001
0000
0100
0000
0001
0000
0000
0000
,  // measure 17
0010
0000
0000
0000
0100
0000
0000
0000
1000
0000
0000
0010
0100
0000
0000
0000
,  // measure 18
0001
1000
0001
0000
0010
0100
0010
0000
,  // measure 19
0002
2000
0000
0000
,  // measure 20
0000
0000
3003
0000
,  // measure 21
1000
0010
0001
0010
0100
0100
0010
0000
,  // measure 22
0001
0010
1000
0001
0100
0100
1000
0000
,  // measure 23
0001
0010
0001
0000
0001
0100
0001
0000
,  // measure 24
0001
0000
1000
0000
0001
0000
0000
0000
0020
0000
0000
0100
0000
0130
0000
0000
,  // measure 25
0001
0010
1000
0010
0100
1000
0001
0000
,  // measure 26
1000
0010
0001
1000
0100
0100
0001
0000
,  // measure 27
1000
0100
1000
0000
1000
0010
1000
0000
,  // measure 28
1000
0000
0001
0000
1000
0000
0000
0000
0200
0000
0000
0010
0000
0310
0000
0000
,  // measure 29
0001
0000
1000
0001
1000
0000
0010
0000
,  // measure 30
0100
0000
0001
1000
0001
0000
0010
0000
,  // measure 31
0200
1000
0010
0001
,  // measure 32
0020
0000
0000
0000
,  // measure 33
0330
0000
0000
0000
0001
0010
0100
1000
,  // measure 34
0001
0000
0100
0000
0001
1000
0000
0001
0000
0000
0010
0000
0100
0000
0000
0000
,  // measure 35
1000
0000
0001
0000
1000
0100
0000
1000
0000
0000
0010
0000
0100
0000
0000
0000
,  // measure 36
0001
0000
0010
0001
1000
0000
0010
1000
0001
0000
1000
0100
1000
0000
0001
0100
,  // measure 37
0001
0010
0100
1000
0100
0010
0000
0010
0000
0001
0100
0000
1000
0010
0100
0001
,  // measure 38
1000
0000
0010
0000
1000
0001
0000
1000
0000
0000
0100
0000
0010
0000
0000
0000
,  // measure 39
0001
0000
1000
0000
0001
0010
0000
0001
0000
0000
0100
0000
0010
0000
0000
0000
,  // measure 40
1000
0000
0100
1000
0001
0000
0100
0001
1000
0000
0001
0010
0001
0000
1000
0010
,  // measure 41
1000
0100
0010
0001
0010
0100
0000
0100
0000
1000
0010
0000
1000
0100
0010
0001
,  // measure 42
1000
0000
0010
1000
0001
0000
0010
0000
,  // measure 43
0001
0000
0000
0000
1000
0000
0000
0001
0100
0000
0000
0000
0010
0000
1000
0000
,  // measure 44
0010
0000
1000
0001
1000
0000
0100
0000
,  // measure 45
2002
0000
0000
0000
0000
3003
0000
0000
0000
0000
0000
0000
0000
0000
0000
0000
;

//---------------dance-double - ----------------
#NOTES:
     dance-double:
     :
     Challenge:
     7:
     0.343,0.404,0.073,0.155,0.155:
00000000
00000000
00000000
00000000
,
00000000
00000000
00000000
00000000
,
00000000
00000000
00000000
00000000
,
00000000
00000000
00000000
00000000
00000000
00000000
00000000
00000000
00001000
00000000
00000000
00010000
00000000
00001000
00000000
00000000
,
00020000
00000010
00030000
00010000
00002000
00000000
00103000
00000000
,
00002000
01003000
00020000
00030100
,
00001000
00010000
00000000
00010000
00001000
00000000
00011000
00000000
,
00000010
00000100
00001001
00000010
00000100
00000000
00010000
00000010
,
00010000
00000000
00000001
00000100
00000001
00000000
00000010
00000001
,
00001000
00000100
00010000
00100000
,
10000000
01000000
00010000
00001000
,
00100000
00100000
00010000
00000000
10000000
10000000
00100000
00001000
,
00100000
00000000
00010000
00000100
00010000
00000000
00100000
00000000
,
11000000
00100000
00010000
00001000
,
00000100
00000001
00000010
00001000
,
00010000
00001000
00020000
00000000
01000000
10000000
10000000
00000000
,
01000000
00000000
00000000
00000000
00100000
00000000
00000000
00000000
00001000
00000000
00000000
00000100
00000100
00000000
00000000
00000000
,
00030010
00000000
00002000
00000000
00000001
00000010
00000010
00000000
,
00000100
00020000
00000000
00000000
,
00000000
00000000
00033000
00000000
,
00100000
01000000
10010000
01000000
00010000
00001000
00010000
00000000
,
00100000
00001000
00010000
00001000
01000000
00100000
01000000
00000000
,
00010000
00100000
10000000
00000000
10000000
00100000
00010000
00000000
,
00001000
00000000
00000100
00000000
00000001
00000000
00000000
00000000
00001000
00000000
00000000
00000001
00000000
00001000
00000000
00000000
,
00000001
00000100
00010000
00000100
00000010
00001000
00000100
00000000
,
00010000
01000000
10000000
01000000
00100000
00001000
01000000
00000000
,
00100000
00010000
00100000
00000000
00001000
00010000
00001000
00000000
,
00000100
00000000
00000010
00000000
00000100
00000000
00000000
00000000
00000001
00000000
00000000
00001000
00000000
00001000
00000000
00000000
,
00000200
00000000
00000000
00100000
00000000
00000000
00020300
00000000
00001000
00000000
00001000
00000000
00000000
00000000
00000010
00000000
,
00000100
00000100
00000000
00100000
01030000
00000000
10010000
00100000
,
20000000
32000000
03200000
00320000
,
00002000
00000000
00000000
00000000
,
00000000
00000000
00033000
00000000
00001000
00010000
00001000
00010000
,
00000100
00000000
00000100
00000000
00010000
00001000
00000000
00001000
00000000
00000000
01000000
00000000
00010000
00000000
00000000
00000000
,
00001000
00000000
00010000
00000000
00000100
00010000
00000000
00010000
00000000
00000000
00001000
00000000
00000100
00000000
00000000
00000000
,
00000001
00000000
00000001
00000100
00000001
00000000
00000100
00010000
00000100
00000000
00001000
00010000
00001000
00000000
01000000
00010000
,
01000000
00000000
10000000
01000000
10000000
01000000
00000000
01100000
00000000
00000000
00100000
00000000
00010000
10000000
00010000
10000000
,
00010000
00000000
01000000
00000000
00100000
10000000
00000000
10000000
00000000
00000000
01000000
00000000
00100000
00000000
00000000
00000000
,
00001000
00000000
00100000
00000000
00001000
00010000
00000000
00010000
00000000
00000000
00000100
00000000
00000010
00000000
00000000
00000000
,
00001001
00000000
00000010
00000100
00000010
00000000
00001000
00000001
00001000
00000000
00000100
00010000
00000100
00000000
00010000
00000000
,
00001000
01000000
00001000
00000000
00100000
00010000
00000000
10000000
00000000
00000000
10010000
00000000
00010000
10000000
00010000
10000000
,
00020000
00000000
00100000
10000000
10000000
00000000
01000000
00000000
,
00001000
00000000
00000000
00000000
00000010
00000000
00000000
00001000
00001000
00000000
00000000
00000000
00030100
00000000
00000000
00000000
,
00002000
00000000
00100000
00010000
00010000
00000000
00000100
00000000
,
00020000
00000000
00000000
00000000
00000000
00033000
00000000
00000000
00000000
00000000
00000000
00000000
00000000
00000000
00000000
00000000
;
