#TITLE:Eating Crow;
#SUBTITLE:;
#ARTIST:DJ DONNA SUMMER;
#TITLETRANSLIT:;
#SUBTITLETRANSLIT:;
#ARTISTTRANSLIT:;
#GENRE:Happy;
#CREDIT:AznPunk07/GuardianFrozen;
#MENUCOLOR:#fde260;
#METERTYPE:DDR;
#BANNER:[Happy Songs] - Eating Crow.png;
#BACKGROUND:[Happy Songs] - Eating Crow-bg.png;
#LYRICSPATH:;
#CDTITLE:cdtitle.png;
#MUSIC:[Happy Songs] - Eating Crow.mp3;
#OFFSET:-0.073;
#SAMPLESTART:35.500;
#SAMPLELENGTH:14.560;
#SELECTABLE:YES;
#LISTSORT:;
#DISPLAYBPM:132.000;
#BPMS:0.000=132.000,55.000=264.000,57.000=132.000,64.000=264.000,66.000=132.000,73.000=264.000,75.000=132.000,125.000=264.000,126.500=132.000,129.000=264.000,130.500=132.000,133.000=264.000,135.000=132.000,137.000=264.000,139.000=132.000,150.000=264.000,152.000=132.000,156.000=264.000,159.000=264.000,161.000=132.000,167.000=264.000,169.000=132.000,201.000=264.000,203.000=132.000,217.000=264.000,219.000=132.000,227.000=264.000,227.750=132.000,231.000=264.000,231.750=132.000,235.000=264.000,237.000=132.000,239.000=264.000,241.000=132.000,243.000=264.000,244.500=132.000,247.000=264.000,248.500=132.000,251.000=264.000,252.500=132.000,255.000=264.000,256.500=132.000,259.000=264.000,261.000=132.000,263.000=264.000,265.000=132.000,267.000=264.000,269.000=132.000,271.000=264.000,289.000=132.000;
#STOPS:125.000=0.170
,125.750=0.170
,129.000=0.171
,129.750=0.170
,133.000=0.170
,133.750=0.171
,134.500=0.113
,137.000=0.170
,137.750=0.170
,138.500=0.114
,156.000=0.227
,157.000=0.227
,158.000=0.227
,168.750=0.455
,201.000=0.227
,202.000=0.228
,217.250=0.227
,218.250=0.227
,227.000=0.170
,231.000=0.170
,235.000=0.171
,235.750=0.170
,236.500=0.113
,239.000=0.171
,239.750=0.170
,240.500=0.114
,243.000=0.170
,243.750=0.171
,247.000=0.170
,247.750=0.170
,251.000=0.171
,251.750=0.170
,255.000=0.170
,255.750=0.171
,259.000=0.170
,259.750=0.171
,260.500=0.113
,263.000=0.170
,263.750=0.170
,264.500=0.114
,267.000=0.171
,267.750=0.170
,268.500=0.118
,271.000=0.170
,271.750=0.171
,272.500=0.114
,273.000=0.227
,274.000=0.227
,275.000=0.170
,275.750=0.171
,276.500=0.113
,277.000=0.227
,278.000=0.227
,279.000=0.170
,279.750=0.170
,280.500=0.114
,281.000=0.228
,282.000=0.227
,283.000=0.171
,283.750=0.170
,284.500=0.113
,285.000=0.227
,286.000=0.228
,287.000=0.170
,287.750=0.171
,288.500=0.114
;
#BGCHANGES:;
#ATTACKS:;

//---------------dance-single - ----------------
#NOTES:
     dance-single:
     :
     Hard:
     7:
     0.469,0.444,0.385,0.092,0.242:
0000
0000
0000
0000
,
0000
0000
0000
0000
,
0000
0000
0000
0000
,
0000
0000
0000
0000
,
1000
1100
0010
0110
,
0000
0001
0000
1000
0000
0100
0000
0010
0100
0000
0000
0000
0000
0000
0000
0000
,
0001
0101
1000
1100
,
0000
1000
0000
0010
0000
0100
0000
0001
0100
0000
0000
0000
0000
0000
0000
0000
,
0001
0011
0100
0110
,
0000
1000
0000
0100
0000
0010
0000
0001
0010
0000
0000
0000
0000
0000
0000
0000
,
1000
1010
0001
0011
,
0000
0001
0000
0100
0000
0010
0000
0100
1000
0000
0000
0000
0000
0000
0000
0000
,
0001
0000
0010
0001
1000
0000
0100
0010
,
0001
1010
1001
0220
,
0330
0000
0001
0000
1000
0100
1000
0000
,
0010
0100
0001
0000
1100
0000
0110
0000
,
0202
0000
0303
0000
0010
0000
0001
0100
,
0001
0000
0010
1000
0100
0000
1010
0000
,
0101
2200
3300
0010
,
0001
1000
0100
0000
0010
0001
0010
0100
,
1000
0001
0100
0010
0100
0010
1000
0000
,
1010
0000
0000
0000
0001
0000
0000
0010
0000
0000
0100
0000
0010
0000
0000
0000
,
0001
0000
0000
0000
0100
0000
0000
0001
0000
0000
1000
0000
0100
0000
0000
0000
,
0110
0000
0000
0000
0010
0000
0000
0100
0000
0000
1000
0000
0100
0000
0010
0000
,
0001
0000
0100
0001
0100
0010
0100
0000
,
0110
0000
0000
0000
0010
0000
0000
1000
0000
0000
0010
0000
0100
0000
0000
0000
,
0001
0000
0000
0000
1000
0000
0000
0001
0000
0000
0001
0000
0010
0000
0000
0000
,
1100
0000
0000
0000
0001
0000
0000
1000
0000
0000
1000
0000
0010
0000
0100
0000
,
0010
0000
1000
0100
0010
0001
0011
0000
,
1001
0000
0000
0000
0001
0000
0000
0100
0000
0000
0001
0000
0010
0000
0000
0000
,
0100
0000
1000
0100
0000
1000
0001
0000
,
0101
0000
0000
0000
0010
0000
0000
1000
0000
0000
0000
0000
0001
0000
0000
0000
,
0011
0000
0000
0000
0100
0000
0000
1000
0000
0000
0000
0000
0100
0000
0000
0000
,
1100
0000
0000
0000
0010
0000
0000
0001
0000
0000
0001
0000
0100
0000
0000
0000
,
1010
0000
0000
0000
0100
0000
0000
0001
0000
0000
0001
0000
0100
0000
0000
0000
,
0110
0000
0000
0000
1000
0000
0000
0100
0000
0000
1000
0000
0020
0000
0000
0000
,
0130
0001
0100
0010
1000
0100
0010
0000
,
0010
0100
1000
0100
0022
0000
0033
0000
,
0001
0100
0001
0100
0010
0000
1000
0001
,
0100
0101
0010
2020
,
3030
0000
1000
0100
1000
0100
0010
0000
,
0001
1000
0100
0010
0001
0100
0020
0000
,
0000
1030
1100
0010
,
0011
0000
0000
0000
0001
0100
0000
0010
0000
0100
0000
0001
1000
0000
0100
0000
,
0010
0100
1100
0001
,
0011
0000
0000
0000
1000
0010
0000
1000
0000
0001
0000
0010
0100
0000
1000
0000
,
1001
0000
0010
1000
0100
0000
0010
0001
,
0100
0000
0000
0000
0010
1000
0000
0001
0000
1000
0000
0100
0001
0000
0100
0000
,
0010
0000
0001
0100
1000
0000
0100
0010
,
1000
0000
0000
0000
0001
0000
0010
1000
0000
0010
0000
0100
1000
0000
0001
0000
,
0100
0000
0010
0000
1010
0000
0000
0000
0101
0000
0000
0000
1000
0000
0000
0100
,
0000
0000
1000
0000
0001
0000
0100
0000
0010
0000
0000
0000
0100
0000
0000
0001
,
0000
0000
0010
0000
0100
0000
1000
0000
0100
0000
0000
0000
0010
0000
0000
0100
,
0000
1000
0001
0100
0001
0000
0010
0100
,
1000
0000
0001
0000
0101
0000
0000
0000
1010
0000
0000
0000
0001
0000
0000
0100
,
0000
0001
1000
0010
0100
0000
0001
1000
,
0000
0000
1000
0000
0001
0000
0000
0000
0011
0000
0000
0000
1000
0000
0000
0010
,
0000
0000
0100
0000
0001
0000
0000
0000
1000
0000
0000
0000
0100
0000
0000
0010
,
0000
0000
0100
0000
1000
0000
0000
0000
0010
0000
0000
0000
0100
0000
0000
0001
,
0000
0000
1000
0000
0100
0000
0000
0000
1000
0000
0000
0000
0001
0000
0000
0010
,
0000
0000
0100
0000
1000
0000
0000
0000
1100
0000
0000
0000
0001
0000
0000
1001
,
0000
0000
0100
0000
0010
0000
0000
0000
0110
0000
0000
0000
1000
0000
0000
1001
,
0000
0000
0010
0000
0100
0000
0000
0000
1100
0000
0000
0000
0010
0000
0000
0011
,
0000
0000
0001
0000
0100
0000
0000
0000
0101
0000
0000
0000
0010
0000
0000
1010
,
0000
0000
1000
0000
0100
0000
0001
0000
0100
0000
0000
0000
1000
0000
0000
1000
,
0000
0000
1000
0000
0010
0000
0001
0000
0010
0000
0000
0000
0100
0000
0000
0100
,
0000
0000
0100
0000
0001
0000
0010
0000
0100
0000
0000
0000
1000
0000
0000
1000
,
0000
0000
1000
0000
0010
0000
0100
0000
0010
0000
0000
0000
0001
0000
0000
0001
,
0000
0000
0001
0000
0010
0000
0000
0000
1000
0000
0000
0000
0100
0000
0000
0010
,
0000
0000
0001
0000
0100
0000
0000
0000
0001
0000
0000
0000
1000
0000
0000
0100
,
0000
0000
0010
0000
0100
0000
0000
0000
1000
0000
0000
0000
0001
0000
0000
1000
,
0000
0000
0001
0000
0100
0000
0000
0000
0001
0000
0000
0000
0100
0000
0000
0010
,
0000
0110
0000
0000
0000
0000
0000
0000
;

//---------------dance-single - ----------------
#NOTES:
     dance-single:
     :
     Medium:
     5:
     0.375,0.388,0.177,0.338,0.000:
0000
0000
0000
0000
,
0000
0000
0000
0000
,
0000
0000
0000
0000
,
0000
0000
0000
0000
,
0001
0010
0100
1000
,
0000
0000
0001
0000
0100
0010
1000
0000
,
0100
1000
0010
0100
,
0001
0010
0100
0000
1000
0001
1000
0000
,
0100
1000
0010
0000
0100
0000
0001
0010
,
0100
0000
1000
0000
0010
1000
0100
0000
,
0001
0100
0001
0000
1000
0100
1000
0000
,
0010
0000
0100
0000
0010
1000
0100
0000
,
0010
0010
0100
1000
,
0001
0101
1000
2000
,
0000
3001
0010
0001
,
0110
1000
0100
0010
,
0002
0000
1003
0100
,
0001
0100
1000
0010
,
0100
0020
0000
0130
,
0001
1000
0010
1000
,
0100
0000
0010
0001
0010
0001
0010
0000
,
0000
0100
1000
0001
,
0000
0000
0100
0001
0100
0000
0010
0000
,
0010
0000
1000
0100
1000
0000
0010
0100
,
0010
0000
1000
0000
0100
0010
0001
0000
,
0000
0001
1000
0100
,
0000
0000
0010
0100
0000
0100
0000
0100
,
0000
0000
1000
0001
0000
0001
0000
0001
,
1000
0000
0001
0100
0001
0100
0010
0000
,
0000
1000
0100
0011
,
0000
0001
0100
1000
,
0010
1001
0000
1000
,
0100
1001
0000
0001
,
0100
0000
0000
0000
2020
0000
0000
3000
0000
0000
0030
0000
1000
0000
0000
0000
,
0100
0000
0000
0000
0022
0000
0000
0030
0000
0000
0003
0000
0100
0000
0000
0000
,
1000
0001
0110
0002
,
0000
0013
0100
1000
0000
1000
0000
0001
,
0000
0100
0010
0100
0020
0000
0000
0000
,
1030
0100
0010
0001
,
1000
1010
0011
0200
,
0000
0310
0001
1000
,
0001
0100
0010
2000
,
0000
3000
0001
0010
,
0100
0000
1000
0010
1000
0000
0001
0100
,
0001
1000
0100
0010
,
0001
0000
0010
0100
1000
0000
0010
0100
,
0001
1000
1100
0001
,
0101
0000
1000
0000
0010
0000
0100
0010
,
1001
0001
0011
1000
,
1010
0000
0001
0010
0100
0000
1000
0001
,
1000
0000
0000
0000
0000
0000
0000
0000
0001
0000
0000
0000
0000
0000
0000
0000
2000
0000
0000
0000
0000
0000
0000
0000
0000
0000
0000
0000
0000
0000
0000
0000
0000
3000
0000
0000
0000
0000
0000
0000
0000
0000
0000
0000
0000
0000
0000
0000
0100
0000
0000
0000
0000
0000
0000
0000
0000
0000
0000
0000
0000
0000
0000
0000
,
0010
0001
0100
0000
0001
0000
0010
0000
,
0100
1000
0001
0000
0100
0000
0010
0000
,
0100
0001
0010
0100
1000
0000
0100
1000
,
0010
1000
0020
0000
2030
0000
3100
0000
,
0010
0000
0100
1000
0001
0000
0100
0000
,
0001
0100
0001
0000
0010
0000
0200
0000
,
0300
1000
0100
0020
,
0030
0001
0100
0002
,
0003
0010
0100
2000
,
3000
0000
0000
0000
0020
0000
0000
0000
0130
0000
0000
0000
0220
0000
0000
0300
,
0000
0000
0030
0000
2000
0000
0000
0000
3001
0000
0000
0000
2002
0000
0000
0003
,
0000
0000
3000
0000
0100
0000
0000
0000
1000
0000
0000
0000
0022
0000
0000
0030
,
0000
0000
0003
0000
0100
0000
0000
0000
0010
0000
0000
0000
2200
0000
0000
3000
,
0000
0000
0300
0000
0020
0000
0000
0000
1030
0000
0000
0000
0202
0000
0000
0003
,
0000
0000
0300
0000
0020
0000
0000
0000
1030
0000
0000
0000
2002
0000
0000
3000
,
0000
0000
0003
0000
2000
0000
0000
0000
3100
0000
0000
0000
2020
0000
0000
3000
,
0000
0000
0030
0000
0200
0000
0000
0000
0301
0000
0000
0000
0220
0000
0000
0300
,
0000
0030
1000
0000
0100
0000
0020
0000
,
0000
0031
0100
0020
,
0000
1030
0001
0020
,
0000
0031
1000
0020
,
0000
0030
0000
0000
0000
0000
0000
0000
;

//---------------dance-single - ----------------
#NOTES:
     dance-single:
     :
     Easy:
     3:
     0.248,0.277,0.100,0.200,0.000:
0000
0000
0000
0000
,
0000
0000
0000
0000
,
0000
0000
0000
0000
,
0000
0000
0000
0000
,
1000
0000
0010
0000
,
0000
0100
0001
0010
,
0100
0000
0010
0000
,
0000
0001
1000
0100
,
0010
0000
0100
0000
,
0000
1000
0001
0100
,
0001
0000
0010
0000
,
0000
0100
0010
0001
,
1000
1000
0010
0010
,
1000
1000
1000
2000
,
0000
3000
0000
0001
,
0010
0001
0001
0001
,
0002
0000
0003
0000
,
0100
0010
1000
1000
,
0001
2002
0000
3003
,
0000
1000
0100
0010
,
0010
0100
0100
0110
,
0000
1000
0100
0010
,
0000
0001
0100
0001
,
0000
1000
0010
1000
,
0000
0001
0010
1001
,
0000
1000
1000
0100
,
0000
0010
0000
0001
,
0100
0001
0000
1000
,
0100
0010
0010
1100
,
0000
0101
0001
0100
,
0000
0010
0010
1000
,
1000
2000
3000
0001
,
0001
0002
0003
0010
,
0010
0020
0030
0100
,
0100
0200
0300
1000
,
0100
1100
0000
0002
,
0003
0010
0001
1000
,
0010
0100
0020
0000
,
0030
0000
1000
0100
,
2002
0000
0000
3003
,
0000
0000
0000
0010
,
0100
1000
0001
2000
,
0000
0000
0000
3000
0000
0000
0000
0000
0000
0000
0000
0000
0001
0000
0000
0000
,
0000
1000
0100
0010
,
0110
0001
0000
0100
,
0000
0010
1000
0001
,
1001
0000
0010
0000
,
0100
1000
0100
0010
,
0011
0000
1000
0000
,
0001
0100
0010
0101
,
1100
1001
0000
0010
,
0000
0100
0000
0001
,
1000
0100
0000
1000
,
0001
0100
0100
0010
,
0010
0020
0000
1030
,
0100
0010
0000
0100
,
1000
0001
0001
0002
,
0003
1000
1000
2000
,
3000
0010
0010
0020
,
0030
0100
0100
0200
,
0300
0001
0010
0200
,
0300
1000
0010
0200
,
0300
0001
0010
0002
,
0003
1000
0010
2000
,
3000
0100
0010
0001
,
0000
0100
0010
1000
,
0000
0001
1000
0001
,
0000
1000
0100
0010
,
0000
0200
0000
0000
,
0300
2000
0000
0000
,
3000
0002
0000
0000
,
0003
0020
0000
0000
,
0000
0030
0000
0000
0000
0000
0000
0000
;

//---------------dance-single - ----------------
#NOTES:
     dance-single:
     :
     Beginner:
     1:
     0.099,0.137,0.015,0.008,0.000:
0000
0000
0000
0000
,
0000
0000
0000
0000
,
0000
0000
0000
0000
,
0000
0000
0000
0000
,
0001
0000
0000
0000
,
1000
0000
0000
0000
,
0100
0000
0000
0000
,
0010
0000
0000
0000
,
1000
0000
0000
0000
,
0001
0000
0000
0000
,
0100
0000
0000
0000
,
0010
0000
0000
0000
,
1000
0000
1000
0000
,
1000
0000
0000
0000
,
0000
0000
0000
0001
,
0000
0001
0000
0000
,
0000
0000
0000
0000
,
0010
0000
0010
0000
,
0000
0000
0000
0000
,
0000
0100
0000
0100
,
0000
1000
1000
1000
,
0000
0000
0000
0010
,
0000
0000
0000
0100
,
0100
0000
0000
0010
,
0000
0000
0000
1001
,
0000
0000
0000
0100
,
0000
0000
0000
0010
,
0000
0000
0000
1000
,
1000
0000
0000
1001
,
0000
0000
0000
0001
,
0000
0000
0000
0001
,
0001
0000
0000
1000
,
1000
0000
0000
0010
,
0010
0000
0000
0100
,
0100
0000
0000
0001
,
0000
1000
0000
0200
,
0000
0000
0000
0300
,
0000
0000
0000
0000
,
0000
0000
0010
0000
,
0000
0000
0000
0000
,
0000
0000
0000
1000
,
0000
0001
0000
0000
,
0000
0000
0000
0010
,
0000
0100
0100
0100
,
0000
0000
0000
0010
,
0000
0001
0001
0001
,
0000
0000
0000
0100
,
0000
1000
1000
1000
,
0000
0000
0000
0010
,
0000
0100
0000
0000
,
0000
0000
0000
0000
,
0000
0001
0000
0000
,
0000
1000
0000
0000
,
0000
0100
0000
0000
,
0000
0000
0000
0000
,
0000
0010
0000
0000
,
0000
0001
0001
0000
,
0000
1000
1000
0000
,
0000
0100
0100
0000
,
0000
0010
0010
0000
,
0000
0000
0001
0000
,
0000
0000
1000
0000
,
0000
0000
0010
0000
,
0000
0000
0100
0000
,
0000
0001
0001
0000
,
0000
0010
0010
0000
,
0000
0100
0100
0000
,
0000
1000
1000
0000
,
0000
0010
0000
0000
,
0000
0100
0000
0000
,
0000
0001
0000
0000
,
0000
1000
0000
0000
;

//---------------dance-double - ----------------
#NOTES:
     dance-double:
     :
     Challenge:
     8:
     0.499,0.471,0.431,0.092,0.258: // measure 1
00000000
00000000
00000000
00000000
,  // measure 2
00000000
00000000
00000000
00000000
,  // measure 3
00000000
00000000
00000000
00000000
,  // measure 4
00000000
00000000
00000000
00000000
,  // measure 5
10000000
11000000
00010000
01010000
,  // measure 6
00000000
00100000
00000000
00100000
00000000
00100000
00000000
00100000
00001000
00000000
00010000
00000000
00000010
00000000
00000000
00000000
,  // measure 7
00001000
00001100
00000001
00000101
,  // measure 8
00000000
00000010
00000000
00000010
00000000
00000010
00000000
00000010
00000001
00000000
00001000
00000000
00000010
00000000
00000000
00000000
,  // measure 9
00011000
00000100
00011000
01000000
,  // measure 10
00000000
00001000
00000000
00010000
00000000
00011000
00000000
00001000
00010000
00000000
00001000
00000000
00000000
00000000
00000000
00000000
,  // measure 11
00010000
00001000
01000000
00000000
00001000
00010000
00000100
00000000
,  // measure 12
00000000
00010000
00000000
00000100
00000000
00010000
00000000
00001000
01000000
00000000
00001000
00000000
00000000
00000000
00000000
00000000
,  // measure 13
00010000
00001000
00000100
00001000
00010000
00000000
01000000
00100000
,  // measure 14
00010000
10100000
10010000
00022000
,  // measure 15
00033000
00000000
00001000
00010000
00100000
00010000
00001000
00000000
,  // measure 16
00010000
00000100
00000010
00000000
00000011
00000000
00000101
00000000
,  // measure 17
00002002
00000000
00003003
00000000
00000010
00000100
00010000
00000100
,  // measure 18
00000010
00000000
00010000
00000100
00010000
00000000
00101000
00000000
,  // measure 19
01010000
00000000
20200000
00000000
30300000
00000000
00010000
00100000
,  // measure 20
00001000
00100000
00010000
00000000
10000000
00100000
10000000
00010000
,  // measure 21
01000000
00001000
00010000
00010000
00001000
00001000
00010000
00000000
,  // measure 22
00001100
00000000
00000000
00000000
00010000
00000000
00000000
00100000
00000000
00000000
01000000
00000000
00100000
00000000
00000000
00000000
,  // measure 23
00011000
00000000
00000000
00000000
00001000
00000000
00000000
00000100
00000000
00000000
00000010
00000000
00000100
00000000
00000000
00000000
,  // measure 24
00011000
00000000
00000000
00000000
00100000
00000000
00000000
01000000
00000000
00000000
10000000
00000000
01000000
00000000
00100000
00000000
,  // measure 25
00010000
00000000
00001000
00000100
00000001
00000100
00001000
00000000
,  // measure 26
00011000
00000000
00000000
00000000
00001000
00000000
00000000
00000010
00000000
00000000
00000100
00000000
00000010
00000000
00000000
00000000
,  // measure 27
00011000
00000000
00000000
00000000
00010000
00000000
00000000
01000000
00000000
00000000
00100000
00000000
01000000
00000000
00000000
00000000
,  // measure 28
00011000
00000000
00000000
00000000
00000010
00000000
00000000
00000100
00000000
00000000
00000001
00000000
00000100
00000000
00000010
00000000
,  // measure 29
00001000
00000000
00000100
00010000
00001000
00100000
00010000
00000000
,  // measure 30
10010000
00000000
00000000
00000000
00010000
00000000
00000000
01000000
00000000
00000000
00010000
00000000
00100000
00000000
00001000
00000000
,  // measure 31
00010000
00000000
00000100
00000010
00000000
00000010
00000001
00000000
,  // measure 32
00000101
00000000
00000000
00000000
00000010
00000000
00000000
00010000
00000000
00000000
00000000
00000000
00001000
00000000
00000000
00000000
,  // measure 33
00110000
00000000
00000000
00000000
01000000
00000000
00000000
10000000
00000000
00000000
00000000
00000000
00100000
00000000
00000000
00000000
,  // measure 34
01001000
00000000
00000000
00000000
00010000
00000000
00000000
00000100
00000000
00000000
00010000
00000000
00000010
00000000
00000000
00000000
,  // measure 35
00000101
00000000
00000000
00000000
00010000
00000000
00000000
00000100
00000000
00000000
00010000
00000000
00000010
00000000
00000000
00000000
,  // measure 36
00000110
00000000
00000000
00000000
00000001
00000000
00000000
00001000
00000000
00000000
00000001
00000000
00002000
00000000
00000000
00000000
,  // measure 37
00003000
00000100
00010000
00001000
01000000
00010000
00100000
01000000
,  // measure 38
10000000
00100000
01000000
00010000
20020000
00000000
30030000
00000000
,  // measure 39
10000000
01000000
00010000
00001000
00010000
01000000
10000000
00010000
,  // measure 40
01000000
01010000
00101000
00020200
,  // measure 41
00030300
00000000
00000100
00000010
00000001
00000010
00000100
00010000
,  // measure 42
00000010
00000100
00000001
00001000
00000100
00000010
00000002
00000000
,  // measure 43
00000000
00000003
10000000
00000000
11000000
00000000
00010000
00000000
,  // measure 44
01010000
00000000
00000000
00000000
00100000
00001000
00000000
00001000
00000000
00010000
00000000
00010000
00000010
00000000
00000100
00000000
,  // measure 45
00000010
00000100
00000101
00000010
,  // measure 46
00001010
00000000
00000000
00000000
00000001
00000100
00000000
00000100
00000000
00000010
00000000
00000010
00010000
00000000
00001000
00000000
,  // measure 47
00011000
00000000
00010000
00001000
01000000
00000000
00001000
00010000
,  // measure 48
00000010
00000000
00000000
00000000
00010000
00001000
00000000
00010000
00000000
01000000
00000000
00100000
01000000
00000000
00010000
00000000
,  // measure 49
00001000
00000000
00001000
00010000
00000010
00000000
00010000
00001000
,  // measure 50
01000000
00000000
00000000
00000000
01000000
00000000
00001000
00010000
00000000
00001000
00000000
00010000
00000010
00000000
00010000
00000000
,  // measure 51
00001000
00000000
00000010
00000000
00001001
00000000
00000000
00000000
00011000
00000000
00000000
00000000
00010000
00000000
00000000
00100000
,  // measure 52
00000000
00000000
01000000
00000000
10000000
00000000
00100000
00000000
01000000
00000000
00000000
00000000
00010000
00000000
00000000
01000000
,  // measure 53
00000000
00000000
00001000
00000000
00010000
00000000
00000100
00000000
00000010
00000000
00000000
00000000
00000001
00000000
00000000
00000010
,  // measure 54
00000000
00000100
00001000
00000001
00000100
00000000
00000010
00000100
,  // measure 55
00010000
00000000
00000100
00000000
00000010
00000000
00000000
00000000
00000110
00000000
00000000
00000000
00010000
00000000
00000000
00001000
,  // measure 56
00000000
00100000
00010000
01000000
00100000
00000000
10000000
01000000
,  // measure 57
00000000
00000000
01000000
00000000
10000000
00000000
00000000
00000000
00010000
00000000
00000000
00000000
10000000
00000000
00000000
00010000
,  // measure 58
00000000
00000000
00001000
00000000
00000001
00000000
00000000
00000000
00001000
00000000
00000000
00000000
00000001
00000000
00000000
00001000
,  // measure 59
00000000
00000000
00010000
00000000
10000000
00000000
00000000
00000000
00010000
00000000
00000000
00000000
10000000
00000000
00000000
00010000
,  // measure 60
00000000
00000000
10000000
00000000
00010000
00000000
00000000
00000000
00001000
00000000
00000000
00000000
00000001
00000000
00000000
00001000
,  // measure 61
00000000
00000000
00000001
00000000
00001000
00000000
00000000
00000000
00011000
00000000
00000000
00000000
00010000
00000000
00000000
10000000
,  // measure 62
00000000
00000000
00010000
00000000
00001000
00000000
00000000
00000000
00011000
00000000
00000000
00000000
00001000
00000000
00000000
00000001
,  // measure 63
00000000
00000000
00001000
00000000
00010000
00000000
00000000
00000000
00011000
00000000
00000000
00000000
10000000
00000000
00000000
00010000
,  // measure 64
00000000
00000000
10000000
00000000
00010000
00000000
00000000
00000000
00011000
00000000
00000000
00000000
00001000
00000000
00000000
00000001
,  // measure 65
00000000
00000000
00001000
00000000
00010000
00000000
00010000
00001000
00010000
00000000
00000000
00000000
01000000
00000000
00000000
01000000
,  // measure 66
00000000
00000000
01000000
00000000
00001000
00000000
00001000
00010000
00001000
00000000
00000000
00000000
00000100
00000000
00000000
00000100
,  // measure 67
00000000
00000000
00000100
00000000
00010000
00000000
00010000
00000010
00010000
00000000
00001000
00000000
00100000
00000000
00000000
00100000
,  // measure 68
00000000
00000000
00100000
00000000
00001000
00000000
00001000
01000000
00001000
00000000
00010000
00000000
00000010
00000000
00000000
00000010
,  // measure 69
00000000
00000000
00000010
00000000
00010000
00000000
00000000
00000000
00001000
00000000
00000000
00000000
00011000
00000000
00000000
00101000
,  // measure 70
00000000
00000000
01001000
00000000
00010000
00000000
00000000
00000000
00001000
00000000
00000000
00000000
00011000
00000000
00000000
00010100
,  // measure 71
00000000
00000000
00010010
00000000
00001000
00000000
00000000
00000000
00010000
00000000
00000000
00000000
00011000
00000000
00000000
00101000
,  // measure 72
00000000
00000000
01001000
00000000
00010000
00000000
00000000
00000000
00001000
00000000
00000000
00000000
01000100
00000000
00000000
00100010
,  // measure 73
00000000
01000100
00000000
00000000
00000000
00000000
00000000
00000000
;
