#TITLE:END OF SORROW;
#SUBTITLE:;
#ARTIST:YU-KI & DJ KOO from TRF;
#TITLETRANSLIT:;
#SUBTITLETRANSLIT:;
#ARTISTTRANSLIT:;
#GENRE:;
#CREDIT:Frozen_Heat/Azn_Punk_07;
#MENUCOLOR:#bfe9ff;
#BANNER:END OF SORROW-bn.png;
#BACKGROUND:END OF SORROW-bg.png;
#LYRICSPATH:END OF SORROW.lrc;
#CDTITLE:!cdtitle.png;
#MUSIC:END OF SORROW.mp3;
#OFFSET:-0.040;
#SAMPLESTART:98.560;
#SAMPLELENGTH:14.000;
#SELECTABLE:YES;
#LISTSORT:;
#BPMS:0.000=95.000;
#STOPS:149.500=0.315
,150.000=0.315
;
#TICKCOUNT:0.000=2;
#BGCHANGES:;
#KEYSOUNDS:;
#ATTACKS:;

//---------------dance-single - ----------------
#NOTES:
     dance-single:
     :
     Hard:
     6:
     0.333,0.470,0.085,0.116,0.066:
0000
0000
0000
0000
,
0000
0000
0000
0000
,
1000
0000
0000
0000
0001
1000
0000
0000
0000
0000
0010
0000
0100
0000
0000
0000
,
2002
0000
0000
3003
,
0010
0000
0100
1000
0100
0000
0010
0001
,
0100
0010
0100
0001
1000
0000
1001
0000
,
0010
0000
0100
0001
0100
0000
0010
1000
,
0100
0010
0100
1000
0001
0000
1001
0000
,
0100
0000
0010
1000
0010
0000
0100
0001
,
0010
0100
0010
0001
1000
0000
1001
0000
,
0100
0000
0010
0001
0010
0000
0100
1000
,
0010
0100
0010
1000
0001
0000
1001
0000
,
0100
0000
0020
0000
0000
1030
0000
1000
0001
0010
0002
0000
0000
1003
0000
0001
,
1000
0001
0200
0000
0000
0301
0000
0001
1000
0100
2000
0000
0000
3010
0000
0010
,
0100
0000
0100
0000
0000
0001
0000
1000
0000
0000
0000
0000
0000
0000
0000
0000
,
0001
0010
0100
1000
0010
0100
0001
1000
,
0100
0010
0100
1000
0010
0100
0001
0000
,
1000
0100
0010
0001
0100
0010
1000
0001
,
0010
0100
0010
0001
0100
0010
1000
0000
,
0001
1000
0100
0010
,
0001
0000
1000
0010
1000
0001
0010
0100
,
0010
0000
0001
1000
0100
0000
1000
0010
,
0001
0010
0100
0001
0010
0000
2000
0000
,
3001
0000
0000
0000
,
0010
0000
0000
0000
,
0100
0001
0010
0000
0100
0001
0010
0000
,
0100
0001
1000
0000
0100
0001
1000
0000
,
0100
1100
0000
0010
,
0100
0101
0000
1000
,
0100
1000
0010
0000
0100
1000
0010
0000
,
0100
0000
1000
0000
0001
0000
0000
0000
0100
0000
1000
0000
0001
0000
0000
0100
,
0000
0100
0000
0000
0010
0000
1000
0000
,
0001
0000
0000
0000
0010
0000
0000
0000
0100
0000
0000
0000
1000
0000
0000
0001
,
0000
0100
0000
0000
0010
0000
1000
0000
,
0001
0000
0010
0000
0100
0000
0000
0000
0001
0000
0100
0000
1000
0000
0000
0100
,
0000
0010
1000
0000
0100
1000
0001
0000
,
0010
0001
0100
0000
0010
1000
0001
0000
,
0010
0010
0010
0010
0100
0100
0200
0000
,
0000
0000
0020
0000
0000
0000
0330
0001
,
1000
0001
0100
0001
0010
0100
1000
0010
,
1000
0100
1000
0000
0101
0000
0010
1000
,
0001
1000
0010
1000
0100
0010
0001
0100
,
0001
0010
0001
0000
1010
0000
0100
1000
,
0001
1000
0100
1000
0010
0100
0001
0010
,
0001
0100
0001
0000
1100
0000
0010
0001
,
1000
0001
0010
0001
0100
0010
1000
0100
,
1000
0010
1000
0000
0011
0000
0200
0000
,
1000
0000
0310
1000
0100
0010
0002
0000
,
0100
0000
0013
0100
0010
0001
0200
0000
,
0320
0000
1030
0100
0010
0002
2000
0000
,
0003
0000
3000
0000
;

//---------------dance-single - ----------------
#NOTES:
     dance-single:
     :
     Challenge:
     8:
     0.588,0.549,0.318,0.846,0.372:
0000
0000
0000
0000
,
0000
0000
0000
0000
,
1001
0000
0000
0000
0100
0001
0000
0000
0000
0000
1000
0000
0100
1000
0000
0000
,
0220
0000
0000
0330
,
0001
0100
1000
0100
0010
1000
0100
0010
,
0002
0100
2003
0100
3001
0000
0101
0000
,
1010
0100
1000
0010
0100
0001
0010
0100
,
2000
0001
3010
0100
0002
1000
0013
0000
,
1000
0010
0001
0010
0100
0001
0010
0100
,
2000
0010
3002
0010
1003
0000
1010
0000
,
0101
0010
0001
0100
0010
1000
0100
0010
,
0002
0010
0103
0010
2000
0010
0100
0000
,
3001
0100
0001
0000
0000
0011
0000
0100
1000
0100
1000
0000
0000
1010
0000
0100
,
0001
0100
0001
0000
0000
0110
0000
0001
1000
0001
1000
0000
0000
0011
0000
1000
,
0100
0010
0001
0000
0000
0101
0000
0001
2000
0000
0000
0000
3001
0010
0001
0000
,
1000
0100
1000
0001
1000
0100
1000
0010
0100
0001
0100
0010
0100
1000
0100
0010
,
1000
0100
1000
0000
1000
0001
0000
0001
0100
0100
0010
0000
1001
0000
1000
0001
,
1000
0000
0001
0100
0000
0010
0000
1000
0000
0100
0010
0000
0100
0100
1000
0010
,
0100
0000
0001
1000
0000
0001
0000
0010
0000
0001
0100
0000
0110
0000
1001
0000
,
0100
0010
0100
0010
0000
1000
0000
0001
0000
0001
0100
0000
0010
1000
0100
1000
,
0100
0100
1000
0100
0000
0100
0000
1000
0000
0010
0100
0000
0001
0010
1000
0000
,
0010
0010
0001
0100
0000
0001
0000
0100
0100
0001
1000
0010
0000
0100
0000
0010
,
0010
1000
0001
0100
0000
0100
0000
0001
1000
1000
0100
0010
0001
0100
0010
1000
,
0002
0023
0230
0300
0002
0023
0230
0300
,
0002
0023
0230
0300
0002
0023
0230
0300
,
2000
3020
0032
0003
2000
3020
0032
0003
,
2000
3020
0032
0003
2000
3020
0032
0003
,
2000
3200
0320
0030
2000
3200
0320
0030
,
2000
3200
0320
0030
2000
3200
0320
0030
,
0002
0203
2300
3000
0002
0203
2300
3000
,
0002
0000
0203
0000
2300
0000
3000
0000
0002
0000
0203
0000
2300
0000
3000
1100
,
0000
0101
2000
3000
0002
0023
2030
3000
,
0002
0000
0023
0000
2030
0000
3000
0000
0002
0000
0023
0000
2030
0000
3000
1010
,
0000
0011
0200
0300
0020
2030
3200
0300
,
0020
0000
2030
0000
3200
0000
0300
0000
0020
0000
2030
0000
3200
0000
0300
1100
,
0000
1010
0002
0003
0200
0320
0032
0003
,
2000
3200
0302
0003
0200
0320
0032
0003
,
0010
1000
0001
0110
1001
0101
1100
0000
,
1000
0000
0100
0000
1000
0000
0010
0000
0100
0000
0001
0000
0010
0000
0000
0000
0000
0000
0101
0000
0000
0010
0000
0000
,
1100
0010
0001
0100
1000
0100
0002
0023
,
0230
0000
2300
0020
3000
0030
0000
0000
1100
0000
0000
0000
0011
0000
0100
0000
,
1010
0100
0001
1000
0010
0100
0002
0003
,
2000
0000
3002
0020
0003
0030
0000
0000
1100
0000
0000
0000
1010
0000
0100
0000
,
0011
0100
1000
0010
0001
0010
2000
3200
,
0320
0000
0032
0200
0003
0300
0000
0000
0011
0000
0000
0000
1100
0000
0010
0000
,
0101
0010
1000
0001
0100
0010
2000
3000
,
0002
0000
2003
0200
3000
0300
0000
0000
0110
0000
1000
0000
0001
0100
0001
0000
,
0000
0011
0000
0100
1000
0001
1000
0000
0001
0010
0001
0000
0100
0010
1000
0001
,
0000
1100
0000
0001
0001
0100
0001
1000
0100
0010
0001
0100
0010
1000
0010
0000
,
0100
0001
0100
0000
1001
0000
0010
0000
1100
0000
0010
0000
0202
0000
0000
0000
,
0003
0000
0300
0000
;

//---------------dance-single - ----------------
#NOTES:
     dance-single:
     :
     Medium:
     4:
     0.226,0.290,0.078,0.178,0.031:
0000
0000
0000
0000
,
0000
0000
0000
0000
,
1000
0001
0000
0100
,
1001
0000
0000
0000
,
0010
1000
0100
0010
,
0002
0000
1003
0000
,
0100
0001
0010
0100
,
2000
0000
3001
0000
,
0010
1000
0100
0001
,
0020
0000
0130
0000
,
0100
0001
0010
1000
,
0200
0000
0310
0000
,
2000
0100
0000
0000
0001
0001
0000
0000
,
0100
0000
0100
0000
0000
0000
0000
0000
0010
0000
0010
0000
0000
3000
0000
0000
,
0002
0000
0010
0000
0000
1000
0000
1003
0000
0000
0000
0000
0000
0000
0000
0000
,
0010
1000
0001
0010
,
0001
0000
0001
0000
0000
0001
0000
0000
1000
0000
1000
0000
0000
1000
0000
0000
,
0100
0010
0000
0010
0010
0001
0000
0001
,
0001
0100
0000
0100
0100
0010
0000
0010
,
2000
0000
0000
0100
3002
0000
0000
0100
,
2003
0000
0000
0010
3002
0000
0000
0010
,
1003
0000
1000
0000
0000
1000
0000
0000
0001
0000
0001
0000
0000
0001
0000
0000
,
0100
0000
0100
0000
0000
0100
0000
0000
0010
0000
0010
0000
0000
0010
0000
0000
,
2002
0000
0000
0000
,
0000
0000
0000
3003
,
0200
0000
0000
0000
,
0000
0000
0000
0300
,
0001
0101
0000
0000
,
1000
1100
0000
0000
,
0020
0000
0000
0000
,
0000
0000
0000
0030
,
0001
1000
0000
0000
,
1000
0001
0000
0000
,
0010
0100
0010
0000
,
1000
0000
0001
0000
,
1000
1000
1000
0000
0000
0000
0000
0000
,
0001
0001
0001
0000
0000
0000
0000
0000
,
0100
0100
0100
0200
0300
0010
0020
0000
,
2030
0002
3003
0001
,
0010
0000
0100
0000
1000
0000
0010
0001
,
0010
0100
0010
0000
1100
0000
0101
0000
,
0010
0100
1000
0010
,
0100
0001
0100
0000
0011
0000
1000
0000
,
0001
0000
0010
0000
0100
0000
1000
0001
,
0100
0001
0010
0000
1100
0000
1010
0000
,
0100
0001
1000
0100
0010
0001
1000
0000
,
0001
1000
0001
0000
0100
0000
0120
0000
,
0001
0000
1030
0100
0010
0001
2000
0000
,
0001
0000
3010
0100
0001
0000
2000
0000
,
3002
0000
0203
0010
0010
0010
0310
0000
;

//---------------dance-single - ----------------
#NOTES:
     dance-single:
     :
     Beginner:
     1:
     0.105,0.154,0.078,0.000,0.000:
0000
0000
0000
0000
,
0000
0000
0000
0000
,
0010
0000
0000
0000
,
0100
0000
0000
0000
,
1000
0000
0001
0000
,
1000
1000
1000
0000
,
0001
0000
1000
0000
,
0001
0001
0001
0000
,
0100
0000
0010
0000
,
0100
0100
0100
0000
,
0010
0000
0100
0000
,
0010
0010
0010
0000
,
1001
0000
0100
0000
,
1001
0000
0010
0000
,
1001
0000
0110
0000
,
1000
0000
0000
0000
,
0100
0000
0000
0000
,
0010
0000
0000
0000
,
0001
0000
0100
0000
,
0010
0000
0000
0000
,
1000
0000
0000
0000
,
0001
0000
0010
0000
,
0100
0000
1000
0000
,
1001
0000
0000
0000
,
0000
0000
0000
0000
,
0110
0000
0000
0000
,
0000
0000
0000
0000
,
0001
0001
0000
0000
,
0000
0000
0000
0000
,
1000
1000
0000
0000
,
0000
0000
0000
0000
,
0110
0110
0000
0000
,
0000
0000
0000
0000
,
1001
1001
0000
0000
,
0000
0000
0000
0000
,
1000
1000
0000
0000
,
0001
0001
0000
0000
,
0100
0100
0000
0000
,
0010
0010
0010
0000
,
0001
0000
1000
0000
,
0100
0100
0000
0010
,
0000
0001
0000
1000
,
0000
0010
0010
0000
,
0100
0000
0001
0000
,
1000
1000
0000
0100
,
0000
0010
0000
0100
,
0000
1000
1000
1000
,
0000
0010
0000
0100
,
0000
0001
0001
0001
,
0000
0010
0010
0010
;

//---------------dance-single - ----------------
#NOTES:
     dance-single:
     :
     Easy:
     2:
     0.178,0.251,0.070,0.062,0.000:
0000
0000
0000
0000
,
0000
0000
0000
0000
,
1001
0000
0000
0000
,
0200
0000
0000
0300
,
0010
0000
1000
0000
,
0001
0010
0100
0000
,
1000
0000
0001
0000
,
0100
0010
1000
0000
,
0001
0000
0010
0000
,
0100
1000
0001
0000
,
0100
0000
0010
0000
,
1000
0001
1000
0010
,
0100
0000
1001
0000
,
0010
0000
1001
0000
,
0100
0010
1001
0110
,
1000
0001
1000
0000
0010
0100
0010
0000
,
1000
0001
0020
0130
,
1000
0001
0000
0100
0001
0000
1000
0010
,
1000
0000
0001
0000
0010
0000
0001
0100
,
0001
1000
0000
0001
0010
0000
0100
1000
,
0100
1000
0000
0001
1000
0001
0000
0100
,
0010
0000
1000
0001
1000
0000
0001
1000
,
0001
0000
0010
0100
0010
0000
1001
0000
,
0100
0000
0000
0000
,
0000
0000
0000
0000
,
0010
0000
0000
0000
,
0000
0000
0000
0000
,
1000
0000
0000
0000
,
0001
0000
0000
0000
,
0100
0000
0000
0000
,
0010
0000
0000
0000
,
1000
0000
0000
0000
,
0001
0000
0000
0000
,
0010
0000
0000
0000
,
0100
0000
0000
0000
,
1001
0000
0010
0000
,
1001
0000
0100
0000
,
0001
1000
0001
1000
,
0020
0230
0310
1000
,
0001
1000
0100
0001
,
0010
1000
0000
0001
,
1000
0001
0100
1000
,
0010
0001
0000
0100
,
0100
0000
0010
0000
1000
0000
0001
0010
,
0001
1000
0001
0000
1000
0000
0100
0000
,
0100
0000
0010
0000
0001
0000
1000
0010
,
1000
0001
1000
0000
0001
0000
0200
0000
,
1000
0010
0301
0010
,
0010
1001
0010
2000
,
3002
0000
0203
0000
0010
0010
0310
0000
;

//---------------dance-double - ----------------
#NOTES:
     dance-double:
     :
     Challenge:
     7:
     0.465,0.509,0.155,0.217,0.334: // measure 1
00000000
00000000
00000000
00000000
,  // measure 2
00000000
00000000
00000000
00000000
,  // measure 3
00000000
00000000
00000000
00000000
,  // measure 4
00020000
00000000
00000000
00030000
,  // measure 5
00001000
01000000
00010000
01000000
00001000
00010000
00000100
00010000
,  // measure 6
00001000
01000000
00010000
01000000
00001000
00010000
00000100
00000000
,  // measure 7
00000010
00000001
00001000
00000001
00000010
00001000
00010000
00001000
,  // measure 8
00000010
00000001
00001000
00000001
00000010
00001000
00010000
00000000
,  // measure 9
01000000
00100000
00001000
00100000
01000000
10000000
00100000
10000000
,  // measure 10
01000000
00100000
00001000
00100000
01000000
10000000
00100000
00000000
,  // measure 11
00001000
00010000
00100000
00010000
00001000
00000100
00000010
00000100
,  // measure 12
00001000
00010000
00100000
00010000
00001000
00000100
00000010
00000000
,  // measure 13
00000001
00001000
00000001
00000000
00000000
00000000
00000010
00000000
00001000
00000001
00001000
00000000
00000000
00000000
00000100
00000000
,  // measure 14
00001000
00010000
00001000
00000000
00000000
00000000
00100000
00000000
00010000
00001000
00010000
00000000
00000000
00000000
01000000
00000000
,  // measure 15
10000000
00010000
10000000
00000000
00000000
00100000
00000000
00010000
10000000
00000000
00000000
00000000
01000000
00100000
00010000
00000000
,  // measure 16
01000000
00000000
00001000
00000000
00010000
00000000
00000100
00000010
00000000
00000010
00000001
00000000
00000010
00000000
00000100
00000000
,  // measure 17
00010000
00000100
00010000
00000000
00000010
00001000
00000000
00001000
00000001
00000000
00000010
00000000
00001000
00000000
00010000
00001000
,  // measure 18
01000000
00000000
00100000
10000000
00000000
10000000
01000000
00000000
10000000
01000000
10000000
00010000
00000000
00010000
00000000
01000000
,  // measure 19
00001000
00000000
00001000
00010000
00000000
00010000
00000000
00000100
00000000
00000100
00000000
00000010
00000001
00000000
00000001
00001000
,  // measure 20
00000001
00000000
00000100
00001000
00000000
00001000
00010000
00001000
00000000
00001000
00010000
00000000
00000100
00010000
00000100
00010000
,  // measure 21
00001000
00000000
00001000
00100000
00000000
00100000
00000000
01000000
00000000
10000000
00010000
10000000
00000000
00100000
10000000
01000000
,  // measure 22
10000000
01000000
00100000
00010000
00000000
00001000
00000000
01000000
00010000
01000000
00010000
01000000
00000000
00100000
00000000
00010000
,  // measure 23
00100000
10000000
00100000
00010000
00000000
01000000
00000000
00001000
00010000
00000100
00000010
00000001
00000000
00000100
00000000
00000001
,  // measure 24
00000020
00000030
00000200
00000300
,  // measure 25
00002000
00000000
00000000
00000000
00003000
00000000
00000000
00000000
00020000
00000000
00000000
00000000
00030000
00000000
00000000
00100000
,  // measure 26
02000000
03000000
20000000
30000000
,  // measure 27
00200000
00300000
00020000
00030000
,  // measure 28
00000200
00001000
00000310
00000000
00000002
00000100
00001003
00000000
,  // measure 29
00020000
00000100
00031000
00000000
00000020
00001000
00010030
00000000
,  // measure 30
00200000
01000000
00310000
00000000
00002000
00100000
01003000
00000000
,  // measure 31
20000000
00000000
00100000
00000000
30010000
00000000
00000000
00000000
00200000
00000000
10000000
00000000
00310000
00000000
00000000
00001000
,  // measure 32
00010000
00000000
00001000
00010000
00001000
00000000
00000000
00000010
00000200
00000000
00001000
00000000
00000310
00000000
00000000
00001000
,  // measure 33
00000020
00000000
00000001
00000000
00000130
00000000
00000000
00010000
00002000
00000000
00000010
00000000
00013000
00000000
00000000
00001000
,  // measure 34
02000000
00000000
00100000
00000000
13000000
00000000
00000000
10000000
00020000
00000000
00100000
00000000
01030000
00000000
00000000
00100000
,  // measure 35
00002000
00000000
00000100
00000000
00013000
00000000
00000000
00100000
02000000
00000000
10000000
00000000
03100000
00000000
00000000
00001000
,  // measure 36
00010000
00000000
00001000
00010000
00001000
00000000
00000000
01000000
00001000
00000000
00010000
00001000
00010000
00000000
00000000
00000010
,  // measure 37
00010000
00000000
00001000
00010000
00001000
00000000
00000000
00100000
00001000
00000000
00010000
00001000
00010000
00000000
00000100
00000000
,  // measure 38
00000010
00000001
00000100
00001000
00010000
00001000
00010000
00000000
,  // measure 39
00100000
00000000
00000000
00100000
00000000
00000000
00100000
00000000
01000000
00000000
00000000
01000000
00000000
00000000
01000000
00000000
10010000
00000000
00000000
00000000
00000000
00000000
00000000
00000000
10000000
00000000
00000000
00000000
01000000
00000000
00000000
00000000
,  // measure 40
00010000
00001000
00000100
00000001
00000100
00001000
00010000
00100000
,  // measure 41
01000000
00000000
00100000
00010000
00100000
00000000
00000100
00000000
00002000
00000000
00000000
00000000
00003010
00000000
00000001
00000000
,  // measure 42
00000010
00001000
00010000
00100000
10000000
00100000
00010000
00001000
,  // measure 43
00000100
00000000
00010000
00100000
00010000
00000000
00001000
00000000
00020000
00000000
00000000
00000000
00031000
00000000
01000000
00000000
,  // measure 44
01010000
01100000
10000000
01000000
01100000
00101000
00010000
00000010
,  // measure 45
00001010
00001001
00000011
00000100
00001001
00000100
00000010
00001000
,  // measure 46
00000011
00000101
00000100
00001000
00011000
00110000
00100000
10000000
,  // measure 47
10010000
00000000
01010000
00000000
00011000
00000000
01000000
00000000
00110000
00000000
00001000
00000000
01000000
00010000
01000000
00000000
,  // measure 48
00100000
00000000
10000000
00000000
00010000
10000000
00010000
00000000
00100000
00001000
00100000
00000000
00000100
00000000
00010000
00000010
,  // measure 49
00010000
00000000
00001000
00000000
00000001
00000010
00000001
00000000
00000100
00000000
00001000
00000000
00000100
00000010
00000100
00000000
,  // measure 50
00000010
00010000
00000010
00000000
00011000
00000000
00100000
00000000
00011000
00000000
00000100
00000000
00022000
00000000
00000000
00000000
,  // measure 51
00003000
00000000
00030000
00000000
;
