#TITLE:DARKER THAN BLACK;
#SUBTITLE:Extended;
#ARTIST:石井 妥師;
#TITLETRANSLIT:;
#SUBTITLETRANSLIT:;
#ARTISTTRANSLIT:Yasushi Ishii;
#GENRE:;
#CREDIT:AznPunk07/Frozen_Heat;
#MENUCOLOR:#555555;
#METERTYPE:DDR;
#BANNER:DARKER THAN BLACK-bn.png;
#BACKGROUND:DARKER THAN BLACK-bg.png;
#LYRICSPATH:DARKER THAN BLACK.lrc;
#CDTITLE:!cdtitle.png;
#MUSIC:DARKER THAN BLACK.mp3;
#OFFSET:-0.618;
#SAMPLESTART:29.720;
#SAMPLELENGTH:20.000;
#SELECTABLE:YES;
#LISTSORT:;
#BPMS:0.000=66.000,14.000=132.000,210.000=66.000,225.500=132.000,226.000=264.000,227.000=132.000;
#STOPS:;
#BGCHANGES:;
#ATTACKS:;

//---------------dance-single - ----------------
#NOTES:
     dance-single:
     :
     Hard:
     7:
     0.417,0.494,0.303,0.155,0.037: // measure 1
0000
0000
0000
0000
,  // measure 2
0000
0000
0000
0000
,  // measure 3
2000
3000
0002
0003
,  // measure 4
1000
0100
0010
0001
1000
0000
1010
0000
,  // measure 5
0001
0010
0100
1000
0001
0000
0101
0000
,  // measure 6
1010
0000
1000
0100
0010
0100
1000
0000
,  // measure 7
0001
1000
0010
1000
0001
0000
1000
0000
,  // measure 8
0001
0000
0000
0010
0000
0000
0100
0000
0000
0000
1000
0000
0010
0000
0000
0000
,  // measure 9
0100
0001
0010
0000
1000
0000
0001
0010
,  // measure 10
0100
1001
0010
1000
,  // measure 11
0010
0001
0100
1000
0200
0000
0010
0320
,  // measure 12
0000
0100
0200
0000
0000
0000
0000
0000
,  // measure 13
0330
0000
0002
1000
,  // measure 14
0000
1000
1003
0000
0010
0000
0100
0000
,  // measure 15
1010
0011
1001
0100
,  // measure 16
0000
0010
0010
0000
1000
0000
0001
0000
,  // measure 17
0000
1000
1000
0000
0001
0000
0010
0001
,  // measure 18
0000
0001
0100
0000
0110
0000
0010
1000
,  // measure 19
0000
1000
0100
0000
1000
0010
1000
0001
,  // measure 20
0000
0001
0100
0001
0020
0000
0000
1000
,  // measure 21
0000
0000
0030
0100
1000
0000
0001
0000
,  // measure 22
0000
0001
0001
0100
0000
0010
1000
0100
,  // measure 23
0000
1100
0000
1001
0000
0010
0100
0000
,  // measure 24
1000
1000
0100
0000
0001
1000
0001
0000
,  // measure 25
1000
1000
0001
0100
0010
0000
1000
0100
,  // measure 26
0000
0100
1000
0000
0001
0000
0100
0001
,  // measure 27
0000
0001
0010
0100
1000
0000
0000
0000
,  // measure 28
0001
0000
1000
0000
0110
0000
0000
1010
,  // measure 29
0000
0011
0000
1001
0000
0010
0100
0000
,  // measure 30
0000
1000
1000
0100
0000
0000
0000
0000
,  // measure 31
0000
0001
0001
0100
0000
0000
0010
0010
,  // measure 32
0100
0010
0100
1010
0000
0011
0000
0110
,  // measure 33
0000
1001
0010
0000
0110
0000
1000
0100
,  // measure 34
1000
0000
0001
0100
0001
0000
0010
0100
,  // measure 35
0010
0000
1000
0100
1000
0000
1100
0000
,  // measure 36
0100
0110
0010
0011
,  // measure 37
0001
1000
1001
0000
0001
0000
0011
0000
,  // measure 38
0101
0000
1000
0100
0010
0100
1000
0000
,  // measure 39
0001
0100
1000
0100
0010
0000
1000
0000
,  // measure 40
1000
0100
0010
0001
1000
0001
0100
0000
,  // measure 41
0001
0010
0100
1000
0001
0000
0010
0001
,  // measure 42
0100
0000
1010
0000
0011
0000
0100
1000
,  // measure 43
0001
0000
0010
0010
0100
0000
1010
0000
,  // measure 44
0100
0011
1000
0001
,  // measure 45
1000
0000
0001
0000
1000
0001
1000
0000
0001
0000
0000
0000
1100
0000
0000
0000
,  // measure 46
1010
0000
0001
0010
0000
0001
0100
0010
,  // measure 47
1000
0100
0000
0100
1000
0000
0001
0000
,  // measure 48
1000
0000
0000
0010
0000
0000
0100
0000
0000
0000
0001
0000
0010
0000
0000
0000
,  // measure 49
0100
0001
1000
0100
0010
0000
0010
0001
,  // measure 50
0100
0000
0000
0000
1010
0000
0000
0000
0001
0000
0000
0010
0000
0000
0100
0000
,  // measure 51
0000
0001
1000
0001
0020
0000
0100
0200
,  // measure 52
0030
0010
0020
0000
0330
0000
0001
0000
,  // measure 53
1000
0000
0010
0000
0001
0000
0010
0000
2000
0000
0100
0000
3001
0000
0000
1000
,  // measure 54
0002
0100
1003
0000
0020
0100
0230
0010
,  // measure 55
0320
0000
0000
0000
0000
0000
0030
0000
2000
0000
0010
0000
3001
0000
0000
1000
,  // measure 56
0002
0000
0010
0000
1003
0000
0000
0010
0100
0000
0010
0100
0010
0000
0110
0000
,  // measure 57
1000
0001
2002
3003
0000
0000
1010
0000
,  // measure 58
0101
0000
1010
0000
0001
0010
0000
0001
,  // measure 59
0100
1000
0100
0010
0000
1000
0100
0000
,  // measure 60
0010
0000
0001
0010
0100
1000
0002
0000
,  // measure 61
0103
0000
1000
0100
1000
0010
1000
0000
,  // measure 62
0100
1000
0001
0000
0101
0000
1010
0000
,  // measure 63
0100
0001
1000
0000
0100
0100
0010
0000
,  // measure 64
0011
0100
1100
0001
,  // measure 65
1000
0000
0000
0000
0010
0000
0010
0000
1000
0001
1000
0000
0011
0000
0000
0000
,  // measure 66
1100
0000
0011
0000
1000
0100
0000
1000
,  // measure 67
0010
0001
0010
0100
0000
0001
0010
0000
,  // measure 68
0100
0000
0000
0000
1000
0000
0000
0100
0000
0000
0010
0000
0000
0000
0001
0000
,  // measure 69
1000
0000
0001
0010
0001
0100
0001
0000
,  // measure 70
0010
0000
0001
0000
1000
0000
0000
0000
1010
0000
0000
0000
0001
0000
0000
0100
,  // measure 71
0000
0010
0000
1000
0001
1000
0200
0000
,  // measure 72
0010
0320
0000
0100
0200
0000
0000
0000
,  // measure 73
0000
0000
0300
0000
,  // measure 74
0000
0000
0000
0030
0000
0000
0000
0000
;

//---------------dance-single - ----------------
#NOTES:
     dance-single:
     :
     Challenge:
     9:
     0.635,0.617,0.599,0.061,0.374:
1000
0000
0000
1000
0000
0000
0000
0000
0001
0000
0000
0001
0000
0000
0000
0000
,
1000
0000
0100
1000
0000
0000
0000
0000
0001
0000
0010
0001
0000
0000
0000
0000
,
1000
0000
1000
0010
0000
0000
0001
1000
0001
0000
0001
0010
0000
0000
1000
0001
,
1000
0000
1100
0000
0001
0000
0101
0000
1000
0000
0000
0000
0001
0000
1000
0001
,
1000
0000
0010
0000
0001
1000
0001
0000
1000
0000
0000
1000
0100
0000
0000
0100
,
0010
0000
0001
0000
0100
0010
0100
0000
0010
0000
1000
0000
0100
0000
0000
0000
,
0001
0010
0100
1000
0001
0100
1000
0100
,
0001
0000
0000
1001
0000
0000
1100
0000
0000
0000
0010
0000
1001
0000
0100
0000
,
0010
0100
0010
0000
1000
0000
0001
0000
1000
0000
0000
1000
0100
0000
0010
0000
,
0001
1000
0001
0000
0100
0000
0001
0000
1001
0000
0000
0001
0100
0000
0010
0000
,
1000
0001
1000
0000
0010
0000
0100
0000
1001
0000
0100
0000
0010
0000
1001
0000
,
0010
0100
1001
0000
0000
0010
0010
0010
,
0010
0100
0010
0100
0010
0100
0010
0100
0001
0000
0000
0000
0101
0000
1000
0100
,
1000
0001
1000
0000
1010
0000
0100
0000
1001
0000
0000
0000
0010
0000
0001
0100
,
0001
1000
0001
0000
0101
0000
0010
0000
1100
0000
0000
0000
0100
0000
1010
0000
,
0000
0100
0011
1000
1001
0010
0110
0001
,
0010
0000
0100
0000
1000
0000
1000
0000
0001
0000
0001
0000
1000
0000
0001
0100
,
0010
1000
0100
0000
0010
0000
0100
0000
1000
0000
1000
0000
0001
0000
1000
0010
,
0100
0001
0010
0000
0100
0000
1000
0000
1001
0000
0010
0000
1001
0000
0100
0000
,
0001
0001
1000
1000
0020
0000
0000
1000
,
0000
0000
0001
0000
0030
0000
0100
0000
0100
0000
0000
0000
0001
0000
1000
0100
,
1000
0010
1000
0000
0001
0000
0010
0000
0100
0000
0000
0000
1000
0000
0010
0000
,
0000
0000
1010
0000
0000
0000
0011
0000
0000
0000
0001
0000
1000
0000
0001
0010
,
0001
0100
0001
0000
1000
0000
0010
0000
1000
0000
0000
0000
0001
0000
0001
0000
,
1000
0000
1000
0000
0010
0000
1001
0000
0200
0000
0000
0000
0010
0000
0301
0010
,
0100
1000
0001
0000
0010
0000
1001
0000
0020
0000
0000
0000
0100
0000
1030
0100
,
0010
0001
1000
0000
0100
0000
0010
0000
1001
0000
0010
0000
0100
0000
0010
0000
,
1001
0100
1010
0000
0011
0000
0000
1100
,
0000
0101
0000
1001
0000
0010
1001
0000
,
0010
0101
0010
0101
0000
0010
0100
0000
,
0010
1100
0010
1100
0000
0010
1001
0010
,
1001
1001
0100
0010
0000
1010
0000
0011
,
0000
0110
1001
0010
0100
0000
1000
0100
,
0000
0010
0100
1000
0001
0000
0001
0100
,
0000
0000
0010
0000
0100
0000
0000
0000
0001
0000
0000
0001
0010
0000
0000
0010
,
0100
0000
0000
0100
1000
0000
0000
1000
0010
0000
0100
0000
0001
0000
0010
0000
,
0100
0000
1000
0000
0001
1000
0001
1000
0001
0000
0000
0010
0001
0000
0000
0100
,
0001
0000
0000
1000
0001
0000
0010
0000
1000
0000
0000
0100
1000
0000
0000
0010
,
1000
0000
0000
0001
1000
0000
0100
0000
0001
0000
0010
0000
0100
0000
1000
0010
,
1000
0001
1000
0000
0110
0000
1000
0000
0110
0000
0001
0000
1000
0000
0001
0100
,
0001
1000
0001
0000
0110
0000
0010
0000
1001
0000
0000
0100
1000
0000
0100
1000
,
0001
0100
0001
0000
1000
0000
0100
0000
1000
0000
0000
0010
1000
0000
0001
0010
,
0001
1000
0010
0000
1000
0000
0001
0000
1010
0000
0000
0000
1010
0000
0000
0000
,
0011
0000
0011
0000
0100
0010
1000
0100
,
1000
0000
0001
0000
0010
0001
1000
0000
0001
0000
0000
0001
0010
0000
0000
0010
,
0100
0000
0000
0100
1000
0000
0010
0000
0100
0000
0001
0000
0010
0000
0001
1000
,
0010
1000
0100
0000
1010
0000
0100
0000
0011
0000
1000
0000
1000
0000
0001
0000
,
0001
0000
0000
1001
0000
0000
0010
0000
1001
0000
0100
0000
0010
0000
1000
0001
,
0100
0001
0010
0000
0100
0000
1001
0000
0100
0000
0100
0000
0100
0000
0010
0000
,
0010
0000
0010
0000
1001
0000
0000
0000
0011
0000
0000
1010
0000
0000
0110
0000
,
0000
1000
0001
1000
0110
0001
1000
0110
,
1000
0001
0220
0000
0330
0001
1000
0001
,
1000
0100
0010
0001
1000
0100
0010
0001
0200
0000
0010
0000
1300
0000
0001
0010
,
0010
0000
0000
0000
0100
0000
0000
0000
1010
0000
0000
0000
0000
0000
0000
0000
0020
0000
0000
0000
0100
0000
0000
0000
0031
0000
0000
1000
0000
0000
0100
0000
,
0100
0000
0000
0000
0000
0000
0000
0000
0010
0000
0001
0000
1000
0000
0010
0100
,
0000
0100
0010
1000
0001
0001
0000
0010
0000
0010
0100
1000
1010
0000
0011
0000
,
1001
0000
0000
0100
0000
0000
0010
0000
0001
0000
0100
0000
0001
0000
1000
0000
0001
0000
0000
0000
0000
0000
0000
0000
1000
0000
0000
0000
0000
0000
1000
0000
,
0100
0000
0000
0100
0010
0000
0000
0010
0001
0000
0100
0000
0010
0000
1000
0000
,
1100
0010
0001
1000
0101
0000
0010
0010
,
0100
0000
0100
0000
0011
0000
0000
0110
0000
0000
1100
0000
0000
0000
0010
0000
,
1000
0000
0001
1000
0010
1000
0100
0000
0010
0000
1001
0000
0001
0000
0000
0001
,
0010
0000
0000
0001
0100
0000
0000
1000
0001
0000
1000
0000
1001
0000
0000
1000
,
0100
0000
0000
1000
0010
0000
0000
0001
1000
0000
0100
0000
0110
0000
0000
0000
,
0110
0000
1001
0000
1001
0000
0010
0010
,
0010
0000
0010
0000
1000
0000
0001
0000
0010
0100
0010
0100
0010
0000
0000
0010
,
0001
0000
0000
1000
0100
0000
1000
0000
0010
0000
0100
0000
0001
0000
0000
1000
,
0010
0000
0000
0100
0001
0000
0010
0000
0100
0000
1000
0000
0010
0000
0010
0000
,
1001
0000
0100
0000
1010
0000
0000
0110
0000
0000
0101
0000
0000
0000
0001
0000
,
1000
0000
0100
0010
0001
0010
0100
0000
1000
0000
0001
0000
0100
0000
0100
0000
,
0100
0000
0010
0000
0010
0000
0010
0000
1001
0000
0000
0000
0011
0000
0000
1010
,
0000
1001
0000
0100
0010
0100
1001
0010
,
0100
1001
0100
0010
2002
0000
0000
0000
,
0000
0000
0000
0000
,
0000
0000
0000
3003
0000
0000
0000
0000
;

//---------------dance-single - DTB----------------
#NOTES:
     dance-single:
     DTB:
     Edit:
     8:
     0.538,0.543,0.458,0.269,0.192:
2000
0000
0010
0000
3001
0000
0000
0002
0000
0000
0010
0000
1003
0000
0000
0000
,
2000
0000
0000
0000
0100
0000
0000
0000
3002
0000
0000
0100
0000
0000
1003
0000
0000
0000
0000
0000
0000
0000
0000
0000
0010
0000
0000
0000
0010
0000
0000
0000
,
0101
0000
0000
0010
0000
0010
0000
1100
0000
0000
0000
1001
0000
0000
0010
0100
,
0010
0000
0001
0000
1000
0000
0001
0000
0100
0000
0000
0000
0010
0000
1000
0001
,
1000
0000
0100
0000
0001
1000
0001
0000
0010
0000
0000
0010
0100
0000
0000
0100
,
1000
0000
0000
1000
0010
0000
0100
0000
0001
0000
0010
0000
0100
0000
0010
0000
,
0001
1000
0000
1001
0000
0001
0100
0001
,
1010
0000
0000
1001
0000
0000
0011
0000
0000
0000
0100
0000
0010
0000
0001
0000
,
1000
0100
1000
0000
0010
0000
0100
0000
0001
0000
0000
0000
0001
0000
0010
0000
,
0000
0000
0010
0000
0200
0000
0000
0000
1000
0000
0000
0001
0000
0000
1000
0000
,
0300
0010
0001
0100
1010
1010
0100
0011
,
0011
0000
0100
0000
1001
0000
0000
0000
0000
0000
0010
0000
0100
0000
0010
0100
,
0010
0100
0010
0100
0001
1000
0001
1000
0002
0000
0000
0000
0010
0000
0000
0000
,
1003
0010
0001
0010
0000
0010
1000
0100
,
0000
1100
0000
0011
0000
0001
0010
0100
,
0000
1000
0010
1000
0000
0010
0001
0010
,
0000
1010
0000
0101
0000
1000
0100
0010
,
0000
0100
1000
0002
0000
0000
0103
0010
,
0000
1010
0000
0011
1000
0000
0101
0000
,
1000
0100
0010
0001
2000
0000
0000
0010
,
0000
3001
0000
0001
0200
0000
0010
0000
,
0300
0001
0010
0100
0000
0010
0001
1000
,
0000
1010
0000
1100
0000
1000
0001
0000
,
0001
0100
0001
1000
0000
0001
1000
0010
,
1000
0100
0010
0100
2000
0000
0001
0000
,
3000
0010
0001
0020
0000
0000
1000
0000
,
0001
0000
0130
0010
0000
0000
1000
0000
,
0001
0000
0011
0000
1100
0000
0010
0001
,
0000
1010
0000
0101
0000
0010
0110
0000
,
1000
0101
1000
0011
0000
0001
1000
0000
,
0001
1010
0001
1100
0000
1000
0001
0010
,
0010
0100
1001
0100
0000
1010
0000
0011
,
0000
0110
0001
1000
0110
0000
0001
0100
,
0000
0000
1000
0100
0000
0000
1001
0000
,
0010
0200
0000
0000
2300
0000
0010
0000
,
0001
0010
3002
0010
,
1000
0000
0000
0000
0013
0000
0000
0000
0011
0000
0000
0001
0100
0000
0000
0001
,
0010
0100
1000
0010
1100
0000
1000
0010
,
1000
0001
0000
0101
0000
1000
0100
1000
,
0001
1000
0001
0000
1000
0000
0100
0000
0000
0000
0010
0000
0001
0000
0100
0000
,
0001
0001
1000
1000
0020
0000
0032
0000
,
0023
0000
1030
0100
2000
0000
3200
0000
,
0302
0000
0103
1000
0100
0000
1100
0000
,
0010
0000
0011
0000
0001
0100
1000
0100
,
0001
0000
0001
0000
0010
0100
0010
0100
0010
0000
0000
0010
0100
0000
0000
0100
,
1000
0000
0000
1000
0100
0000
0010
0000
0000
0000
0001
0000
1000
0000
0001
0000
,
0100
1000
0000
1010
0000
0010
1000
0001
,
1100
0000
0000
0110
0000
0000
0011
0000
0000
0000
0001
0000
0010
0000
0100
1000
,
0001
0010
0001
0000
0100
0000
0010
0000
1000
0000
0000
0000
1000
0000
0001
0000
,
0000
0000
0001
0000
0020
0000
0000
0000
0001
0000
0000
1000
0000
0000
0001
0000
,
0030
0100
1000
0010
0101
0101
0010
1100
,
1100
0010
2002
0000
3003
0010
0100
0010
,
1000
0001
1000
0000
0001
1000
0001
0000
0020
0000
0100
0000
1030
0000
0000
0000
,
0200
0000
0000
0000
0010
0000
0000
0000
0301
0000
0000
0000
0000
0000
0000
0000
2000
0000
0000
0000
0100
0000
0000
0000
3002
0000
0000
0100
0000
0000
2003
0000
,
0001
0000
0000
0000
0000
0000
3002
0000
0103
0000
0010
0000
1000
0000
1000
0100
,
0000
0100
1000
0001
1000
0010
0000
0001
0000
0001
0100
0001
0010
0000
0100
0000
,
1001
0000
0000
0010
0000
0000
0100
0000
0010
0000
0000
0000
2002
0000
0000
0000
3003
0000
0000
0000
0000
0000
0000
0000
1000
0000
0000
0000
0000
0000
0100
0000
,
1000
0000
0000
0001
1000
0000
0000
0000
1000
0000
0010
0000
0000
0000
0010
0000
,
0100
1000
0100
0001
0000
1001
0000
1000
,
0100
0000
0010
0000
0001
0000
0000
0101
0000
0000
1010
0000
0000
0000
1000
0000
,
0100
0000
0010
0000
0001
1000
0001
0000
0100
0000
0010
0000
2000
0000
0000
0000
,
3200
0000
2300
0000
3010
0100
0002
0000
,
0023
0000
2030
0000
3010
0001
0101
0000
,
0101
1100
1100
0010
,
0001
0000
1000
0000
0001
0000
0001
0000
1000
0000
1000
0000
0100
0000
0000
0100
,
0010
0000
0000
0010
0001
0000
0000
0001
0010
0000
0100
0000
0000
0000
1000
0000
,
0001
1000
0010
0001
0000
0101
0000
0100
,
0001
0000
1000
0000
0011
0000
0000
0110
0000
0000
1100
0000
0000
0000
1000
0000
,
0100
0000
0010
0001
1000
0100
1000
0000
0010
0000
0100
0000
0001
0000
0000
0000
,
0001
0000
1000
0000
0000
0000
1000
0000
0200
0000
0000
0000
1000
0000
0000
0001
,
0000
1000
0300
0010
0001
0100
1010
1010
,
0100
0011
0011
0100
2002
0000
0000
0000
,
0000
0000
0000
0000
,
0000
0000
0000
3003
0000
0000
0000
0000
;

//---------------dance-single - ----------------
#NOTES:
     dance-single:
     :
     Medium:
     6:
     0.322,0.370,0.101,0.357,0.007:
0000
0000
0000
0000
,
0000
0000
0000
0000
,
1000
0000
0001
0000
,
1000
0001
1000
0001
1000
0000
0000
0000
,
0001
0001
0001
0000
0010
0000
0100
0000
,
0000
0010
0100
0000
1000
0000
0001
0000
,
0000
1000
0001
0000
0100
0000
0010
0000
,
1010
0101
2002
3003
,
0001
0000
0010
0000
1000
0000
0000
0010
,
0000
0000
0001
0000
1000
0000
0000
0100
,
0000
0001
0100
0000
0110
0000
0000
1001
,
0000
0110
0000
0000
,
1000
0100
1000
0100
2000
0000
0000
0000
,
0010
0000
0001
0000
,
3100
0010
0001
1000
,
0000
0001
0100
0000
0010
0000
0010
0000
,
0000
1000
0100
0000
0010
0000
0100
0000
,
0000
0001
0001
0000
0100
0000
0010
0000
,
0000
1000
1000
0000
0002
0000
0010
0000
,
1000
0000
0100
0000
0013
0000
0000
0100
,
0000
1000
0000
0001
0200
0000
0010
0000
,
0000
0010
0310
0000
2000
0000
0000
0001
,
0000
0001
0000
3002
0000
0000
0010
0000
,
0000
0100
0100
0000
0203
0000
0010
0000
,
0001
0010
0301
0000
,
0000
0010
0200
0000
,
0000
1300
0002
0000
,
0003
0000
0010
0000
1100
0000
0000
0101
,
0000
0000
0000
1001
0000
0000
0010
0000
,
0000
1000
0000
1000
0000
0000
0000
0000
,
0000
0001
0000
0001
0000
0000
0000
0000
,
0000
0100
0000
0100
0000
0000
0000
0000
,
0010
0000
1000
0000
0010
0000
0000
0010
,
1000
0000
0000
1000
0001
0000
0000
0001
,
0010
0000
0100
0100
,
0100
0100
0010
0010
,
0001
1000
0001
1000
0002
0000
0100
0000
,
1000
0100
2003
0100
,
0001
3100
0020
0130
,
0200
0310
2002
3003
,
0010
0010
0010
0000
2000
0000
3002
0000
,
2003
3001
0200
0320
,
0230
0310
1000
1000
,
0001
0001
0010
0100
,
1000
0001
1000
0001
0020
0000
0001
0000
,
0100
0031
0200
1000
,
0010
1300
0002
0103
,
2000
3100
0220
0330
,
0010
0010
0010
0000
0001
0000
0000
1000
,
0000
0001
1000
0010
,
0100
0000
0001
0000
0010
0000
0000
1001
,
0000
0020
0000
0000
,
0100
0000
0100
0000
0100
0000
0100
0000
0230
0000
0000
0000
0300
0000
0000
0010
,
0020
0000
0000
0000
0030
0000
0000
0000
2000
0000
0000
0000
3000
0000
0000
0001
,
0002
0000
0003
0000
2000
0001
3001
0000
,
0002
1000
1003
0000
0200
0010
0310
0000
,
0020
0100
0130
0000
0000
0000
2000
0000
,
0100
0001
0100
3002
,
0100
1000
0100
2003
,
3010
0002
0013
2002
,
3003
0000
1000
0001
1000
0001
0020
0000
,
0100
1000
0130
0020
,
0001
0000
0100
0000
0031
0000
1000
0010
,
1000
0000
0001
0010
0001
0000
1000
0100
,
0010
0001
1000
0100
0010
0001
2000
0000
,
0010
0001
3100
0002
,
0010
1000
0103
0020
,
0130
0200
0310
2002
,
3003
0000
0001
1000
0001
1000
0010
0000
,
0000
0100
0000
0000
0010
0000
1000
0000
,
0001
0000
1000
0001
1000
0000
0100
0000
,
0000
0010
0000
0000
0220
0000
0000
0000
,
0000
0000
0000
0000
,
0000
0000
0000
0330
0000
0000
0000
0000
;

//---------------dance-single - ----------------
#NOTES:
     dance-single:
     :
     Beginner:
     1:
     0.103,0.192,0.074,0.108,0.000:
0000
0000
0000
0000
,
0000
0000
0000
0000
,
0000
0000
0000
0000
,
0000
0000
0000
0000
,
0000
0000
0010
0000
,
0010
0000
0010
0000
,
0000
0000
0100
0000
,
0100
0000
0100
0000
,
0000
0000
0001
0000
,
0001
0000
0001
0000
,
0000
0000
1000
0000
,
1000
0000
1000
0000
,
0000
0000
0200
0000
,
0000
0000
0300
0000
,
0000
0000
0020
0000
,
0000
0000
0030
0000
,
0000
0000
2000
0000
,
0000
0000
3000
0000
,
0000
0000
0002
0000
,
0000
0000
0003
0000
,
0000
0000
2002
0000
,
0000
0000
3003
0000
,
0000
0000
0220
0000
,
0000
0000
0330
0000
,
0000
0000
2000
0000
,
3000
0000
0002
0000
,
0003
0000
0220
0000
,
0000
0000
0330
0000
,
0000
0000
1000
0000
,
0000
0000
0001
0000
,
0000
0000
1000
0000
,
0000
0000
0001
0000
,
0010
0010
0010
0000
,
0000
0000
0100
0000
,
0000
0000
0100
0000
,
0100
0000
0100
0100
,
0100
0000
2000
0000
,
0000
0000
3000
0000
,
0000
0000
0002
0000
,
0000
0000
0003
0000
,
0000
0000
0010
0000
,
0000
0000
0010
0000
,
0000
0000
0100
0000
,
0100
0000
0100
0100
,
0100
0000
2000
0000
,
0000
0000
3000
0000
,
0000
0000
0002
0000
,
0000
0000
0003
0000
,
0100
0100
0100
0000
,
0000
0000
0010
0000
,
0000
0000
1001
0000
,
0000
1001
0000
0000
,
0010
0010
0010
0000
,
0100
0000
0100
0000
,
0110
0000
0001
0001
,
0001
0000
1000
1000
,
1000
0000
0000
0000
,
0000
0000
0000
0100
,
0000
0000
0000
0010
,
0000
0000
0000
0001
,
0000
0000
0000
1000
,
1000
1000
0000
0000
,
0000
0000
0000
0001
,
0001
0001
0000
0000
,
0000
0000
0000
0110
,
0000
0000
0000
0010
,
0000
0000
0000
0100
,
0000
0000
0000
0010
,
0000
0000
0000
1001
,
0000
0000
0000
0110
,
0000
0000
0000
1001
,
0000
0000
1001
0000
;

//---------------dance-single - ----------------
#NOTES:
     dance-single:
     :
     Easy:
     4:
     0.237,0.370,0.087,0.337,0.000:
0000
0000
0000
0000
,
0000
0000
0000
0000
,
0000
0000
0000
0000
,
0000
0000
2002
0000
,
3003
0000
2000
3200
,
0320
0030
0001
1000
,
0001
0000
0020
0032
,
0203
0320
2030
3000
,
0100
0000
0010
0000
0001
0000
0000
0001
,
0000
0002
0000
0000
,
0003
0000
1000
0000
1000
0000
0000
1000
,
0000
2000
0000
0000
,
3000
0000
0020
0000
,
0030
0000
1000
0000
,
0001
0010
1000
0000
,
0010
0000
0001
0000
,
1000
0100
0001
0000
,
0100
0000
1000
0000
,
0001
1000
0010
0000
,
0100
0001
0010
0000
,
0100
0000
0020
0000
,
0030
0000
0001
1000
,
0001
1000
0100
0000
,
0000
0000
0010
0001
,
1000
0010
0100
0000
,
0000
0001
1000
0000
,
0000
1000
0001
0000
,
0000
0000
0010
0000
0010
0000
0000
0010
,
0000
0010
0000
0010
0000
0000
0000
0000
,
0000
0100
0100
0000
,
0000
1000
2000
3000
,
0002
0003
0200
0300
,
0000
0000
1001
0000
,
0010
0000
1001
0000
,
0100
0000
1001
0000
,
1001
0000
1001
0110
,
1001
0110
0001
0001
,
1000
0000
0100
0100
,
0010
0000
1000
1000
,
0001
0100
0001
0000
,
0010
0100
0020
0000
,
0230
0000
2300
0000
,
3002
0000
0203
0320
,
2030
3200
0320
0032
,
2003
3002
0013
0010
,
1100
0000
0010
0010
,
0101
0000
1000
0001
,
0010
0100
1000
0000
,
0010
0000
0100
0000
0001
0000
0000
0001
,
0000
0002
0000
0000
,
0003
0000
1000
0000
1000
0000
0000
1000
,
0000
2000
0000
0000
,
0001
0001
3001
0010
,
0100
0000
1000
0010
,
0100
0000
0001
1000
,
0001
1000
0010
0100
,
0010
0100
0000
0000
,
0002
0023
0230
2300
,
0010
3001
0000
2000
,
3020
0230
0302
2003
,
0100
3001
0000
0002
,
0023
0032
0013
2000
,
3200
2300
3100
1000
,
1000
0001
0001
0200
,
0000
0020
0330
0100
,
0100
1010
0000
0100
,
0100
0011
0000
0001
,
1000
0100
0010
0001
,
0000
0100
0010
1000
,
0000
1000
0000
0000
2000
0000
0000
0000
,
0000
3000
0001
0001
,
0000
0001
0000
0000
0002
0000
0000
0000
,
0000
0000
0000
0000
,
0000
0000
0000
0003
0000
0000
0000
0000
;

//---------------dance-double - ----------------
#NOTES:
     dance-double:
     :
     Challenge:
     9:
     0.553,0.568,0.370,0.316,0.165:
00020000
00100000
01030000
00000000
00002000
00000010
00003100
00000000
,
00020000
00000000
00000100
00000000
00032000
00000000
00100000
00000000
02003000
00000000
00000000
00000000
13000000
00100000
00010000
00000000
,
00002000
00000000
00000000
00000000
00003100
00000000
00000010
00000000
00000002
00000000
00000000
00000000
00000103
00000000
00000010
00001000
,
00000001
00000000
00000011
00000000
00010000
00000000
00010010
00000000
00011000
00000000
00000000
00000000
01000000
00000000
00100000
10000000
,
00010000
00000000
00100000
00000000
00001000
00010000
00001000
00000000
01010000
00000000
00000000
00000000
10100000
00000000
00000000
00000000
,
01010000
00000000
10000000
01000000
00010000
00001000
00000010
00000001
,
00001000
00000001
00000100
00010000
00100000
00100000
00010000
00001000
,
00000100
00000010
00001000
00000010
00000001
00000000
00010100
00000000
,
00000001
00000100
00000001
00000100
00000010
00000000
00000010
00010000
,
00000000
00010000
00100000
00000000
20000000
01000000
00000000
00010000
,
00000000
00010000
30010000
00000000
00011000
00001000
00000100
00011000
,
00010000
00000000
00100000
00000000
00011000
00000000
00000000
00000000
00000000
00000000
00100000
00000000
00100000
00000000
00100000
00010000
,
10000000
00010000
10000000
00010000
01000000
00100000
01000000
00100000
10000000
00000000
00000000
00000000
11000000
00000000
00100000
00001000
,
00100000
00000000
01000000
00000000
01010000
00000000
00000000
00000000
00100000
00000000
00000000
00000000
00010010
00000000
00001000
00100000
,
00001000
00010000
00000100
00000010
00000001
00000000
00001000
00000020
,
00000000
00000031
00000100
00000010
00001000
00010000
00100000
00010000
,
00001000
00000010
00001000
00000001
00000010
00000000
00001000
00020000
,
00000000
00130000
00001000
00100000
10000000
01000000
00100000
00001000
,
00000010
00001000
01000000
00100000
10000000
00000000
10010000
00000000
,
00100000
00010000
00001000
00000000
01010000
00000000
00000000
00011000
,
00000000
00001010
00000002
00000010
,
00001003
00000100
00000010
00000002
00000000
00000103
00001000
00000200
,
00000000
00020300
00000000
00230000
00000000
01300000
10000000
02000000
,
00000000
03100000
00010000
00100000
00001000
00001000
00000010
00000010
,
00001000
00000000
00010000
00000000
01000000
00000000
10000000
00000000
00200000
00000000
00000000
01000000
00000000
00000000
00010000
00000000
,
00000000
00000000
00001000
00000000
00301000
00000000
00000000
00000000
00000200
00000000
00000000
00001000
00000000
00000000
00000010
00000000
,
00000000
00000001
00000301
00000000
00000012
00000000
00000103
00000000
,
00001000
00010000
00001000
00000000
00100100
00000000
00000000
00000011
,
00000000
00011000
00000000
10100000
00000000
00010000
00001000
00000000
,
00000011
00001000
00000101
00001000
00000000
00001000
00010000
00000000
,
10100000
00010000
11000000
00010000
00000000
00010000
00001000
00010000
,
00000100
00000100
01000000
01000000
00000000
00011000
00000000
00100100
,
00000000
00011000
01000010
00000000
00002000
00000000
00000100
00000010
,
00000000
00000000
00003001
00000000
00020000
00000000
00100000
01000000
,
00000000
10030000
20000000
32000000
,
03200000
00320000
00032000
00003200
,
00000320
00000000
00000000
00000000
00000032
00000000
00000000
00000000
00001003
00000000
00000000
00000001
00000100
00000000
00000000
00000001
,
00000010
00000000
00000100
00000000
00010000
00000000
01000000
00000000
00100000
00000000
00000000
00010000
10000000
00000000
00000000
01000000
,
10000000
00000000
00100000
00000000
01000000
00000000
00001000
00000000
00010000
00001000
00010000
00000000
00000100
00000000
00000010
00000000
,
00000001
00000100
00000001
00000000
00000010
00000000
00000100
00000000
00001000
00000000
00000000
00000000
00011000
00000000
00000000
00000000
,
00100000
11000000
00100000
01010000
00002000
00000000
00003200
00000000
,
00002300
00000000
00013000
01000000
00200000
00000000
20300000
00000000
,
30200000
00000000
00301000
00010000
00000100
00000000
00000101
00000000
,
00000100
00000000
00001100
00000000
00000001
00000010
00000100
00001000
,
00000010
00000000
00000010
00000000
00001000
00010000
00001000
00010000
00001000
00000000
00000000
00001000
00100000
00000000
00000000
00100000
,
01000000
00000000
10000000
00000000
00100000
00000000
01000000
00000000
00001000
00000000
00000000
00001000
00000100
00000000
00000000
00000100
,
00000010
00000000
00001000
00000000
00000001
00000000
00000010
00000000
00000100
00000000
00000000
00000100
00010000
00000000
00000000
00010000
,
01000000
00000000
10000000
00000000
00100000
00000000
00010000
00000000
00001000
00000000
00000000
00001000
00000100
00000000
00000000
00000100
,
00000001
00000010
00010000
00000010
00000001
00000000
00000001
00001000
,
00000000
00000000
00001000
00000000
00010000
00000000
00000000
00000000
10010000
00000000
00000000
01001000
00000000
00000000
00100100
00000000
,
00000000
00010000
00001000
00010000
00011000
00000100
00000010
00011000
,
00100000
01000000
00022000
00000000
00033000
00000100
01000000
00000100
,
01000000
00000010
00100000
00000010
00200000
10000000
00310000
00000000
,
00000020
00000001
00001030
00000000
20000000
01000000
00100000
30010000
,
00002000
00000000
00003000
00000000
00000002
00000010
00001003
00000000
,
20000000
00100000
30010000
00000000
00000002
00000010
00000100
00001003
,
00020000
00000000
00100000
00000000
01030000
00000000
00001000
00010000
00001000
00000000
00000000
00000000
00110000
00000000
00000000
00000000
,
01001000
00000000
00110000
00000000
10000000
00100000
00010000
00001000
,
00000100
00000001
00000010
00001000
00010000
01000000
10000000
10000000
,
00010000
00010000
01000000
00001000
00010000
00000100
00000000
00000100
,
00000010
00000000
00000001
00000000
00001000
00000001
00001000
00000000
00000010
00000000
00000100
00000000
00001000
00000000
00000000
00001000
,
00100000
00000000
00000000
00100000
00001000
00000000
00000000
00001000
00000100
00000000
00000010
00000000
00001000
00000000
00000000
00001000
,
01000000
00000000
00000000
01000000
00001000
00000000
00000000
00001000
00000010
00000000
00000100
00000000
00001010
00000000
00000000
00000000
,
00010100
00000000
00101000
00000000
01010000
00000000
10100000
00010000
,
10000000
00000000
01000000
00000000
00100000
00000000
00001000
00000000
00010000
00001000
00010000
00001000
00010000
00000000
00000000
00010000
,
00000100
00000000
00000000
00000100
00000010
00000000
00000001
00000000
00000100
00000000
00000010
00000000
00010000
00000000
00000000
00010000
,
00100000
00000000
00000000
00100000
01000000
00000000
00010000
00000000
10000000
00000000
01000000
00000000
00100000
00000000
00000000
00100000
,
00001000
00000000
00000000
00001000
00000010
00000000
00000001
00000000
00000100
00000000
00001000
00000000
00010000
00000000
00000000
00010000
,
00100000
00000000
00000000
00100000
10000000
00000000
01000000
00000000
00001000
00000000
01000000
00000000
10000000
00000000
00000000
00000000
,
10000000
00000000
00010000
00000000
00000000
00000000
00010000
00000000
00001000
00000000
00000000
00000000
00001001
00000000
00000000
00010010
,
00000000
00100100
00000000
00001000
00010000
00001000
00011000
00100000
,
01000000
00011000
00000100
00000010
00022000
00000000
00000000
00000000
,
00000000
00000000
00000000
00000000
,
00000000
00000000
00000000
00033000
00000000
00000000
00000000
00000000
;
