#TITLE:Cybertravels;
#SUBTITLE:;
#ARTIST:Tatsh;
#TITLETRANSLIT:;
#SUBTITLETRANSLIT:;
#ARTISTTRANSLIT:;
#GENRE:;
#CREDIT:AznPunk07/Frozen_Heat;
#MENUCOLOR:Blue;
#METERTYPE:DDR;
#BANNER:Cybertravels-bn.png;
#BACKGROUND:Cybertravels-bg.png;
#LYRICSPATH:;
#CDTITLE:!cdtitle.png;
#MUSIC:Cybertravels.mp3;
#OFFSET:-4.804;
#SAMPLESTART:20.000;
#SAMPLELENGTH:20.000;
#SELECTABLE:YES;
#LISTSORT:;
#BPMS:0.000=152.000,164.000=76.000,201.000=38.000,203.000=76.000,210.000=152.000;
#STOPS:;
#BGCHANGES:;
#ATTACKS:;

//---------------dance-single - ----------------
#NOTES:
     dance-single:
     :
     Hard:
     9:
     0.508,0.570,0.317,0.182,0.229:
0000
0000
0000
0000
,
0101
0000
1010
0000
1000
0100
0010
0000
,
0010
0100
1000
0000
0001
0100
0001
0000
,
0010
0001
0100
0010
1000
0000
0100
0010
,
0000
0001
0100
0001
1000
0010
0100
0000
,
0001
0000
1000
0000
0001
0000
0000
0000
0100
0000
0000
0001
0000
0000
1000
0000
,
0000
1000
0100
0000
0100
0010
0001
0100
,
0010
0000
0000
0000
1001
0000
0000
0000
1000
0000
0000
0001
0000
0000
0100
0000
,
0000
0010
1000
0000
0100
0010
0001
0100
,
0020
1000
1030
0000
0200
0001
0300
0020
,
1000
0030
2000
0100
3000
0002
0010
0003
,
1000
0100
0010
0001
1000
0100
0010
0001
,
1000
0100
1000
0000
0001
0100
0001
0000
1000
0001
1000
0001
1000
0001
1000
0001
,
0100
0010
0000
0100
0001
0000
0010
0001
,
1000
0010
0000
0000
0000
0000
1000
0001
1000
0000
0000
0000
1100
0000
0000
0000
,
0011
0000
0000
0000
0001
0000
1000
0000
0000
0000
0000
0000
0000
0000
0001
1000
,
0001
0000
0000
0000
0010
0000
0100
0000
0000
0000
0100
0010
0001
1000
0001
1000
,
0010
0000
1000
0000
0100
0000
0000
0100
1000
0000
0001
0000
0100
0000
0001
0000
,
0000
0100
0001
0000
1000
0000
0000
0000
1000
0000
0001
0000
0010
0000
0100
0000
,
0000
0000
0010
0100
0010
0000
0000
0000
0001
0000
1000
0000
0010
0000
0100
0000
,
0000
0000
0100
0010
0100
0000
0001
0000
1000
0000
0010
0000
1000
0000
0100
1000
,
0000
0000
0001
0000
0100
0000
0010
0000
1000
0000
0001
0000
0010
0001
0010
0000
,
0000
0001
0100
0000
0010
0000
1000
0000
0001
0000
0100
0000
0010
1000
0010
0000
,
0000
1000
0100
0000
0010
0000
0001
0000
1000
0000
0001
0000
1000
0001
1000
0000
,
0000
0001
0010
0000
0100
0000
1000
0000
0001
1000
0001
1000
0001
1000
0001
0000
,
1001
0000
0110
0000
1000
0000
0100
0010
,
0000
0001
0010
0000
0001
0010
0000
0010
0100
0000
1000
0000
0001
0000
0100
0000
,
0000
0100
0010
0000
0010
1000
0000
1000
0001
0000
0100
0000
0010
0000
1000
0000
,
0000
1000
0001
0000
1000
0100
0000
0100
0010
0000
0010
0001
0000
1000
0001
0000
,
0102
0000
1003
0001
0100
0000
0010
0000
,
2100
0000
3010
1000
0001
0000
0010
0000
,
0210
0000
1300
0100
0001
0000
0100
0000
,
1020
0000
0031
0010
0100
0000
0010
0000
,
1100
0000
0010
0101
0010
0000
1000
0000
,
0011
0000
0100
1010
0100
0000
0001
0000
,
0100
0000
1000
0011
1000
0000
0010
0000
,
0110
0000
0001
1100
0001
0000
0100
0000
,
1200
0001
1300
0200
1000
0300
1010
0000
,
0102
0010
0103
0002
0100
0003
1100
0000
,
0021
1000
0031
0020
0001
0030
0101
0000
,
2010
0100
3010
2000
0010
3000
0011
0000
,
1001
0100
0010
0000
0000
0000
0000
0000
,
0000
0000
0000
0000
,
1000
0100
0010
0001
0000
0000
0000
0000
0000
0000
0000
0000
0000
0000
0000
0000
,
0001
0100
0010
1000
0000
0000
0000
0000
0000
0000
0000
0000
0000
0000
0000
0000
,
1000
0100
1000
0001
0000
0000
0000
0000
0000
0000
0000
0000
0000
0000
0000
0000
,
0001
0100
0001
1000
0000
0000
0000
0000
0000
0000
0000
0000
0000
0000
0000
0000
,
0010
0001
0100
0010
0000
0000
0010
0000
0000
0000
0000
0000
0000
0000
0000
0000
,
0100
0010
0000
0000
0000
0000
0000
0000
1000
0000
0000
0000
0000
0000
0000
0000
,
0001
0010
0000
0001
0100
0000
0010
0000
0000
0000
0000
0000
0000
0000
0000
0000
,
1000
0001
0000
0000
0000
0000
0100
0000
0000
0000
0000
0000
1000
0000
0000
0001
,
0000
1000
0001
0000
0010
0000
0000
0100
0000
0010
0100
0000
1000
0000
0001
0100
,
0000
0100
0001
0000
1001
0000
1000
0010
0100
0000
0000
0000
0010
0000
0000
0000
,
1000
0001
0010
0001
,
1000
0010
0100
0010
,
1000
0000
0100
0000
0010
0001
0100
0010
,
1000
0001
0100
0010
1000
0100
0010
0001
,
1000
0001
1000
0001
1000
0001
1000
0001
1000
0000
0000
1000
0100
0000
0000
0000
,
1010
0000
0000
1000
0001
0000
0000
0000
0010
0000
0000
0000
0100
0000
0000
0000
,
0011
0000
1000
0001
0100
0000
1000
0001
,
0100
0010
1100
0001
,
1100
0000
0000
0000
0010
0000
0000
0000
0001
0000
0000
0001
0010
0000
0000
0000
,
0101
0000
0000
0001
1000
0000
0000
0000
0100
0000
0000
0000
0010
0000
0000
0000
,
1100
0000
0001
1000
0010
0000
0001
1000
,
0010
0100
0011
1000
,
0011
0000
0100
0000
1010
1000
0100
0010
,
1002
0000
0103
0000
2000
0000
3100
0010
,
0002
0000
0013
0000
0101
0010
1000
0100
,
2001
0000
3010
0000
0201
0000
0310
2000
,
0100
0000
3010
0000
0011
0100
1000
0011
,
0100
0010
1000
0100
0020
0000
0031
1000
,
0020
0000
0130
0000
1001
0010
0100
1001
,
0010
0100
0010
0001
0100
0000
0100
0010
,
0000
0010
1000
0000
2100
0000
0000
0001
,
0000
0000
3010
0000
0102
0000
0000
1000
,
0000
0000
0013
0000
0100
0000
0000
0100
,
0000
0000
0100
0000
0010
0000
0000
0010
;

//---------------dance-single - ----------------
#NOTES:
     dance-single:
     :
     Medium:
     6:
     0.300,0.330,0.148,0.182,0.061:
0000
0000
0000
0000
,
1000
0001
0000
0100
,
0000
0010
0000
1000
,
0001
1000
0000
0010
,
0000
0100
0000
0001
,
0010
0000
0100
0000
1000
0000
0001
1000
,
0000
1000
0001
0000
0100
0000
0010
0000
,
1000
0000
0100
0000
0010
0000
0001
1000
,
0000
1000
0001
0000
0100
0000
0010
0000
,
1000
0100
1000
0000
0001
1000
0000
0001
,
1000
0000
0001
1000
0000
0001
1000
0000
,
1000
0100
0010
0001
,
2002
0000
0000
3003
,
0110
0000
0000
0001
0100
0000
0000
1000
,
0100
0000
0000
0010
0100
0000
1001
0000
,
0020
0000
0000
0030
0000
0000
0000
0100
,
0010
0000
0001
0100
0000
1000
0100
0000
,
1001
0000
0010
0000
0100
0000
0000
1000
,
0000
0000
0010
0000
0100
0000
0000
0001
,
0000
0000
0010
0000
0100
0000
0000
1000
,
0000
0000
0001
0000
1000
0001
1000
0000
,
0010
0100
0010
0000
1000
0000
0100
0100
,
0000
0010
0010
0000
0001
0000
0100
0100
,
0000
0010
0010
0000
1000
0000
0001
0001
,
0000
1000
1000
0000
2002
0000
3003
0000
,
0101
0000
1100
0000
0010
0000
0100
0010
,
0000
0010
0100
0000
1001
0000
0100
0010
,
0000
0010
0100
0000
0101
0000
0100
0010
,
0000
0010
0100
0000
1100
0000
0000
0000
,
0102
0000
0000
1003
0000
0000
0000
0000
,
0012
0000
0000
0103
0000
0000
0000
0000
,
2010
0000
0000
3001
0000
0000
0000
0000
,
2100
0000
0000
3010
0000
0000
0000
0000
,
0001
0100
0010
1000
,
0100
0010
0001
1000
,
0010
1000
0100
0010
,
1000
0001
0100
0010
,
0001
0100
0010
1000
,
0010
0001
0010
0100
,
0001
0010
1000
0010
,
0100
1000
0010
0100
,
0001
0000
0000
0000
,
0000
0000
0000
0000
,
0001
1000
0000
0001
0000
0000
0000
0000
0000
0000
0000
0000
0000
0000
0000
0000
,
1000
0001
0000
1000
0000
0000
0000
0000
0000
0000
0000
0000
0000
0000
0000
0000
,
0001
0100
0000
0010
0000
0000
0000
0000
0000
0000
0000
0000
0000
0000
0000
0000
,
1000
0100
0000
0010
0000
0000
0000
0000
0000
0000
0000
0000
0000
0000
0000
0000
,
0001
0000
0000
1000
0000
0000
0001
0000
0000
0000
0000
0000
0000
0000
0000
0000
,
0010
0000
0110
0000
,
1000
0010
0000
0100
0000
0000
0001
0000
0000
0000
0000
0000
0000
0000
0000
0000
,
1000
0000
0000
0000
0000
0000
1001
0000
0000
0000
0000
0000
0010
0000
0000
0010
,
0000
0010
0000
0000
0010
0000
0000
0010
0000
0010
0000
0000
0010
0000
0000
0010
,
0000
0010
0000
0000
0010
0000
0000
0010
0100
0000
0000
0000
0100
0000
0000
0000
,
0000
0001
0000
0010
,
0000
0100
0000
1000
,
0000
0010
0100
0001
,
0100
0001
1000
0100
,
0010
0001
0102
1003
,
0102
1003
0100
0010
,
0100
0000
1000
0010
0100
0000
1000
0010
,
0100
0000
2000
3000
,
0002
0003
2010
3001
,
2010
3001
0010
0100
,
0010
0000
0001
0100
0010
0000
0001
0100
,
0010
2000
3002
2003
,
3002
0000
0003
0000
0001
0010
0100
2000
,
0000
0000
0000
0000
0010
0000
0000
3010
,
0000
0000
0000
0000
1000
0100
0010
0002
,
0000
0000
0000
0000
0100
0000
0000
1000
,
0000
0000
0103
0000
0010
1000
0001
0020
,
0000
0000
0000
0000
0100
0000
0000
0001
,
0000
0000
0130
0000
0001
1000
0001
0200
,
0000
0000
1000
0000
0010
0000
0000
0001
,
0000
0310
2002
0000
,
0000
3003
0220
0000
,
0000
0330
0000
0000
;

//---------------dance-single - ----------------
#NOTES:
     dance-single:
     :
     Beginner:
     1:
     0.085,0.151,0.094,0.000,0.000:
0000
0000
0000
0000
,
1000
0000
0000
0000
,
0000
0000
0000
0000
,
0001
0000
0000
0000
,
0000
0000
0000
0000
,
0010
0000
0000
0000
,
0000
0000
0000
0000
,
0100
0000
0000
0000
,
0000
0000
0000
0000
,
1000
1000
0000
0000
,
0000
0000
0000
0000
,
0001
0001
0000
0000
,
0100
0000
0010
0000
,
0110
0000
0000
0000
,
0000
0000
0000
0000
,
1001
0000
0000
0000
,
0110
0000
0000
0000
,
0000
0001
0000
0001
,
0000
0001
0000
0000
,
0000
1000
0000
1000
,
0000
1000
0000
0000
,
0000
0010
0000
0010
,
0000
0010
0000
0000
,
0000
0100
0000
0100
,
0000
0100
0000
0000
,
1001
0000
0000
0000
,
0010
0000
0000
0000
,
0000
0000
0000
0000
,
0000
0000
0000
0000
,
0110
0000
0000
0000
,
1001
0000
0000
0000
,
0110
0000
0000
0000
,
1001
0000
0000
0000
,
0010
0010
0010
0000
,
0000
0000
0000
0000
,
0100
0000
0000
0000
,
0100
0000
0000
0000
,
0100
0100
0100
0000
,
0000
0000
0000
0000
,
0010
0000
0000
0000
,
0010
0000
0000
0000
,
1001
0000
0000
0000
,
0000
0000
0000
0000
,
0010
0000
0000
0000
,
0000
0000
0000
0000
,
0100
0000
0000
0000
,
0000
0000
0000
0000
,
1000
0000
0000
0000
,
0001
0000
0000
0000
,
1000
0000
0000
0000
,
0001
0000
0000
0000
,
0000
0010
0000
0010
,
0000
0010
0000
0000
,
0000
0000
0100
0000
,
0000
0000
0100
0000
,
0000
0000
0100
0000
,
0100
0000
1001
0000
,
0000
0000
0010
0010
,
0000
0000
0000
0000
,
0000
0000
0001
0000
,
0000
0000
1000
0000
,
0000
0000
0010
0010
,
0000
0000
0000
0000
,
0000
0000
1000
0000
,
0000
0000
0001
0000
,
0000
0000
1001
1001
,
0000
0000
0000
0000
,
0000
0000
0010
0000
,
0000
0000
0100
0000
,
0000
0000
0110
0110
,
0000
0000
0000
0000
,
0000
0000
1000
0000
,
0000
0000
0001
0000
,
0000
0000
0010
0000
,
0000
0000
0100
0000
;

//---------------dance-single - ----------------
#NOTES:
     dance-single:
     :
     Easy:
     3:
     0.204,0.229,0.034,0.222,0.000:
0000
0000
0000
0000
,
0010
0100
0000
0100
,
0000
0100
0000
0100
,
0000
0100
0000
0100
,
0000
0100
0000
0100
,
0001
0010
0001
0000
,
1000
0100
1000
0000
,
0020
0100
0100
0000
,
0001
0000
1030
0000
,
0002
0000
0023
0000
,
0230
0000
2300
0000
,
3020
0000
0000
0000
,
0200
0000
0000
0000
,
0330
0000
0000
0001
0001
0000
0000
1000
,
1000
0000
0000
0001
0001
0000
0000
0000
,
2002
0000
0000
3003
0000
0000
0000
0000
,
0100
0100
0100
0100
,
0010
1000
0001
0000
,
0010
0001
1000
0000
,
0100
0010
0001
0000
,
0100
0010
1000
0000
,
0001
0001
0100
0000
,
1000
1000
0100
0000
,
0001
0001
0010
0000
,
1000
1000
0010
0100
,
0002
0000
0010
0000
1003
0000
0000
2000
,
0000
0001
0000
0001
,
0000
0001
0000
0001
,
0000
0001
0000
3001
,
0010
0000
0000
0010
0000
0000
0000
0000
,
0100
0000
0000
0100
0000
0000
0000
0000
,
0001
0000
0000
0001
0000
0000
0000
0000
,
1000
0000
0000
1000
0000
0000
0000
0000
,
0001
0100
0001
0000
,
0100
1000
0100
0000
,
1000
0010
1000
0000
,
0010
0001
0010
0000
,
0001
0100
1000
0000
,
0100
1000
0010
0000
,
1000
0010
0001
0000
,
0010
0001
0100
0000
,
0110
0000
0000
0000
,
0000
0000
0000
0000
,
0020
0000
0000
0030
0000
0000
0000
0000
0000
0000
0000
0000
0000
0000
0000
0000
,
0200
0000
0000
0300
0000
0000
0000
0000
0000
0000
0000
0000
0000
0000
0000
0000
,
2000
0000
0000
3000
0000
0000
0000
0000
0000
0000
0000
0000
0000
0000
0000
0000
,
0002
0000
0000
0003
0000
0000
0000
0000
0000
0000
0000
0000
0000
0000
0000
0000
,
1000
0000
0000
1000
0000
0000
0000
0000
,
0110
0000
1001
0000
,
0001
0000
0000
0001
0000
0000
0000
0000
,
0110
0000
0000
0100
0000
0000
0020
0000
,
0000
0030
0000
0000
0020
0000
0000
0000
0000
0030
0000
0000
0020
0000
0000
0000
,
0000
0030
0000
0000
0020
0000
0000
0000
0130
0000
0000
0000
0001
0000
0000
0000
,
0000
0001
0000
1000
,
0000
1000
0000
0100
,
0000
0100
0010
0010
,
0001
0001
1000
1000
,
0010
0010
0200
0000
,
0302
0000
0013
0000
,
0100
1000
0020
0000
,
0000
0000
0200
0000
,
0330
0000
0020
0000
,
2030
0000
3100
0000
,
0010
0001
0200
0000
,
0001
0000
0020
0000
,
0330
0000
0001
0010
,
0200
0000
1000
0000
,
0310
0000
1000
0010
,
0200
0000
0001
0000
,
1300
0100
0001
0010
,
0002
0000
0100
0000
,
0013
0000
1000
0010
,
2000
0000
0100
0000
,
0001
3000
0020
0000
,
0000
0000
0200
0000
,
0000
0000
0330
0000
;

//---------------dance-double - ----------------
#NOTES:
     dance-double:
     :
     Challenge:
     7:
     0.342,0.404,0.088,0.013,0.081:
00000000
00000000
00000000
00000000
,
01000000
00000000
00010000
00000000
10000000
00010000
00000000
00010000
,
00100000
00000000
00100000
00001000
00000000
00001000
00010000
00000000
,
00010000
00000010
00000000
00000010
00000100
00000000
00000100
00000001
,
00000010
00000001
00000010
00000100
00000000
00000100
00010000
00000000
,
00010000
00000010
00000000
00000010
00000100
00000000
00000100
00000001
,
00000010
00000100
00010000
00001000
00100000
01000000
00100000
00000000
,
00100000
00010000
00000000
00010000
01000000
00000000
01000000
00100000
,
10000000
01000000
10000000
01000000
00100000
00000000
00100000
00010000
,
00100000
00001000
00000100
00000010
00000100
00001000
00100000
01000000
,
10000000
00000000
10000000
00100000
00000000
00100000
01000000
00000000
,
01000000
00001000
00000000
00001000
00010000
00000000
00010000
00000100
,
00000000
00000100
00000010
00000001
00001000
00000001
00001000
00000001
,
00000100
00000000
00000000
00000000
00000000
00000000
00000010
00001000
00000010
00000000
00000000
00000000
00000000
00000000
00010000
00001000
,
00010000
00000000
00000000
00000000
00000000
00000000
01000000
00010000
01000000
00000000
00000000
00000000
00000000
00000000
00000000
00000000
,
00100000
00000000
00000000
01100000
00000000
00000000
00000000
10000000
,
01000000
00000000
00100000
00100000
00000000
00010000
01000000
00001000
,
00010000
00000100
00000010
00000000
00000001
00000000
00000100
00000010
,
00000000
00001000
00000010
00000000
00010000
00000000
00001000
01000000
,
00000000
00100000
10000000
00000000
00010000
00000000
00100000
01000000
,
00000000
10000000
01000000
00000000
00100000
00001000
01000000
00010000
,
00100000
00001000
00000100
00000000
00000010
00000000
00001000
00000001
,
00000000
00000001
00000010
00000000
00000100
00000000
00001000
00000100
,
00000000
00000010
00000001
00000000
00000100
00000000
00000010
00010000
,
00000000
00001000
00100000
00001000
00010000
00000100
00000010
00000001
,
00000100
00000000
00001100
00000000
00011000
00000000
00000000
00100000
,
00000000
10000000
01000000
00100000
00010000
00000000
00000000
00010000
,
00000000
01000000
00100000
00010000
00001000
00000000
00000000
00001000
,
00000000
00100000
00010000
00001000
00000100
00000000
00000000
00000100
,
00000000
00010000
00001000
00000100
00000010
00000000
00000000
00000010
,
00000000
00001000
00000100
00000010
00000001
00000000
00000000
00000001
,
00000000
00000100
00000010
00000001
00001000
00000000
00000000
00001000
,
00000000
00000010
00000001
00001000
00000100
00000000
00000000
00000000
,
00000010
00010000
00001000
01000000
,
00010000
00100000
01000000
10000000
,
00100000
01000000
00001000
00010000
,
01000000
00010000
00000100
00001000
,
00000010
00001000
00000001
00000010
,
00000100
00010000
00000100
00000010
,
00001000
00100000
00001000
00000100
,
00000001
00000010
00001000
00000000
00000001
00000100
00000010
00001000
,
00000100
00010000
00100000
00000000
00000000
00000000
00000000
00000000
,
00000000
00000000
00000000
00000000
,
10010000
00000000
00000000
00100000
00000000
00000000
00000000
00000000
00000000
00000000
00000000
00000000
00000000
00000000
00000000
00000000
,
00001001
00000000
00000000
00000010
00000000
00000000
00000000
00000000
00000000
00000000
00000000
00000000
00000000
00000000
00000000
00000000
,
01010000
00000000
00000000
00100000
00000000
00000000
00000000
00000000
00000000
00000000
00000000
00000000
00000000
00000000
00000000
00000000
,
00000101
00000000
00000000
00000010
00000000
00000000
00000000
00000000
00000000
00000000
00000000
00000000
00000000
00000000
00000000
00000000
,
00200000
10000000
00000000
01000000
00000000
00000000
00010000
00000000
00000000
00000000
00000000
00000000
00000000
00000000
00000000
00000000
,
00000010
00000000
00300010
00000000
,
00000200
00000010
00000000
00000001
00000000
00000000
00001000
00000000
00000000
00000000
00000000
00000000
00000000
00000000
00000000
00000000
,
01000000
00000000
00000000
00000000
00000000
00000000
01000300
00000000
00000000
00000000
00000000
00000000
00010000
00000000
00000000
00010000
,
00000000
00100000
00000000
00000000
00001000
00000000
00000000
00001000
00000000
00000100
00000000
00100000
00010000
00000000
00000000
00010000
,
00000000
01000000
00000000
00000010
00001000
00000000
00000000
00001000
00000100
00000000
00000000
00000000
00000010
00000000
00000000
00000000
,
00000001
00000100
00000010
00010000
,
00000100
00000010
00000100
00001000
,
00000010
00000000
00010000
00000000
00001000
00100000
00010000
10000000
,
01000000
00100000
00001000
01000000
00100000
10000000
01000000
00100000
,
00010000
00000000
00000000
00000000
00000000
00000000
00000000
00000000
00010000
00000000
00000000
01000000
00010000
00000000
00000000
00000000
,
00010000
00000000
00000000
00000100
00010000
00000000
00000000
00000000
01000000
00000000
00000000
00000000
00100000
00000000
00000000
00000000
,
10000000
00000000
01000000
00100000
00010000
00000000
00000100
00000010
,
00000001
00000100
00001010
00000000
,
10100000
00000000
00000000
00000000
00000000
00000000
00000000
00000000
00001000
00000000
00000000
00000010
00001000
00000000
00000000
00000000
,
00001000
00000000
00000000
00100000
00001000
00000000
00000000
00000000
00000100
00000000
00000000
00000000
00000010
00000000
00000000
00000000
,
00001000
00000000
00000001
00001000
00000100
00000000
00010000
10000000
,
01000000
00100000
01010000
00000010
,
00000101
00000000
00000010
00000000
00001000
00000100
00000010
00000001
,
00000000
00000000
00000000
00000000
00000100
00000000
00000000
00001000
,
00000000
00000000
00000000
00000000
10000000
01000000
00100000
00010000
,
00000000
00000000
00000000
00000000
01000000
00000000
00000000
10000000
,
00000000
00000000
00010000
00000000
00100000
10000000
00010000
00100000
,
00000000
00000000
00000000
00000000
00110000
00000000
00000000
01000000
,
00000000
00000000
00000000
00000000
00000010
00001000
00000001
00000010
,
00000000
00000000
00000000
00000000
00000011
00000000
00000000
00001000
,
00000000
00000000
00000001
00000000
00000100
00000000
00000000
00000100
,
00000000
00000000
00000000
00000000
01000000
00000000
00000000
01000000
;

//---------------dance-single - LIFTS----------------
#NOTES:
     dance-single:
     LIFTS:
     Edit:
     8:
     0.387,0.441,0.229,0.040,0.105: // measure 1
0000
0000
0000
0000
,  // measure 2
0001
0010
0100
0000
0100
0L00
L000
1000
,  // measure 3
0010
0000
0010
00L0
L000
1000
0001
0000
,  // measure 4
0001
000L
00L0
0010
0100
0000
0100
0000
,  // measure 5
L100
0000
0100
0L00
00L0
0010
0001
0000
,  // measure 6
0001
000L
0L00
0100
0010
0000
0010
0000
,  // measure 7
001L
0000
0010
00L0
0L00
0100
1000
0000
,  // measure 8
1000
L000
000L
0001
0010
0000
0010
0000
,  // measure 9
0L10
0000
0010
00L0
L000
1000
0001
0000
,  // measure 10
0001
1000
1000
0100
0010
00L0
000L
0001
,  // measure 11
1000
0000
1000
L000
00L0
0010
0100
0000
,  // measure 12
0100
0L00
000L
0001
0010
0100
0010
0100
,  // measure 13
1000
0001
1000
0001
0000
00L0
0L00
L000
,  // measure 14
001L
0000
0000
0000
0000
1000
0100
1000
0100
0000
0000
0000
0000
0010
0001
0010
,  // measure 15
0001
0000
0000
0000
0000
0000
0001
1000
0000
0001
1000
0000
0000
0000
0000
0000
,  // measure 16
0010
0100
0000
0LL0
0000
0000
0000
0001
,  // measure 17
1000
0000
L00L
0010
0000
0100
0010
0100
,  // measure 18
0010
1000
0100
0000
0L10
0000
0001
0100
,  // measure 19
0000
0L00
0001
0000
0010
0000
0100
1000
,  // measure 20
0000
L000
0010
0000
0100
0000
0001
0100
,  // measure 21
0000
0L00
0010
0000
1000
0001
0010
0100
,  // measure 22
0010
0001
1000
0000
L010
0000
1000
0100
,  // measure 23
0000
0L00
0010
0000
0100
0000
1000
0001
,  // measure 24
0000
000L
0100
0000
0010
0000
0100
0010
,  // measure 25
0000
00L0
1000
0000
0100
0010
0001
0100
,  // measure 26
0020
0000
1000
0000
0100
0000
0000
0L30
,  // measure 27
0000
0001
0010
0000
01L0
0000
1L00
0001
,  // measure 28
0000
0100
0001
0000
010L
0000
0L10
1000
,  // measure 29
0000
0000
0100
0000
0010
0000
0000
0000
01L0
0000
0000
1L00
0000
0000
L001
0000
,  // measure 30
0100
0000
0000
0L00
0000
0000
0000
0000
,  // measure 31
0100
0000
0000
0L00
0000
0000
0000
0000
,  // measure 32
0100
0000
0000
0L00
0000
0000
0000
0000
,  // measure 33
0100
0000
0000
0L00
0000
0000
0000
0000
,  // measure 34
0101
0000
0010
0L00
1000
0000
0001
0000
,  // measure 35
0100
0000
1000
0L00
0010
0000
1000
0000
,  // measure 36
0100
0000
0001
0L00
0010
0000
1000
0000
,  // measure 37
0100
0000
0010
0L00
1000
0000
0001
0000
,  // measure 38
0110
0000
1000
0L00
0001
0000
0010
0000
,  // measure 39
1100
0000
0001
0L00
1000
0000
0010
0000
,  // measure 40
0101
0000
1000
0L00
0001
0000
0010
0000
,  // measure 41
1100
0000
0010
0L00
1000
0000
0001
0000
,  // measure 42
0010
0000
0000
0000
,  // measure 43
0000
0000
0000
0000
,  // measure 44
1000
0010
0000
L0L0
0000
0000
0000
0000
0000
0000
0000
0000
0000
0000
0000
0000
,  // measure 45
0001
0100
0000
0L0L
0000
0000
0000
0000
0000
0000
0000
0000
0000
0000
0000
0000
,  // measure 46
1000
0001
0000
L00L
0000
0000
0000
0000
0000
0000
0000
0000
0000
0000
0000
0000
,  // measure 47
0010
0100
0000
0LL0
0000
0000
0000
0000
0000
0000
0000
0000
0000
0000
0000
0000
,  // measure 48
0102
0000
0000
00L0
0000
0000
2003
0000
0000
0000
0000
0000
0000
0000
0000
0000
,  // measure 49
0010
0000
00L0
0000
,  // measure 50
3200
0000
0000
03L0
0000
0000
1002
0000
0000
0000
0000
0000
0000
0000
0000
0000
,  // measure 51
0100
0000
0000
0000
0000
0000
0L03
0000
0000
0000
0000
0000
1000
0000
0000
L000
,  // measure 52
0000
1000
0000
L000
1000
0000
0000
L000
0000
1000
0000
L000
1000
0000
0000
L000
,  // measure 53
0000
1000
0000
L000
1000
0000
0000
L000
1000
0000
0000
0000
0100
0000
0000
0000
,  // measure 54
0010
0001
0100
0001
,  // measure 55
1000
0001
0100
0010
,  // measure 56
1000
0000
0001
0000
0010
0000
0L00
L000
,  // measure 57
000L
0L00
000L
L000
0L00
L000
000L
0L00
,  // measure 58
002L
0000
0000
0000
0000
0000
0000
0000
0130
0000
0000
0100
1000
0000
0000
0000
,  // measure 59
0100
0000
0000
0100
1000
0000
0000
0000
0010
0000
0000
0000
0100
0000
0000
0000
,  // measure 60
0001
0000
0010
0100
1000
0000
0000
00L0
,  // measure 61
0L00
L000
0000
0000
0110
0000
1000
0000
,  // measure 62
0000
0000
0000
0000
0LL0
0000
0000
0000
0001
0000
0000
0001
0010
0000
0000
0000
,  // measure 63
0001
0000
0000
0001
0010
0000
0000
0000
0100
0000
0000
0000
1000
0000
0000
0000
,  // measure 64
0010
0000
0100
0001
0010
0000
0000
0L00
,  // measure 65
000L
00L1
0100
0000
1010
0000
0000
0000
,  // measure 66
0L00
0000
L0L0
0000
0001
0010
0100
1000
,  // measure 67
0010
0000
0100
0000
0001
0000
1000
0100
,  // measure 68
0010
0000
0100
0000
0000
000L
00L0
0L00
,  // measure 69
L000
00L0
0L00
000L
,  // measure 70
L000
0L00
00L1
0000
1000
0010
0100
0001
,  // measure 71
0010
0000
0100
0000
1000
0000
0001
0100
,  // measure 72
0010
0000
0100
0000
0000
L000
00L0
0L00
,  // measure 73
000L
00L0
0L00
L000
,  // measure 74
000L
0L00
10L0
0000
0100
0000
0000
0L00
,  // measure 75
0000
0000
0000
0000
0010
0000
0000
00L0
,  // measure 76
0000
0000
0001
0000
0100
0000
0000
1000
,  // measure 77
0000
0000
0100
0000
0001
0000
0000
0100
;
