#TITLE:Bleeding Luv;
#SUBTITLE:~Immorality Act~;
#ARTIST:Xephia (Tatsh + Yuta);
#TITLETRANSLIT:;
#SUBTITLETRANSLIT:;
#ARTISTTRANSLIT:;
#CREDIT:;
#BANNER:bleeding luv-bn.png;
#BACKGROUND:bleeding luv-bg.png;
#LYRICSPATH:;
#MENUCOLOR:#ff005a;
#CDTITLE:!cdtitle.png;
#MUSIC:Bleeding Luv ~Immorality Act~.mp3;
#OFFSET:-0.048;
#SAMPLESTART:57.200;
#SAMPLELENGTH:25.000;
#SELECTABLE:YES;
#BPMS:0.000=213.980;
#STOPS:65.500=0.560
,197.500=1.120
;
#BGCHANGES:0.000=Bleeding_Luv.avi=1.000=1=0=1,
4.000=Bleeding_Luv.avi=2.000=0=0=1,
6.000=Bleeding_Luv.avi=1.000=0=0=1,
433.000=Bleeding_Luv.avi=1.400=0=0=1,
438.000=bleeding luv-bg.png=1.000=1=0=1,
99999=-nosongbg-=1.000=0=0=0 // don't automatically add -songbackground-
;

//---------------dance-single - ----------------
#NOTES:
     dance-single:
     :
     Hard:
     10:
     0.792,0.806,0.786,0.093,0.004:
0000
0000
0000
0000
,
0000
0000
0000
0000
,
0000
0000
0000
0000
,
0000
0000
0000
0000
,
2000
0000
0000
0000
0000
0000
0000
0000
0000
0000
0000
0000
0000
0000
0000
0000
3200
0000
0000
0000
0000
0000
0000
0000
0000
0000
0000
0000
0000
0000
0000
0300
0100
0000
0000
0000
0000
0000
0000
0000
0000
0000
0000
0000
0000
0000
0000
0000
2000
0000
0000
0000
0000
0000
0000
0000
0000
0000
0000
0000
0000
0000
0000
0000
,
3000
0000
0000
0000
,
0002
0000
0000
0000
0000
0000
0000
0000
0000
0000
0000
0000
0000
0000
0000
0000
0203
0000
0000
0000
0000
0000
0000
0000
0000
0000
0000
0000
0000
0000
0000
0300
0100
0000
0000
0000
0000
0000
0000
0000
0000
0000
0000
0000
0000
0000
0000
0000
0002
0000
0000
0000
0000
0000
0000
0000
0000
0000
0000
0000
0000
0000
0000
0000
,
0023
0000
0000
0000
0000
0000
0000
0000
0000
0000
0000
0000
0000
0000
0000
0000
0230
0000
0000
0000
0000
0000
0000
0000
0000
0000
0000
0000
0000
0000
0000
0000
2300
0000
0000
0000
0000
0000
0000
0000
0000
0000
0000
0000
0000
0000
0000
3000
1001
0000
0000
0000
0000
0000
0000
0000
0000
0000
0000
0000
0000
0000
0000
0000
,
0000
0000
1000
0001
1000
0000
1100
0000
,
0100
0000
1100
0000
0010
0000
0001
1000
,
0000
0001
1000
0001
0100
0000
0101
0000
,
0001
0000
0101
0000
0010
0000
0100
1000
,
0000
1000
0100
0010
0001
0000
0011
0000
,
0010
0000
0011
0000
0001
0000
0100
0001
,
0000
1000
0001
0100
0010
0000
1010
0000
,
1000
0000
1010
0000
0100
0010
0100
0010
,
1000
0100
0010
0001
0100
0000
0100
0000
,
0100
0100
0100
0100
,
0100
0100
0001
0001
,
1000
1000
0100
0010
,
0001
0000
1000
0000
0110
0000
0001
0100
,
1000
0000
0110
0000
1000
0100
0001
0000
,
0100
0010
0001
0000
0101
0000
1000
0100
,
0001
0000
0110
0000
1000
0010
0100
0001
,
0000
1000
1000
0001
1001
0000
0100
1000
,
0100
0000
0011
0000
0101
0000
0010
0001
,
0010
1100
1010
0100
,
1000
0010
0100
0001
,
0010
0000
0110
0000
1001
0000
0001
0010
,
1000
0000
0110
0000
0001
0100
1000
0000
,
0010
0100
1000
0000
0101
0000
0100
0001
,
0100
0000
1010
0000
0001
0000
0010
0001
,
0010
0100
1000
0010
0100
1000
0100
0000
,
0100
0001
0100
0000
0001
0010
0001
0000
,
0001
1000
0001
0000
1000
0100
1000
0000
,
1000
0010
1000
0000
0010
0001
0010
0000
,
0010
0100
0010
0000
1000
0100
0001
0000
,
1000
0100
0010
0000
0001
0100
1000
0000
,
0001
0100
0010
0000
1000
0010
0100
0000
,
0001
0010
0100
0000
0010
0100
1000
0001
,
0000
1000
0001
0000
0101
0000
0100
0010
,
0100
0000
1010
0000
1100
0000
1000
0001
,
1000
0000
0011
0000
0101
0000
0001
0010
,
1000
0000
0110
0000
1100
0000
0010
0001
,
0010
0000
0001
0010
0100
0000
1000
0100
,
1000
1001
0101
1001
,
1000
0000
0000
0000
0100
0000
0000
1000
0100
0000
0000
0000
0010
0000
0000
0000
,
0101
0010
1100
0010
,
1001
0000
0010
0000
0100
0001
0000
0001
,
0010
0000
0000
0000
0000
0000
0000
0000
0000
0000
0000
0000
0000
0000
0000
0000
0010
0000
0000
0000
0000
0000
0000
0000
2000
3000
0000
0000
0000
0000
0000
0000
1001
0000
0000
0000
0000
0000
0000
0000
0000
0000
0000
0000
0000
0000
0000
0000
0001
0000
0000
0000
0000
0000
0000
0000
0100
0000
0000
0000
0000
0000
0000
0000
,
1000
0100
0001
0010
0100
1000
0100
0010
,
0001
1000
0010
1000
0100
0010
0100
1000
,
0010
0100
0001
0010
1000
0001
0100
1000
,
0010
0001
0010
0000
1100
0000
1001
1000
,
0100
0010
0100
1000
0001
0100
0010
1000
,
0001
0100
1000
0001
0010
1000
0100
0010
,
0001
0010
0100
1000
0001
0001
0101
0000
,
1100
0000
1001
0000
0110
0010
1000
0001
,
0010
0100
1000
0010
0001
0010
0100
0001
,
0010
0100
1000
0100
0001
0100
1000
0010
,
0001
1000
0100
0001
0110
0000
1000
1100
,
0000
0001
0011
0000
1001
0000
0001
0010
,
1000
0010
0001
0100
0010
1000
0100
0010
,
0100
1000
0001
0100
0010
0000
1010
0000
,
0011
0000
0100
0010
0110
0000
0001
1001
,
0000
1000
1001
0001
0011
0000
0110
0000
,
1100
1001
0101
1010
,
0101
0000
1000
0001
1000
0000
0101
0000
,
1100
0000
0001
0010
0100
0000
0010
0100
,
1000
0000
1001
0000
0101
0000
0010
0110
,
0000
1000
1010
0000
1001
1001
0000
0011
,
0010
0100
1100
0000
1001
0000
0010
0110
,
0000
1000
1001
0000
0110
0110
0000
1001
,
1000
0001
1001
0000
0001
0001
0010
0100
,
0000
0100
1000
0000
1000
1000
0010
0100
,
0000
0100
0001
0000
0010
0010
0100
1000
,
0000
0001
0010
0000
1000
0000
0101
0000
,
0100
0000
1010
0000
0100
0100
0001
0010
,
0000
0000
1001
0000
0100
0100
1000
0010
,
0000
0000
0001
1000
0001
0000
1000
0010
,
1000
0000
0001
0010
0001
0000
1000
0000
,
0100
0000
0010
0000
0001
0100
1000
0100
,
0001
0010
0100
0000
1000
0100
0001
0100
,
1000
0010
0100
0000
0001
0010
0100
1000
,
0001
0010
0100
1000
1100
0000
0101
0000
,
1001
0000
0110
0000
0001
0000
0100
0010
,
0100
0000
1001
0000
0110
0000
1000
0001
,
1000
0001
0010
0100
1000
0000
0100
0110
,
0000
0010
1001
0000
0001
0101
0000
1100
,
0000
1001
0010
0000
1000
0100
1000
0100
,
0010
0001
0010
0001
0100
0001
0100
0001
,
1000
0010
1000
0010
0100
0100
0001
1000
,
0000
0100
0100
0010
0001
0100
0001
0000
,
1000
0100
1000
0000
0001
0010
0001
0010
,
0100
0010
0100
0010
0100
1000
0100
1000
,
0010
1000
0010
1000
0010
0100
0010
0100
,
0001
0100
0001
0100
0001
0010
1000
0000
,
0001
0100
1000
0000
1000
0100
0001
0100
,
1000
0100
0001
0000
0001
0010
1000
0010
,
0001
0010
1000
0000
0001
0010
0100
0010
,
0001
0100
1000
0000
0101
0000
1000
0100
,
0000
0001
0100
0000
1100
0000
0100
0010
,
0100
0000
0011
0000
0101
0000
1000
0001
,
1000
0000
0001
0100
1000
0000
1000
0100
,
0000
0100
0001
0000
0011
0001
0010
0100
,
1010
1000
0010
0100
0001
0000
0001
0010
,
0100
1100
0101
0010
,
1001
1000
0010
0100
0001
0000
0001
1100
,
0000
0010
2002
0000
0000
0000
0000
0000
,
3003
0000
0000
0000
;

//---------------dance-single - ----------------
#NOTES:
     dance-single:
     :
     Medium:
     9:
     0.656,0.679,0.693,0.023,0.016:
0000
0000
0000
0000
,
0000
0000
0000
0000
,
0000
0000
0000
0000
,
0000
0000
0000
0000
,
1000
0100
1000
0100
,
0000
0000
0000
0000
,
0001
0100
0001
0100
,
0010
1000
0100
0010
,
0000
0000
1000
0100
,
1000
0000
0100
0000
1000
0000
0001
1000
,
0000
0001
1000
0001
0100
0000
0001
0000
,
0100
0000
0001
0000
0100
0000
0010
0100
,
0000
0100
0010
1000
0001
0000
0010
0000
,
0001
0000
0010
0000
0001
0000
1000
0001
,
0000
1000
0001
1000
0010
0000
1000
0000
,
0010
0000
1000
0000
0010
0100
0010
0100
,
0001
1000
0001
1000
0100
0000
0000
0000
,
0100
0000
0100
0000
,
0100
0000
0010
0000
,
0001
0000
1000
0010
,
1000
0001
0010
0011
,
0000
1100
0000
1001
,
0000
0101
0000
1010
,
0000
0000
0110
0000
1000
0100
0010
0001
,
0000
0000
0101
0000
1000
0000
0100
1000
,
0000
1000
0100
0000
0010
0000
0000
0000
,
0010
0000
1001
0100
,
1001
0000
0010
0100
0000
0000
1010
0000
,
0101
0000
1010
0000
1100
0000
0000
0010
,
0000
0001
0100
1000
,
0010
0000
0100
0010
0001
0000
0001
1000
,
0000
1000
0001
0000
0001
0000
0010
0000
,
1000
0100
0001
0011
,
0011
0100
1010
1010
,
1001
0010
1100
0010
,
0101
0010
1001
0110
,
1001
0000
0010
0100
0010
0000
0010
0000
,
0110
0100
0101
1001
,
1100
0000
0011
0000
1001
0000
1000
0010
,
0000
0010
1000
0000
0010
0001
0000
0010
,
0001
0000
0010
0100
0010
0000
1000
0000
,
1000
0001
1001
1100
,
1010
0000
0100
0000
0011
0000
0100
1000
,
0000
0100
0010
0000
0011
0000
0101
0000
,
1001
0000
1000
0001
1000
0000
1000
0001
,
1000
0000
0010
0100
0010
0000
0010
0100
,
0010
0000
0100
0001
0100
0000
0001
0010
,
0001
0000
0010
0100
0010
0000
0100
1000
,
0100
0000
0000
0000
0000
0000
0000
0000
0010
0000
0000
0000
0001
0000
0000
0000
0010
0000
0000
0000
0000
0100
0000
0000
0000
0000
0010
0000
0000
0000
0000
0000
,
0001
0000
0000
0000
0000
0000
0000
0000
0000
0000
0100
0000
0000
0000
0000
0000
0000
0000
0000
0000
2000
0000
0000
0000
0000
3000
0000
0000
0000
0000
0000
0000
0100
0000
0000
0000
0000
0000
0000
0000
0000
0000
0000
0000
0000
0000
0000
0000
0100
0000
0000
0000
0000
0000
0000
0000
0001
0000
0000
0000
0000
0000
0000
0000
,
0000
0001
0010
0000
0100
0000
1000
0100
,
0000
0100
1000
0000
0010
0000
0100
0001
,
0000
0100
0001
0000
0010
0000
0100
1000
,
0000
0100
1000
0000
0010
0000
0100
0010
,
0100
0000
0010
0000
0101
0000
0010
1000
,
0100
0000
0010
0001
0010
0000
0100
0010
,
0000
0010
0100
1000
0010
0000
0101
0000
,
1100
0000
0101
0000
1001
0000
0001
0010
,
0000
0010
0100
0000
1000
0000
0100
0010
,
0000
0000
0001
1000
0001
0000
1000
0100
,
0000
0100
1000
0000
0010
0000
0100
0001
,
0000
0001
0010
0000
1100
0000
0010
0001
,
0000
0001
0100
0000
1010
0000
0100
1000
,
0000
1000
0010
0000
0101
0000
1001
0000
,
1100
0000
0010
0001
1000
0000
0000
1010
,
0000
0101
1001
1000
,
0000
1100
0000
0010
,
0000
0101
0011
0100
,
0000
1100
0000
0101
,
0010
0000
1001
0000
1000
0000
0001
0100
,
0000
0001
0100
0000
0100
0001
0000
0100
,
0001
0100
0001
0000
0010
0000
1000
0010
,
0000
1000
0010
0000
0010
1000
0000
0010
,
1000
1000
0010
0000
1000
0100
1000
0100
,
1000
0100
1000
0000
0001
0100
0001
0100
,
0001
0100
0001
0000
1000
0010
1000
0010
,
1000
0010
1000
0000
0001
0000
0011
0000
,
0010
0000
0011
0000
0001
0100
0000
0101
,
0000
0000
1001
0000
1000
0100
0000
1100
,
0000
0000
0001
1000
0001
0000
1000
0001
,
1000
0000
0010
0100
0010
0000
0110
0000
,
1001
0000
1001
0000
0110
0000
1000
0100
,
0000
0001
0100
0000
1001
0000
0010
0001
,
0000
0010
1000
0000
0110
0000
0001
0010
,
0000
1000
0010
0000
1001
0000
0001
0110
,
1000
0000
1001
0000
0110
0000
1000
0001
,
0000
0001
1000
0000
1001
0000
0110
0000
,
1001
0000
0100
0010
0100
0000
0010
1000
,
0000
1000
0100
0000
0010
0100
0000
0100
,
0010
0001
0010
0000
0100
1000
0100
1000
,
0100
0010
0100
0000
0010
0001
0010
0001
,
0010
0001
0100
0000
0001
0100
0100
0010
,
0100
0001
0100
0000
1010
0000
0100
0000
,
0011
0000
0100
0000
0001
0010
0100
0010
,
0001
0010
0100
0000
1000
0010
0100
0010
,
1000
0010
0100
0000
0001
0000
1000
0001
,
0000
1000
0001
0000
0001
0010
0100
0000
,
1000
0010
0000
0000
0001
0010
0001
0000
,
0101
0000
1001
0000
1000
0100
1000
0000
,
1010
0000
0011
0000
1000
0010
0010
0100
,
0001
1000
1000
0000
0100
0000
0010
0001
,
0000
1000
0010
0000
1010
0000
0100
0001
,
0000
0001
1000
0100
0010
0000
0010
0001
,
0000
0001
0100
0010
1000
0000
0001
0100
,
0000
0100
1000
0000
1000
0100
1000
0100
,
0001
0100
0001
0010
0100
0000
1100
0000
,
0011
0110
1010
0101
,
0011
0000
1001
0000
1100
0000
0100
0010
,
0000
0100
2002
0000
0000
0000
0000
0000
,
3003
0000
0000
0000
;

//---------------dance-single - ----------------
#NOTES:
     dance-single:
     :
     Easy:
     7:
     0.523,0.590,0.389,0.187,0.000:
0000
0000
0000
0000
,
0000
0000
0000
0000
,
0000
0000
0000
0000
,
0000
0000
0000
0000
,
2000
0000
3000
0000
,
0000
0000
0000
0000
,
0002
0000
0003
0000
,
0200
0300
0020
0030
,
0000
0000
1000
0100
,
0010
0001
0000
0000
,
0000
0000
0001
0100
,
0010
1000
0000
0000
,
0000
0000
0001
0010
,
1000
0100
0000
0000
,
0000
0000
0001
0100
,
1000
0010
0001
0001
,
1000
0000
1000
0000
0100
0000
0000
0100
,
0010
0000
0010
0000
,
0010
0000
0001
0000
,
1000
0000
0010
0000
,
0100
0010
0110
0101
,
0000
0001
0000
0100
,
0000
0001
1000
0100
,
0000
1100
0001
0010
,
0100
0000
1001
1000
,
0001
1000
0010
0000
,
0010
0000
0100
0001
,
0010
0100
0010
0001
,
1000
0010
1000
1100
,
0000
0100
0000
1000
,
0100
0000
0010
0000
0001
0000
0000
0100
,
0001
0100
1000
1000
,
0100
0100
0002
0013
,
2000
3100
0002
0103
,
2000
3010
0200
1300
,
0020
0031
0200
0301
,
0020
1030
0200
0001
,
1300
0010
0002
0100
,
1003
0010
2000
0100
,
3010
0100
0020
0001
,
1000
0130
0011
0100
,
1000
0010
1001
0100
,
1001
0100
2000
0100
,
3001
0002
0010
1000
,
0103
0000
0010
0100
0010
0000
1000
0000
,
0001
1000
0001
1000
,
0001
0000
1000
0100
0010
0000
0100
0000
,
0010
0100
0010
0101
,
0010
1100
0001
0010
,
0100
0000
0000
0000
0000
0000
0000
0000
0000
0000
0000
0000
0000
0000
0000
0000
1000
0000
0000
0000
0000
0000
0000
0000
0002
0003
0000
0000
0000
0000
0000
0000
1000
0000
0000
0000
0000
0000
0000
0000
0000
0000
0000
0000
0000
0000
0000
0000
0000
0000
0000
0000
0000
0000
0000
0000
1000
0000
0000
0000
0000
0000
0000
0000
,
0100
0000
0000
0100
0010
0000
0001
0000
,
0100
0000
0010
0000
0100
0000
0000
0100
,
0001
0000
0000
0001
0010
0100
1000
0000
,
1100
0010
0101
0000
,
0110
0000
1010
0100
,
0011
1000
0110
0000
,
1001
0000
0000
0000
0100
0010
0100
0000
,
0110
0000
1001
0000
0110
0000
0000
1000
,
0100
0000
0000
0100
1000
0000
1000
0001
,
0100
0000
0010
0100
0001
0000
0000
0001
,
0010
0000
0000
0010
0100
0000
1000
0100
,
0010
0000
0100
0010
0001
0000
0000
0000
,
0011
0000
0100
0000
1010
0000
1000
0001
,
1000
0000
0010
0100
0010
0000
0000
0010
,
0100
0000
0100
0001
0010
0000
1000
0100
,
0000
0001
0100
0000
0010
0000
1010
0000
,
1000
1010
0010
1010
,
1000
1010
0100
0101
,
0001
0101
0001
0011
,
0100
0000
1010
0000
1000
0000
1000
0001
,
0000
1000
0001
0000
1000
0001
0000
1000
,
0001
0000
1001
0000
0100
0000
0010
0100
,
0000
0010
0100
0000
0010
0100
0000
0010
,
0100
0110
0001
0010
,
0100
1000
0001
0010
,
0100
1000
0001
0100
,
0010
1000
0120
0230
,
0320
0130
1000
0100
,
0010
0001
1000
0100
,
0010
0001
1000
0010
,
0100
0001
0020
0100
,
0100
0130
0001
0100
,
1000
0100
0001
0010
,
1000
0010
0001
0100
,
1000
0010
0100
0110
,
0010
0110
1000
0100
,
0001
0100
1000
0010
,
0100
0000
0001
0010
0001
0000
0010
0100
,
0000
1000
0100
0000
1000
0000
1001
0000
,
0001
1001
1000
0100
,
0010
0001
1000
0100
,
0010
0001
1000
0010
,
0100
0000
0001
0000
0110
0000
0100
0010
,
0100
0110
0001
0010
,
0100
1000
0001
0010
,
0100
1000
0001
0100
,
0010
1000
0100
0110
,
0110
0110
1000
0010
,
0001
0010
1000
0100
,
0001
0100
1000
0010
,
0001
0100
1000
1001
,
0001
1001
0001
0010
,
1000
0010
0001
0100
,
0010
0000
1000
0100
1000
0000
0100
0010
,
0000
0001
0010
0000
0200
0000
0010
0000
,
1000
0310
1100
1100
,
0101
0101
0010
0110
,
0110
0000
0001
0010
0100
0000
1000
0100
,
0000
0010
0001
0000
0000
0000
0000
0000
;

//---------------dance-single - ----------------
#NOTES:
     dance-single:
     :
     Beginner:
     3:
     0.281,0.464,0.319,0.023,0.000:
0000
0000
0000
0000
,
0000
0000
0000
0000
,
0000
0000
0000
0000
,
0000
0000
0000
0000
,
0000
0000
0000
0000
,
0000
0000
0000
0000
,
0000
0000
0000
0000
,
0000
0000
0000
0000
,
0000
0000
0010
0000
,
0000
0000
0100
0000
,
0000
0000
0001
0000
,
0000
0000
1000
0000
,
0000
0000
0100
0000
,
0000
0000
0010
0000
,
0000
0000
0001
0000
,
0000
0000
1000
0000
,
0110
0000
0000
0000
,
0000
0000
0000
0000
,
0000
0000
0100
0000
,
0000
0000
0100
0000
,
0001
0000
0010
0000
,
0000
0000
0000
0000
,
0000
0000
0110
0000
,
0000
0000
1000
2000
,
3000
0000
1001
0000
,
0000
0000
0000
0000
,
0000
0000
0010
0000
,
0100
0000
0001
0000
,
0010
0000
1001
0000
,
0000
0000
0000
0000
,
0100
0100
0100
0000
,
0010
0010
0010
0000
,
1001
1001
1001
0000
,
0010
0000
1001
0000
,
0010
0000
1001
0000
,
0100
0000
1001
0000
,
0110
0000
1000
0000
,
0110
0000
0001
0000
,
0110
0000
1001
0000
,
0110
0000
0001
1000
,
0001
0000
0010
0000
,
0010
0000
0100
0000
,
0100
0000
1000
0000
,
0001
0000
1001
0000
,
0110
0000
1000
1000
,
1000
0000
0001
0001
,
0001
0000
0100
0100
,
0100
0000
0010
0010
,
0010
0000
1000
0000
,
0001
0000
1001
0000
,
0100
0000
1001
0000
,
0100
0000
0010
0000
,
0010
0000
1000
0000
,
0001
0000
0100
0000
,
1001
0000
0100
0000
,
1001
0000
0010
0000
,
0001
0000
0100
0000
,
1000
0000
0010
0010
,
0010
0000
0100
0100
,
0100
0000
0001
0000
,
1000
0000
0001
0001
,
0001
0000
1000
0000
,
0010
0000
0100
0000
,
0001
0000
0010
0000
,
0100
0000
1000
0000
,
0010
0000
1001
1001
,
0000
0010
0000
1000
,
0000
0001
0000
0010
,
0000
0100
0000
1000
,
0000
0110
0110
0000
,
0000
0000
0000
0000
,
0000
1001
1001
0000
,
0000
0000
0000
0000
,
0000
0000
0001
0001
,
0001
0000
1000
1000
,
1000
0000
0010
0010
,
0010
0000
0100
0100
,
0100
0100
0100
0100
,
0100
0000
0010
0010
,
0010
0000
1000
1000
,
1000
0000
0001
0001
,
0001
0001
0001
0001
,
0001
0000
0010
0010
,
0010
0000
0100
0100
,
0100
0000
1000
1000
,
1000
1000
1000
1000
,
1000
0000
0010
0010
,
0010
0000
0100
0100
,
0100
0000
0001
0000
,
1001
0000
0001
0000
,
0010
0000
0100
0000
,
1000
0000
0100
0000
,
0010
0000
1001
1001
,
1001
1001
1000
0000
,
0010
0000
0100
0000
,
0001
0000
0100
0000
,
0010
0000
0110
0110
,
0110
0110
0010
0000
,
1000
0000
0001
0000
,
0010
0000
0100
0000
,
0010
0000
2002
0000
,
3003
0000
0100
0000
,
0010
0000
0100
0000
,
0010
0000
1001
0000
,
0010
0000
1001
1000
,
0001
0000
0010
0000
,
0100
0000
0010
0000
,
0100
0000
0000
0000
1001
0000
0000
0010
,
0000
0110
0000
0000
;

//---------------dance-double - ----------------
#NOTES:
     dance-double:
     :
     Challenge:
     10:
     0.791,0.806,0.810,0.086,0.008:
00000000
00000000
00000000
00000000
,
00000000
00000000
00000000
00000000
,
00000000
00000000
00000000
00000000
,
00000000
00000000
00000000
00000000
,
20000000
00000000
00000000
00000000
00000000
00000000
00000000
00000000
00000000
00000000
00000000
00000000
00000000
00000000
00000000
00000000
32000000
00000000
00000000
00000000
00000000
00000000
00000000
00000000
00000000
00000000
00000000
00000000
00000000
00000000
00000000
03000000
01000000
00000000
00000000
00000000
00000000
00000000
00000000
00000000
00000000
00000000
00000000
00000000
00000000
00000000
00000000
00000000
00010000
00000000
00000000
00000000
00000000
00000000
00000000
00000000
00000000
00000000
00000000
00000000
00000000
00000000
00000000
00000000
,
00000000
00000000
00000000
00000000
,
00002000
00000000
00000000
00000000
00000000
00000000
00000000
00000000
00000000
00000000
00000000
00000000
00000000
00000000
00000000
00000000
00003020
00000000
00000000
00000000
00000000
00000000
00000000
00000000
00000000
00000000
00000000
00000000
00000000
00000000
00000000
00000030
00000010
00000000
00000000
00000000
00000000
00000000
00000000
00000000
00000000
00000000
00000000
00000000
00000000
00000000
00000000
00000000
00000002
00000000
00000000
00000000
00000000
00000000
00000000
00000000
00000000
00000000
00000000
00000000
00000000
00000000
00000000
00000000
,
00000203
00002300
00023000
00230000
,
00300000
00000000
10000000
00010000
10000000
00000000
11000000
00000000
,
00010000
00000000
01010000
00000000
00100000
00000000
00010000
01000000
,
00000000
01000000
00001000
00010000
00000100
00000000
00000011
00000000
,
00000100
00000000
00001010
00000000
00000001
00000000
00000100
00010000
,
00000000
00010000
00100000
01000000
10000000
00000000
11000000
00000000
,
10000000
00000000
11000000
00000000
10000000
00000000
01000000
00001000
,
00000000
00001000
00000010
00000100
00000001
00000000
00000011
00000000
,
00000001
00000000
00000011
00000000
00000001
00000100
00001000
00000100
,
00000010
00010000
00001000
00000100
00100000
00000000
00100000
00000000
,
00100000
00100000
00100000
00100000
,
00100000
00100000
01000000
01000000
,
10000000
10000000
00100000
00010000
,
00001000
00000000
00000100
00000000
00001001
00000000
00000001
00000100
,
00001000
00000000
00011000
00000000
00010000
00100000
10000000
00000000
,
10000000
00100000
00010000
00000000
00011000
00000000
00001000
00000100
,
00000001
00000000
00001001
00000000
00001000
00000100
00010000
00001000
,
00000000
00001000
00010000
00010000
00011000
00000000
00000100
00000010
,
00000100
00000000
00001010
00000000
00011000
00000000
01000000
00100000
,
01000000
00110000
00011000
00000100
,
00000001
00000010
00000100
00001000
,
00010000
00000000
01100000
00000000
10010000
00000000
00010000
00100000
,
10000000
00000000
01100000
00000000
00001000
00010000
00001000
00000000
,
00001000
00000100
00000001
00000000
00000011
00000000
00000010
00000000
,
00000100
00000000
00001001
00000000
00010100
00000000
00001000
00000100
,
01000000
00001000
01000000
00100000
10000000
01000000
10000000
00000000
,
10000000
00010000
10000000
00000000
00100000
01000000
00100000
00000000
,
00100000
00001000
00100000
00000000
00000100
00000010
00000100
00000000
,
00000100
00001000
00000100
00000000
00000001
00000010
00000001
00000000
,
00000001
00001000
00000001
00000000
00000001
00000100
00001000
00000000
,
00000001
00000100
00000010
00000000
00010000
00001000
00000100
00000000
,
00001000
00010000
01000000
00000000
10000000
00100000
01000000
00000000
,
00010000
00100000
01000000
00000000
00100000
00001000
00000010
00000001
,
00000000
00000001
00001000
00000000
00000110
00000000
00000001
00001000
,
00000100
00010100
00001010
00000101
,
00001100
00011000
01000000
10100000
,
00110000
00000000
01001000
00000000
00110000
00000000
00001000
00010000
,
00001000
00000000
00010000
01000000
10000000
00000000
10000000
00100000
,
00010000
00001000
00101000
00000100
,
00010100
00000011
00001100
00000001
,
00000101
00001000
00001100
00010000
,
01010000
00000000
00100000
00000000
10000000
00010000
00000000
00010000
,
00100000
00000000
00100000
01000000
00001001
00000000
00000001
00000100
,
00001000
00000100
00000010
00001000
00000100
00010000
01000000
10000000
,
00100000
01000000
00001000
00010000
00000100
00000010
00000001
00000100
,
00000010
00001000
00000100
00010000
01000000
10000000
00100000
00010000
,
00001000
00000100
00001000
00000000
00011000
00000000
00110000
00100000
,
01000000
00100000
01000000
10000000
00010000
01000000
00100000
00010000
,
00001000
00000100
00000010
00001000
00000001
00000010
00000100
00010000
,
00001000
00100000
01000000
10000000
00010000
00010000
01010000
00000000
,
00101000
00000000
00010100
00000000
00001010
00000100
00000001
00001000
,
00000100
00010000
00001000
01000000
00100000
10000000
01000000
00010000
,
00001000
00000010
00000001
00000100
00001000
00010000
00100000
00001000
,
00000100
00010000
01000000
10000000
10010000
00000000
00010000
00110000
,
00000000
00001000
00001100
00000000
00000101
00000000
00000010
00000100
,
00001000
00000100
00000010
00001000
00000001
00000010
00000100
00001000
,
00010000
00100000
01000000
10000000
00100000
00000000
10100000
00000000
,
00110000
00000000
10000000
00010000
10010000
00000000
00010000
00011000
,
00000000
00001000
00001001
00000001
00001001
00000000
00000110
00000000
,
00001010
00000101
00010100
00101000
,
10100000
00000000
01000000
00100000
01000000
00000000
01010000
00000000
,
00011000
00000000
00000010
00000100
00000010
00000000
00001000
00010000
,
01000000
00000000
00100000
00000000
10010000
00000000
00100000
01100000
,
00000000
00010000
00110000
00000000
00001000
00011000
00000000
00001100
,
00000100
00000010
00000011
00000000
00000110
00000000
00000001
00001001
,
00000000
00001000
00001010
00000000
00010000
00011000
00000000
01010000
,
01000000
00100000
10100000
00000000
10000000
10000000
01000000
00010000
,
00000000
00000010
00000001
00000000
00000001
00000001
00000100
00001000
,
00000000
00100000
10000000
00000000
10000000
01000000
00010000
01000000
,
00000000
00010000
00000010
00000000
00000100
00000000
00000101
00000000
,
00000010
00000000
00001100
00000000
00000001
00000001
00000100
00010000
,
00000000
00000000
01100000
00000000
10000000
10000000
01000000
00001000
,
00000000
00000000
00000010
00000100
00000010
00000000
00001000
00000001
,
00001000
00000000
00010000
00001000
00010000
00000000
00001100
00000000
,
00011000
00000000
00110000
00000000
00010000
01000000
10000000
01000000
,
00010000
00100000
00001000
00000000
00001000
00010000
00000010
00000100
,
00000001
00000010
00001000
00000000
00000100
00010000
00001000
01000000
,
00100000
10000000
01000000
00010000
00011000
00000000
00110000
00000000
,
00011000
00000000
01010000
00000000
00010100
00000000
00000010
00000001
,
00001000
00000000
00011000
00000000
00001001
00000000
00000010
00000001
,
00000100
00000010
00001000
00000100
00010000
00000000
00000100
00000110
,
00000000
00001000
00011000
00000000
00010000
01010000
00000000
11000000
,
00000000
10010000
00100000
00000000
10000000
00100000
10000000
00100000
,
01000000
00010000
01000000
00010000
00100000
00001000
00100000
00001000
,
00010000
00000100
00010000
00000100
00000010
00000010
00000001
00001000
,
00000000
00000010
00000010
00000100
00000001
00001000
00000001
00000000
,
00000001
00000100
00001000
00000000
00000001
00000100
00000001
00000100
,
00000010
00001000
00000010
00001000
00000100
00010000
00000100
00010000
,
00001000
00100000
00001000
00100000
00001000
01000000
00001000
01000000
,
00010000
01000000
10000000
01000000
00010000
00100000
00001000
00000000
,
00000010
00000000
00000100
00000000
00000001
00000100
00001000
00000100
,
00000001
00000100
00001000
00000000
00010000
00100000
10000000
00100000
,
00010000
00100000
10000000
00000000
10000000
00100000
00010000
00001000
,
00000010
00000001
00000010
00000000
00001001
00000000
00001000
00010000
,
00000000
00010000
10000000
00000000
10010000
00000000
01000000
00100000
,
01000000
00000000
00110000
00000000
00011000
00000000
00000100
00000010
,
00000100
00000000
00000001
00000100
00001000
00000000
00001000
00000100
,
00000000
00000000
00000100
00000000
00010000
00000000
00000000
00000000
00100000
01000000
00100000
00000000
10000000
00000000
00010000
00000000
,
01000000
00001000
01000000
00000000
00010000
00000000
00001000
00000000
00000100
00000000
00000000
00000000
00000001
00000000
00000010
00000000
,
00000100
00001100
00000101
00000010
,
00001001
00000010
00001000
00010000
00100000
00000000
10000000
11000000
,
00000000
00010000
02020000
00000000
00000000
00000000
00000000
00000000
,
03030000
00000000
00000000
00000000
;
