#TITLE:Romancing Layer;
#SUBTITLE:;
#ARTIST:TAG;
#TITLETRANSLIT:;
#SUBTITLETRANSLIT:;
#ARTISTTRANSLIT:;
#GENRE:16*;
#CREDIT:;
#BANNER:Romancing Layer.png;
#BACKGROUND:Romancing Layer-bg.png;
#LYRICSPATH:;
#CDTITLE:;
#MUSIC:Romancing Layer.ogg;
#OFFSET:0.000000;
#SAMPLESTART:52.799999;
#SAMPLELENGTH:15.000000;
#SELECTABLE:YES;
#DISPLAYBPM:150.000000;
#BPMS:0.000000=150.000000
;
#STOPS:
;
#BGCHANGES:;
#KEYSOUNDS:;
#ATTACKS:;

//---------------dance-single - ----------------
#NOTES:
     dance-single:
     :
     Challenge:
     16:
     0.889866,1.010173,0.081961,0.194658,1.101355,608.000000,600.000000,8.000000,19.000000,0.000000,0.000000,0.889866,1.010173,0.081961,0.194658,1.101355,608.000000,600.000000,8.000000,19.000000,0.000000,0.000000:
0000
0000
0000
0000
,
0000
0000
0000
0000
,
0000
0000
0000
0000
,
0000
0000
0000
0000
,
0000
0000
0000
0000
,
0001
0000
0010
0000
0001
0000
0100
0000
0010
0000
0100
0001
0010
0100
0000
0100
,
1000
0000
0100
0000
1000
0000
0010
0000
0100
0000
0010
1000
0100
0010
0000
0010
,
0001
0000
0100
0000
0001
0000
0010
0000
0100
0000
0010
0001
0100
0010
0000
0010
,
1000
0000
0000
0000
0000
0000
0010
0000
0000
0000
0000
0000
1000
0000
0000
0000
0000
0000
0100
0000
0000
0000
0000
0000
0010
0000
0000
0001
0000
0000
0010
0000
0001
0000
0100
0000
1000
0000
0000
0100
0000
0000
0001
0000
0000
0100
0000
0000
,
0010
0000
0100
0000
0001
0000
1000
0001
0010
0100
0000
0010
0001
0000
0100
0000
,
0010
0000
0100
0000
1000
0000
0100
0001
0010
0100
0000
0010
0001
0000
0001
0000
,
1000
0000
0010
0100
0001
0100
0010
0100
0001
0000
1000
0100
0010
0100
1000
0100
,
0010
0000
0001
0100
0010
0100
0001
0100
0010
0000
1000
0010
0100
0010
1000
0000
,
0100
0000
0010
0000
0001
0000
1000
0001
0100
0010
0000
0100
0001
0000
0010
0000
,
0100
0000
0010
0000
1000
0000
0010
0001
0100
0010
0000
0100
0001
0000
0010
0000
,
1000
0000
0010
0001
0100
0010
0100
0001
0010
0000
1000
0010
0100
0010
1000
0010
,
0100
0000
1000
0001
0010
0001
1000
0010
0100
0000
1000
0000
0100
0000
0001
0100
,
0001
0000
1000
0000
0001
0000
1000
0100
0010
0100
0000
1000
0001
0000
0100
0000
,
0010
0000
1000
0000
0001
0000
1000
0010
0100
0010
0000
1000
0001
0000
0010
0000
,
0100
0000
1000
0010
0100
0010
1000
0010
0100
0000
0001
0010
0100
0010
0001
0010
,
0100
0000
1000
0001
0100
0001
1000
0001
0100
0000
0010
1000
0001
1000
0010
1000
,
0001
0000
0010
0000
0010
0000
0001
0010
0100
0010
0000
0001
1000
0000
0010
0000
,
0100
0000
0001
0000
1000
0000
0001
0100
0010
0100
0000
0001
1000
0000
0100
0000
,
0010
0000
0001
0100
0010
0100
0001
0100
0010
0000
1000
0100
0010
0100
1000
0100
,
0010
0000
0001
1000
0100
1000
0001
1000
0100
0000
0100
0000
0010
0000
0001
0000
,
2000
0000
0000
3001
1000
0000
2000
0000
0000
3001
0100
0000
0010
0000
0100
0010
,
0200
0000
0000
0001
0000
0300
0001
0000
2000
0000
0000
0010
0000
3000
0010
0000
,
0200
0000
0000
0302
0000
0000
2003
0000
0000
3100
0020
0000
0032
0000
0203
0000
,
2300
3200
0320
2030
3001
0020
0130
2000
,
0010
0000
0000
0010
0000
0000
3010
0000
0000
0100
0010
0000
1000
0000
0001
0000
,
0010
0000
0000
0100
0010
0000
0001
0000
1000
0010
1000
0000
0010
0000
0100
0000
,
0001
0000
0000
0001
0000
0000
1000
0000
0000
0010
0100
0000
0100
0000
0001
1000
,
0001
0000
0000
0010
0010
0000
0000
0000
,
0110
0000
0100
0000
0010
0001
0010
0001
1000
0000
0010
0000
0100
0001
0100
0001
,
1000
0000
0001
0100
0001
0000
0011
0000
0001
0000
0100
0001
0010
0100
0010
0100
,
1000
0000
0001
0100
0001
0100
0010
0000
1000
0000
0100
0010
0100
0010
0001
0000
,
0100
0000
0010
0100
0001
0000
0010
0100
1000
0000
0001
0000
1000
0000
0100
0010
,
0002
0000
0000
0000
0103
0000
0010
1000
0010
0000
0100
0000
0001
0000
0001
0000
,
0010
0100
0100
1000
0010
0010
0100
0100
,
0001
0010
0001
0010
0100
0010
0100
0010
0100
1000
0100
1000
0001
1000
0001
1000
,
0001
0010
0001
0010
0100
0010
0100
0010
0100
1000
0100
1000
0001
1000
0001
1000
,
0110
0000
0100
0000
0010
1000
0010
1000
0001
0000
0010
0000
0100
1000
0100
1000
,
0001
0000
1000
0100
1000
0000
1010
0000
1000
0000
0100
1000
0010
0100
0010
0100
,
0001
0000
1000
0100
1000
0100
0010
0000
0001
0000
0100
0010
0100
0010
1000
0000
,
0100
0000
0010
0100
1000
0000
0010
0100
0001
0000
1000
0000
0001
0000
0100
0010
,
2000
0000
0000
0000
3100
0000
0010
0001
0010
0000
0100
0000
1000
0000
1000
0000
,
0010
0100
0100
0001
0010
0010
0100
0100
,
1000
0010
1000
0010
0100
0010
0100
0010
0100
0001
0100
0001
1000
0001
1000
0001
,
1000
0010
1000
0010
0100
0010
0100
0010
0100
0001
0100
0001
1000
0001
1000
0001
,
1000
0100
0010
0001
0100
0010
1000
0100
0010
0001
0100
0001
1000
0010
0100
0001
,
0100
0010
0100
1000
0100
0010
1000
0001
0100
0001
0010
0001
1000
0001
0100
0010
,
1000
0010
0100
0001
0010
0100
1000
0010
0100
0001
0010
0001
1000
0100
0010
0001
,
0010
0100
0010
1000
0010
0100
1000
0001
0010
0001
0100
0001
1000
0001
0010
0001
,
0100
0001
0010
0100
1000
0010
0100
0010
0100
0001
1000
0001
0010
0100
1000
0100
,
0010
0001
0100
0010
1000
0100
0010
0100
0010
0001
1000
0001
0100
0010
1000
0010
,
0100
0000
0110
1001
1001
0000
0010
0000
,
1000
0000
0000
0000
0100
0000
0000
0000
0010
0000
0100
1000
0010
0000
0100
0000
,
0102
0000
0000
0000
0000
0000
0013
0000
0000
0100
0000
0000
1000
0001
1000
0001
1000
0001
1000
0001
1000
0001
1000
0001
,
0010
0000
0000
0000
;
