#TITLE:BURNT RICE;
#SUBTITLE:;
#ARTIST:Shawn Wasabi;
#TITLETRANSLIT:;
#SUBTITLETRANSLIT:;
#ARTISTTRANSLIT:;
#GENRE:;
#CREDIT:;
#BANNER:BURNT RICE-bn.png;
#BACKGROUND:BURNT RICE-bg.png;
#LYRICSPATH:;
#CDTITLE:;
#MUSIC:BURNT RICE.ogg;
#OFFSET:1.471000;
#SAMPLESTART:60.028999;
#SAMPLELENGTH:15.000000;
#LASTBEATHINT:1.256000;
#SELECTABLE:YES;
#BPMS:0.000000=160.000000
;
#STOPS:
;
#BGCHANGES:;
#KEYSOUNDS:;
#ATTACKS:;

//---------------dance-single - ----------------
#NOTES:
     dance-single:
     :
     Challenge:
     15:
     0.716610,0.902148,0.043393,0.000000,0.581471,578.000000,573.000000,5.000000,0.000000,0.000000,0.000000,0.716610,0.902148,0.043393,0.000000,0.581471,578.000000,573.000000,5.000000,0.000000,0.000000,0.000000:
// measure 0
0000
0000
0000
0000
,  // measure 1
0000
0000
0000
0000
,  // measure 2
0000
0000
0000
0000
,  // measure 3
0000
0000
0000
0000
,  // measure 4
0000
0000
0000
0000
,  // measure 5
1000
0000
0010
0100
1000
0000
0100
0000
,  // measure 6
0001
1000
0100
0001
0100
0000
0010
0000
,  // measure 7
0001
0000
0010
0100
0001
0000
0100
0000
,  // measure 8
1000
0001
0100
1000
0100
0000
0010
0000
,  // measure 9
1000
0000
0001
0010
1000
0000
0010
0000
,  // measure 10
0001
0100
0010
1000
0100
0000
1000
0000
,  // measure 11
0001
0000
1000
0010
0001
0000
0010
0000
,  // measure 12
1000
0000
0100
0000
0010
0000
0001
0000
0100
0000
0000
0000
0001
0010
0001
0010
,  // measure 13
0001
0000
0100
0010
0001
0000
0010
0000
,  // measure 14
1000
0000
0001
0000
0010
0000
1000
0000
0010
0000
0000
0000
0001
0000
0100
0010
,  // measure 15
0100
0001
0010
0100
1000
0100
0001
0100
,  // measure 16
0010
0001
0100
0010
1000
0000
0100
0000
,  // measure 17
0010
0000
0010
0000
0010
0000
0100
1000
,  // measure 18
0001
0000
0000
0000
0001
0000
0000
0000
0100
0000
0000
0100
0000
0000
0100
0000
,  // measure 19
0010
0000
0010
0000
0010
0000
0100
0001
,  // measure 20
1000
0000
0000
0000
1000
0000
0010
0000
1000
0000
0100
0010
0000
0100
0010
0000
,  // measure 21
0001
0000
0100
0000
0100
0000
0001
0000
1000
0000
0000
1000
0000
0000
1000
0000
,  // measure 22
0100
0000
0010
0000
0001
0000
0100
0000
0010
0000
0100
0010
0000
0000
1000
0000
,  // measure 23
0100
0010
0100
0010
0100
0010
0100
0010
0001
0010
0001
0010
0001
0010
0001
0010
,  // measure 24
0100
0100
0100
0100
0100
1000
0010
0100
,  // measure 25
0010
0000
0000
0010
0000
0000
0010
0000
1000
0000
0001
0000
0010
0000
0100
1000
,  // measure 26
0001
0000
0000
0001
0000
0000
0001
0000
0010
0000
0100
0000
1000
0000
0010
1000
,  // measure 27
0100
0000
0000
0100
0000
0000
0100
0000
1000
0000
0001
0000
0100
0000
0010
0100
,  // measure 28
0001
0000
0000
0001
0000
0000
0001
0000
1000
0000
0010
0000
0100
0001
0100
0001
,  // measure 29
0100
0000
0000
0100
0000
0000
0100
0000
0001
0000
1000
0000
0100
0000
0010
0001
,  // measure 30
1000
0000
0000
1000
0000
0000
1000
0000
0100
0000
0010
0000
0001
0000
0100
0001
,  // measure 31
0010
0000
0000
0010
0000
0000
0010
0000
0001
0000
1000
0000
0010
0000
0100
0010
,  // measure 32
0100
0000
0001
1000
0000
0001
1000
0000
0100
0000
1000
0000
0001
0000
0000
0000
,  // measure 33
0100
0000
0000
0010
0000
0000
0100
0000
0001
0000
0010
0001
0100
0000
0010
1000
,  // measure 34
0100
0000
0000
0010
0000
0000
0100
0000
1000
0000
0010
1000
0100
0000
0010
0001
,  // measure 35
0100
0000
0000
0001
0000
0000
0100
0000
0010
0000
1000
0001
0100
0000
0001
1000
,  // measure 36
0100
0000
0000
1000
0000
0000
0100
0000
0001
0000
0100
0000
1000
0010
1000
0010
,  // measure 37
1000
0000
0100
0010
0000
0010
0001
0000
0100
0000
0010
1000
0100
0000
0010
0001
,  // measure 38
0100
0000
0010
1000
0000
1000
0100
0000
0010
0000
0001
0100
0010
0000
1000
0100
,  // measure 39
0010
0000
0001
0100
0000
0100
0010
0000
1000
0000
0100
0010
0000
0010
0001
0000
,  // measure 40
0100
0000
0010
1000
0000
1000
0001
0000
0010
0000
0100
0000
1000
0000
0001
0000
,  // measure 41
0101
0000
0000
0000
0000
0000
0000
0100
,  // measure 42
0110
0000
0000
0000
0000
0000
0000
0000
1000
0000
0000
0100
0000
0000
0010
0000
,  // measure 43
0011
0000
0000
0000
0000
0000
0000
0001
,  // measure 44
0101
0000
0000
0000
0000
0000
0000
0000
0100
0000
0000
0100
0000
0000
0100
0000
,  // measure 45
0010
0000
0010
0000
0010
0000
0010
1000
,  // measure 46
0100
0000
0000
0000
0100
0000
0000
0000
0100
1000
0000
0010
0000
0000
0100
0000
,  // measure 47
0001
0000
0010
0001
0010
0001
0010
0000
0100
0000
1000
0010
1000
0010
1000
0000
,  // measure 48
0100
1000
0010
1000
0100
1000
0010
0100
0010
0000
1000
0100
0010
0000
0001
0100
,  // measure 49
0010
0000
1000
0000
0010
0000
0100
0000
0001
0000
0000
0001
0000
0000
0001
0000
,  // measure 50
0010
0000
0001
0000
0010
0000
0100
0000
1000
0000
0000
1000
0000
0000
1000
0000
,  // measure 51
0100
1000
0010
0001
0010
1000
0100
0010
,  // measure 52
0100
0000
1000
0000
0010
0000
0100
0000
0001
0000
0010
0001
0000
0001
0010
0000
,  // measure 53
0100
0000
1000
0000
0010
0000
0100
0000
0001
0000
0000
0001
0000
0000
0001
0000
,  // measure 54
0010
0000
0100
0000
1000
0000
0010
0000
0100
0000
0010
0100
0000
0100
0001
0000
,  // measure 55
0010
0100
0010
0100
0010
0100
0010
0100
1000
0100
1000
0100
1000
0100
1000
0100
,  // measure 56
0010
0010
0010
0010
0010
0001
0100
0010
,  // measure 57
1000
0000
0000
0100
0000
0000
1000
0000
0001
0000
0100
0001
0010
0000
0100
1000
,  // measure 58
0010
0000
0000
1000
0000
0000
0010
0000
0100
0000
0001
0000
0010
0000
0100
1000
,  // measure 59
0010
0000
0000
0100
0000
0000
0001
0000
0010
0000
0100
0000
1000
0000
0001
0100
,  // measure 60
0000
0000
0010
0000
0010
0000
0010
0000
0100
0000
0001
0010
0100
0000
1000
0010
,  // measure 61
0100
0000
0000
0001
0000
0000
0100
0000
0010
0000
1000
0100
0010
0000
0001
0010
,  // measure 62
0100
0000
0000
1000
0000
0000
0100
0000
0010
0000
0001
0000
0100
0000
0010
1000
,  // measure 63
0100
0000
1000
0010
0000
1000
0010
0000
0100
0000
0001
0000
0010
0000
0100
0010
,  // measure 64
0000
0000
0001
0010
0001
0000
0100
0000
0010
0000
0010
0000
1000
0000
0000
0000
,  // measure 65
0100
0000
0000
0010
0001
0000
0100
0000
0010
1000
0010
0000
0100
0000
0001
1000
,  // measure 66
0100
0010
0000
0010
0100
0000
1000
0000
0010
0100
0010
0000
1000
0000
0001
1000
,  // measure 67
0100
0010
0000
0010
0100
0000
1000
0000
0010
0100
0010
0000
1000
0000
0001
0010
,  // measure 68
0100
0000
0000
0100
0010
0000
0001
0000
0010
0001
0010
0000
0100
0000
1000
0010
,  // measure 69
0100
0000
0000
0100
0001
0000
0010
0000
0100
1000
0100
0000
0010
0000
0001
0100
,  // measure 70
0001
0000
0000
0100
0010
0000
1000
0000
0100
0010
0100
0000
1000
0000
0001
0100
,  // measure 71
0001
0010
0000
0010
0001
0000
0100
0000
0010
1000
0100
0000
0010
0000
0100
1000
,  // measure 72
0010
0000
0000
0100
0001
0000
0010
0000
0100
1000
0010
0000
0100
0000
0000
0000
,  // measure 73
0001
0000
1000
0010
0001
0000
0010
0000
,  // measure 74
1000
0000
0100
0000
0010
0000
0001
0000
0100
0000
0000
0000
0001
0010
0001
0010
,  // measure 75
0001
0000
0100
0010
0001
0000
0010
0000
,  // measure 76
1000
0001
0010
1000
0010
0000
0010
0000
,  // measure 77
0011
0000
0000
0000
;
