#TITLE:14th Clock;
#SUBTITLE:;
#ARTIST:INNOCENT NOIZE;
#TITLETRANSLIT:;
#SUBTITLETRANSLIT:;
#ARTISTTRANSLIT:;
#GENRE:;
#CREDIT:;
#BANNER:14th Clock-bn.png;
#BACKGROUND:14th Clock-bg.png;
#LYRICSPATH:;
#CDTITLE:;
#MUSIC:14th Clock.mp3;
#OFFSET:1.739000;
#SAMPLESTART:78.261002;
#SAMPLELENGTH:15.000000;
#LASTBEATHINT:3.325500;
#SELECTABLE:YES;
#BPMS:0.000000=270.000000
,264.000000=67.500000
,280.000000=135.000000
,312.000000=270.000000
,440.000000=67.500000
;
#STOPS:
;
#BGCHANGES:;
#KEYSOUNDS:;
#ATTACKS:;

//---------------dance-single - ----------------
#NOTES:
     dance-single:
     :
     Challenge:
     17:
     0.934496,1.786469,0.713013,0.008291,0.207271,789.000000,703.000000,86.000000,1.000000,0.000000,0.000000,0.934496,1.786469,0.713013,0.008291,0.207271,789.000000,703.000000,86.000000,1.000000,0.000000,0.000000:
// measure 0
0000
0000
0000
0000
,  // measure 1
0000
0000
0000
0000
,  // measure 2
0000
0000
0000
0000
,  // measure 3
0000
0000
0000
0000
,  // measure 4
0000
0000
0000
0000
,  // measure 5
0000
0000
0000
0000
,  // measure 6
0000
0000
0000
0000
,  // measure 7
0000
0000
0000
0000
,  // measure 8
0000
0000
0000
0000
,  // measure 9
0000
0000
0000
0000
,  // measure 10
1000
0100
0100
0010
,  // measure 11
0100
0100
0010
0001
,  // measure 12
0001
0100
0001
0001
,  // measure 13
0010
0100
1000
0010
,  // measure 14
0100
0001
0001
1000
,  // measure 15
0001
0001
1000
0010
,  // measure 16
0010
0100
0010
0010
,  // measure 17
1000
0100
0010
0001
,  // measure 18
1100
0100
0100
0100
,  // measure 19
0100
0000
0010
0001
0100
0000
0010
1000
,  // measure 20
0001
1000
0010
0000
0100
0000
1000
0000
,  // measure 21
0100
0000
0001
0010
0001
0000
0100
0000
,  // measure 22
0101
0100
0100
0100
,  // measure 23
0100
0000
0010
1000
0100
0000
0010
0001
,  // measure 24
1000
0001
0010
0000
0100
0000
0001
0000
,  // measure 25
0100
0000
1000
0010
1000
0000
0010
0000
,  // measure 26
1010
0010
0010
0010
,  // measure 27
0010
0000
0100
0001
0010
0000
0100
1000
,  // measure 28
0001
1000
0100
0000
0010
0000
1000
0000
,  // measure 29
0010
0000
0001
0100
0001
0000
0010
0000
,  // measure 30
0011
0010
0010
0010
,  // measure 31
0010
0000
0100
1000
0010
0000
0100
0001
,  // measure 32
1000
0001
0010
0100
0010
0000
0001
0010
,  // measure 33
0100
1000
0100
0001
0100
1000
0010
0100
,  // measure 34
0001
0000
0010
0100
0010
0001
0100
0010
,  // measure 35
0000
0100
0010
0001
0010
0100
0000
0100
,  // measure 36
0001
0000
0010
0100
0010
0001
0100
0010
,  // measure 37
0000
0100
0010
0001
0010
1000
0100
1000
,  // measure 38
0100
0000
0010
0100
0010
0001
0100
0010
,  // measure 39
0000
0100
0010
0001
0010
0100
0001
0010
,  // measure 40
0001
0000
0010
0001
0100
0001
0100
0001
,  // measure 41
0100
0000
0010
1000
0100
1000
0100
1000
,  // measure 42
0100
0000
0100
0010
0100
1000
0010
0100
,  // measure 43
0000
0010
0100
1000
0100
0010
0000
0010
,  // measure 44
1000
0000
0100
0010
0100
1000
0010
0100
,  // measure 45
0000
0010
0100
1000
0100
0001
0010
0001
,  // measure 46
0010
0000
0100
0010
0100
1000
0010
0100
,  // measure 47
0000
0010
0100
1000
0100
0010
1000
0100
,  // measure 48
1000
0000
0100
1000
0010
1000
0010
1000
,  // measure 49
0010
0000
0100
0010
1000
0010
1000
0010
,  // measure 50
0100
0001
0100
0001
0010
0001
0010
0001
,  // measure 51
0000
0010
0100
1000
0010
0100
1000
0100
,  // measure 52
0110
0000
0110
0000
0100
0001
0010
0001
,  // measure 53
0000
0100
0001
1000
0100
0001
0100
0010
,  // measure 54
0110
0000
0110
0000
0100
1000
0010
1000
,  // measure 55
0000
0100
0001
0100
1000
0010
0001
0010
,  // measure 56
1000
0000
0001
0010
0100
0010
0100
0010
,  // measure 57
0100
0000
1000
0100
0010
0100
0010
0100
,  // measure 58
0010
0000
0010
0000
0001
0100
0010
0001
,  // measure 59
0000
0010
1000
0100
0001
0100
1000
0100
,  // measure 60
0110
0000
0110
0000
0100
0010
0001
0100
,  // measure 61
0000
0100
0010
0100
1000
0100
0001
0100
,  // measure 62
0110
0000
0110
0000
0100
0010
1000
0100
,  // measure 63
0000
0100
1000
0010
0100
0001
0010
0100
,  // measure 64
1000
0000
0100
0010
0001
0010
0001
0010
,  // measure 65
0001
0000
0100
0010
1000
0010
1000
0010
,  // measure 66
1000
0000
0000
1000
0000
0000
0010
0000
0100
0000
0000
0100
0000
0000
0001
0000
0010
0000
0000
0010
0000
0000
1000
0000
0010
0000
0000
0010
0000
0000
0001
0000
,  // measure 67
0100
0000
0000
0100
0000
0000
0010
0000
1000
0000
0000
1000
0000
0000
0001
0000
0010
0000
0000
0010
0000
0100
1000
0010
0100
0000
0010
0000
1000
0000
0100
0000
,  // measure 68
0010
0000
0000
0010
0000
0000
0001
0000
0100
0000
0000
0100
0000
0000
0010
0000
1000
0000
0000
1000
0000
0000
0100
0000
0010
0000
0000
0010
0000
0000
0001
0000
,  // measure 69
0100
0000
0000
0100
0000
0000
0001
0000
0010
0000
0000
0010
0000
0000
0100
0000
1000
0000
0000
1000
0000
0100
0001
0100
1000
0010
1000
0010
0100
0001
0100
0001
,  // measure 70
0110
0101
1100
0110
0011
0110
1100
1010
,  // measure 71
0101
1001
1100
0110
0011
0101
1010
0110
,  // measure 72
0101
1001
1100
0110
0011
0101
0110
1001
,  // measure 73
1001
0000
0110
0000
0100
1000
0100
0010
0001
0000
1000
0000
0010
0000
0100
0000
,  // measure 74
0110
1010
0011
0110
1100
0110
0011
0101
,  // measure 75
1010
1001
0011
0110
1100
1010
0101
0110
,  // measure 76
1010
1001
0011
0110
1100
1010
0110
1001
,  // measure 77
1000
0100
0010
0001
1000
0100
0010
0001
1000
0001
0100
0010
1000
0001
0100
0010
,  // measure 78
1000
0100
1000
0100
0010
0001
0010
0001
,  // measure 79
0100
0001
0100
0001
0100
0010
0100
0010
,  // measure 80
1000
0010
1000
0010
0100
0001
0100
0001
,  // measure 81
0010
0001
0010
0001
0010
0100
0010
0100
,  // measure 82
1000
0001
1000
0001
0100
0001
0100
0001
,  // measure 83
0100
0010
0100
0010
1000
0010
1000
0010
,  // measure 84
1000
0100
0010
0100
0010
0001
0010
0100
,  // measure 85
1000
0100
0001
0100
1000
0010
0100
0001
,  // measure 86
0100
0001
0100
0001
0010
0001
0010
0001
,  // measure 87
0010
0100
0010
0100
1000
0100
1000
0100
,  // measure 88
1000
0001
1000
0001
0100
0001
0100
0001
,  // measure 89
0100
0010
0100
0010
1000
0010
1000
0010
,  // measure 90
0100
0010
0100
0010
0100
0001
0100
0001
,  // measure 91
0010
0100
0010
0100
1000
0100
1000
0100
,  // measure 92
0010
0001
0010
0001
0100
0010
0100
0010
,  // measure 93
0100
0001
0010
1000
0010
0001
1000
0010
,  // measure 94
0100
0100
0001
0010
1000
0010
0001
0100
,  // measure 95
0001
0100
1000
0100
0001
1000
0100
1000
,  // measure 96
1010
0110
0101
0011
,  // measure 97
0011
0000
0101
0000
0110
0000
1010
0010
,  // measure 98
1000
1000
0100
0010
1000
0010
0100
1000
,  // measure 99
0001
0100
1000
0100
0001
0100
0010
0100
,  // measure 100
0101
0110
1010
1100
,  // measure 101
1100
0000
1010
0000
0110
0000
0101
0001
,  // measure 102
0010
0010
0001
0100
1000
0100
0001
0010
,  // measure 103
0001
0010
1000
0010
0001
1000
0010
1000
,  // measure 104
1010
0110
0101
0011
,  // measure 105
0011
0000
0101
0000
0110
0000
1010
1000
,  // measure 106
0100
0001
0100
1000
0010
0100
1000
0100
,  // measure 107
0001
0010
1000
0010
0100
0001
0100
1000
,  // measure 108
0010
0001
0010
1000
0100
0010
1000
0010
,  // measure 109
0001
0100
1000
0100
0010
0001
0010
1000
,  // measure 110
0002
0000
0003
0000
;
