#TITLE:Taken By Feelings;
#SUBTITLE:;
#ARTIST:TBP feat. Srzsmack;
#TITLETRANSLIT:;
#SUBTITLETRANSLIT:;
#ARTISTTRANSLIT:;
#GENRE:;
#CREDIT:;
#BANNER:Taken By Feelings-bn.jpg;
#BACKGROUND:Taken By Feelings-bg.jpg;
#LYRICSPATH:.lrc;
#CDTITLE:;
#MUSIC:Taken By Feelings.ogg;
#OFFSET:-0.099;
#SAMPLESTART:78.735;
#SAMPLELENGTH:12.000;
#SELECTABLE:YES;
#BPMS:0.000=128.000;
#STOPS:;
#BGCHANGES:;
#KEYSOUNDS:;

//---------------dance-single - ----------------
#NOTES:
     dance-single:
     :
     Hard:
     8:
     0.446,0.528,0.326,0.018,0.208:
0000
0000
0000
0000
,
0000
0000
0000
0000
,
0000
0000
0000
0000
,
0000
0000
0000
0000
,
1000
0000
1000
0000
1000
0001
1000
0000
,
M001
0000
0001
0000
0001
0100
0001
0000
,
0M10
0000
0010
0000
0010
1000
0100
0000
,
0M10
0101
0001
1100
,
0010
0000
1000
0100
0010
0100
1000
0000
,
0010
0000
1001
0000
0100
0001
0010
0100
,
0001
1010
0100
1001
,
0001
0100
0100
0000
0M10
0000
1001
0000
,
1000
0100
0001
0100
1000
0100
0001
0000
,
0100
0000
0010
0000
1000
0001
1000
0000
,
1100
0011
0101
1010
,
0110
1001
0100
1010
,
1000
0100
0000
0100
1000
0000
0010
0100
,
0001
0010
0000
0001
1000
0000
1000
0100
,
1000
0010
0000
0100
0010
0000
0011
0000
,
0001
0100
0000
0100
0010
0000
1001
0000
,
1000
0000
0010
0100
0010
0000
0010
0001
,
0100
0001
0000
0001
1000
0000
0010
1000
,
0100
0010
0000
0001
0100
0000
1001
0000
,
0000
0010
0000
0100
0010
0000
1001
0000
,
1000
0000
0100
0000
0010
0001
0010
0000
,
M001
0000
0100
0000
0010
1000
0100
0000
,
0010
1000
0000
1000
0001
0000
1001
0000
,
0010
0100
0000
0100
0010
0000
0011
0000
,
0001
0100
0000
0100
0001
0000
0001
0010
,
0100
1000
0000
1000
0100
0000
0010
0100
,
0010
0100
0000
1000
0001
0000
1001
0000
,
0010
1000
0000
1000
0100
0010
0001
1000
,
1001
0000
0000
0000
0MM0
0000
0000
0000
1000
0000
0000
0010
0000
0000
0100
0000
,
0010
0000
0000
0001
0000
0000
0001
0000
0000
1001
0000
0000
0000
0000
0000
0000
,
1111
00M0
0M00
000M
,
M000
00M0
0M00
000M
,
1000
0000
1000
0000
1000
0000
1000
0000
1000
0000
0000
0010
0000
0000
0100
0000
,
0010
0000
0000
1001
0000
0000
0101
0000
0000
1010
0000
0000
1000
0000
0100
0000
,
1000
0000
0000
0010
0000
0000
0100
0000
0001
0000
0000
0010
0000
0000
1000
0000
,
0001
0000
0000
1001
0000
0000
0010
0000
0010
0000
0000
0100
0000
0000
1000
0000
,
0100
0000
0000
0010
0000
0000
0100
0000
0010
0000
0000
0001
0000
0000
1000
0000
,
1000
0000
0000
1001
0000
0000
1000
0000
1001
0000
0000
0001
0000
0000
1000
0000
,
0010
0000
1000
0100
0000
0000
0010
0000
0100
0000
0001
1000
0000
0000
0010
0000
,
1000
0000
0001
1000
0000
0000
0010
0000
1000
0000
0100
1000
0000
0000
0010
0000
,
0100
0000
0001
0100
0000
0000
0100
0000
0001
0000
0010
0100
0000
0000
0010
0000
,
1000
0000
0100
1000
0000
0000
0010
0000
1000
0000
0001
1000
0000
0000
0010
0000
,
1100
0000
1000
0100
0000
0000
1000
0000
0101
0000
0001
0100
0000
0000
0001
0000
,
0110
0000
0010
0100
0000
0000
0001
0000
1001
0000
1000
0001
0000
0000
1000
0000
,
1010
0000
1000
0100
0000
0000
0010
0000
0100
0000
0100
0001
0000
0000
0010
0000
,
1000
0000
0100
0010
0000
0000
0100
0000
1000
0000
0000
1000
0000
0000
1000
0000
,
0010
0000
0000
0100
0000
0000
0001
0000
0010
0000
0000
0001
0000
0000
0010
0000
,
0100
0000
0000
1000
0000
0000
0001
0000
1000
0000
0000
0010
0000
0000
1000
0000
,
0100
0000
0000
0100
0000
0000
0010
0000
0001
0000
0000
0001
0000
0000
0010
0000
,
0100
0000
0000
0100
0000
0000
1000
0000
0010
0000
0000
0010
0000
0000
0001
0000
,
1000
0000
0000
1000
0000
0000
0001
0000
1000
0000
0000
1001
0000
0000
0010
0000
,
0100
0000
0000
0100
0000
0000
1000
0000
1000
0000
0000
1000
0000
0000
0010
0000
,
1000
0000
0000
1000
0000
0000
0010
0000
0100
0000
0000
0001
0000
0000
0010
0000
,
1000
0000
0000
0100
0000
0000
0010
0000
1000
0000
0000
1000
0000
0000
1000
0000
,
2002
0000
0000
3003
0000
0000
0000
0000
;

//---------------dance-single - ----------------
#NOTES:
     dance-single:
     :
     Beginner:
     1:
     0.093,0.105,0.027,0.000,0.000:
0000
0000
0000
0000
,
0000
0000
0000
0000
,
0000
0000
0000
0000
,
0000
0000
0000
0000
,
1000
0000
0000
0000
,
0001
0000
0000
0000
,
0010
0000
0000
0000
,
1000
0000
0000
0000
,
0100
0000
0000
0000
,
1000
0000
0000
0000
,
0010
0000
0000
0000
,
0001
0000
0000
0000
,
1000
0000
0000
0000
,
0010
0000
0000
0000
,
1000
0000
1000
0000
,
0001
0000
0001
0000
,
0010
0000
0000
0000
,
0100
0000
0000
0000
,
1000
0000
0000
0000
,
0010
0000
0000
0000
,
0100
0000
0000
0000
,
0001
0000
0000
0000
,
1000
0000
0000
0000
,
0100
0000
0000
0000
,
0010
0000
0000
0000
,
0001
0000
0000
0000
,
1000
0000
0000
0000
,
0100
0000
0000
0000
,
0010
0000
0000
0000
,
1000
0000
0000
0000
,
0001
0000
0000
0000
,
1000
0000
0000
0000
,
1001
0000
0000
0000
,
1000
0000
0000
0000
,
0110
0000
0000
0000
,
0000
0000
0000
0000
,
1000
0000
0000
0000
,
0001
0000
0000
0000
,
0010
0000
1000
0000
,
1000
0000
0010
0000
,
0001
0000
0001
0000
,
0100
0000
1000
0000
,
0010
0000
0100
0000
,
1000
0000
0010
0000
,
0001
0000
0100
0000
,
0010
0000
1000
0000
,
0100
0000
0010
0000
,
0001
0000
1000
0000
,
0100
0000
0010
0000
,
0001
0000
0010
0000
,
0100
0000
0000
0000
,
1000
0000
0000
0000
,
0100
0000
0000
0000
,
0010
0000
0000
0000
,
0001
0000
0000
0000
,
1000
0000
0000
0000
,
0100
0000
0000
0000
,
0010
0000
0001
0000
,
1001
0000
0000
0000
;

//---------------dance-single - ----------------
#NOTES:
     dance-single:
     :
     Easy:
     3:
     0.184,0.210,0.054,0.000,0.000:
0000
0000
0000
0000
,
0000
0000
0000
0000
,
0000
0000
0000
0000
,
0000
0000
0000
0000
,
1000
0100
0010
0000
,
1000
0100
0010
0000
,
0001
1000
0001
0000
,
0100
0000
0010
0000
,
0010
1000
0010
0000
,
0100
0001
0100
0000
,
0010
0100
0010
0000
,
1000
0000
0001
0000
,
1000
0100
0010
0001
,
0010
1000
0001
1000
,
1001
0000
0001
0000
,
1001
0000
0100
0000
,
0110
0000
1000
0000
,
0100
0000
0010
0001
,
0010
0000
0100
0000
,
1000
0000
0010
0000
,
0001
0000
0001
0100
,
1000
0000
0010
0000
,
0100
0000
1000
0010
,
0001
0000
0010
0000
,
0100
0000
1000
0001
,
1000
0000
0100
0000
,
0100
0000
1000
0010
,
1000
0000
1000
0000
,
0100
0000
0100
0001
,
0010
0000
0010
0000
,
0001
0000
0001
1000
,
0001
0000
1000
0000
,
1001
0000
1000
0000
,
1000
0000
1000
0000
,
1001
0000
0000
0000
,
0000
0000
0000
0000
,
1000
0100
0010
0000
,
0100
0000
0010
0000
,
0001
0010
0100
0000
,
1000
0000
0100
0000
,
1000
0100
0010
0000
,
0100
0000
0001
0000
,
1000
1000
0001
1000
,
0001
0000
0001
0000
,
0010
0000
0010
0000
,
0100
0000
0100
0000
,
0001
0001
0010
0100
,
1000
0000
0010
0000
,
0100
0000
1000
0000
,
0010
0000
0001
0000
,
0010
0100
0001
1000
,
0010
0000
0100
0000
,
1000
0000
0100
0000
,
0010
0000
0001
0000
,
1000
0001
0010
0100
,
0010
0000
1000
0000
,
0100
0000
0010
0000
,
0001
0100
1000
0010
,
1001
0000
0000
0000
;

//---------------dance-single - ----------------
#NOTES:
     dance-single:
     :
     Medium:
     6:
     0.363,0.425,0.154,0.027,0.149:
0000
0000
0000
0000
,
0000
0000
0000
0000
,
0000
0000
0000
0000
,
0000
0000
0000
0000
,
1000
0010
0100
0001
,
0010
0000
0100
0000
1000
0001
1000
0000
,
0100
0000
0100
0000
0100
1000
0010
0000
,
0100
1001
0010
0010
,
0001
0000
1000
0010
0000
0100
0000
0000
,
1000
0010
0000
0000
0100
0010
0000
0000
,
1000
0000
1000
0000
1001
0000
0110
1000
,
0100
0010
0000
0000
0100
0000
0101
0000
,
0001
0010
0100
1000
0100
0010
0000
0000
,
0000
1000
0000
0000
0MM0
0000
0000
0000
M00M
0000
0000
0000
0MM0
0000
0000
0000
,
1100
0101
1100
1010
,
0110
1010
1100
0011
,
0100
0010
0000
1000
0001
0000
0100
0000
,
0010
1000
0000
1000
0100
0000
0010
0000
,
0100
0001
0000
0010
0100
0000
1001
0000
,
0000
0010
0000
1000
0001
0000
0101
0000
,
0000
0010
0000
1000
0001
0000
0100
0000
,
0000
0010
0000
1000
0001
0000
0100
0000
,
0010
1000
0000
0100
0010
0000
0001
0000
,
0001
0100
0000
0010
1000
0000
1001
0000
,
1000
0000
0100
0000
0010
0000
0001
0100
,
0001
0010
1000
0010
,
0001
1000
0001
0000
0100
0000
0010
0000
,
1000
0000
0010
0000
1000
0100
0010
0000
,
1000
0000
0100
0000
0001
0100
0001
0000
,
0010
0000
0100
0000
1000
0001
1000
0000
,
0100
0000
0100
0000
0100
1000
0010
0000
,
0001
0000
0010
0000
0100
0010
0002
0000
,
0000
0000
0000
0000
0000
0000
0000
0000
1003
0000
0000
1000
0000
0000
0010
0000
,
0100
0000
0000
0001
0000
0000
1000
0000
0000
0001
0000
0000
0000
0000
0000
0000
,
200F
0M00
00M0
000M
,
0M00
00M0
000M
3M00
,
1000
0000
1000
0000
0001
0000
0001
0000
0010
0000
0000
0100
0000
0000
0010
0000
,
0100
0000
0000
1000
0000
0000
0010
0000
0000
0100
0000
0000
0001
0000
0001
0000
,
1000
0000
0000
0100
0000
0000
0100
0000
1000
0000
0000
1000
0000
0000
0010
0000
,
0100
0000
0000
0100
0000
0000
0100
0000
0001
0000
0000
0001
0000
0000
0010
0000
,
0100
0000
0000
1000
0000
0000
0010
0000
1000
0000
0000
0100
0000
0000
0010
0000
,
0001
0000
0000
0001
0000
0000
0001
0000
1000
0000
0000
1000
0000
0000
1000
0000
,
0100
0000
0010
0000
0001
0100
0001
0000
,
0010
0000
0100
0000
1000
0001
1000
0000
,
0010
0000
0101
0000
0010
0100
1000
0000
,
0010
0000
1100
0000
1000
0100
0010
0000
,
0001
0100
0001
0000
0010
0000
0010
0000
,
1000
0001
1000
0000
0100
0000
0100
0000
,
1000
0010
1000
0000
0100
0000
0010
0000
,
1000
0000
0000
0001
0000
0000
1000
0000
0010
0000
0000
1000
0000
0000
0100
0000
,
0010
0000
0000
0010
0000
0000
1000
0000
0001
0000
0000
0001
0000
0000
0100
0000
,
0001
0000
0000
0001
0000
0000
0010
0000
1000
0000
0000
1000
0000
0000
0100
0000
,
0100
0000
0000
0100
0000
0000
0001
0000
0001
0000
0000
0010
0000
0000
0010
0000
,
0001
0000
0000
0001
0000
0000
0100
0000
1000
0000
0000
0010
0000
0000
0100
0000
,
0001
0000
0000
0100
0000
0000
1000
0000
0100
0000
0000
0001
0000
0000
0100
0000
,
1000
0000
0000
0010
0000
0000
0001
0000
0010
0000
0000
1000
0000
0000
0010
0000
,
0001
0000
0000
1000
0000
0000
0100
0000
0010
0000
0000
0001
0000
0000
0010
0000
,
0100
0000
0000
1000
0000
0000
0010
0000
0001
0000
0000
0001
0000
0000
0001
0000
,
0002
0000
0000
0000
0000
0003
0000
0000
;

//---------------dance-single - ----------------
#NOTES:
     dance-single:
     :
     Challenge:
     10:
     0.680,0.666,0.136,0.136,0.706:
0000
0000
0000
0000
,
0000
0000
0000
0000
,
0000
0000
0000
0000
,
0000
0000
0000
0000
,
0010
0000
0100
0000
0001
0100
0001
0000
0010
0000
0100
0000
0010
1000
0100
0000
,
0010
0000
0100
0000
0001
0010
0100
0000
0010
0000
0100
0000
1000
0100
0010
0000
,
0100
0000
1000
0000
0100
0001
0100
0000
0010
0000
0100
0000
0001
1000
0001
0000
,
1000
0000
0100
0000
1000
0100
1000
0000
0010
0000
0100
0000
0010
1000
0001
0000
,
1000
0000
0010
0000
1000
0100
0010
0000
0100
0000
0010
0000
0001
1000
0100
0000
,
0001
0000
0100
0000
0010
1000
0100
0000
0001
0000
0100
0000
1000
0100
0001
0000
,
0010
0000
0010
0000
1000
0100
0010
0000
0001
0000
0001
0000
0010
0100
1000
0000
,
0010
0100
0001
0010
0100
1000
0010
0100
,
1000
0100
0010
0010
0001
0100
0001
0001
,
0010
0100
1000
1000
0010
1000
0010
0010
,
220M
0010
0001
3310
,
M202
0010
1000
0313
,
1MMM
0000
0000
0000
0010
0000
0100
0000
0010
0000
0000
0000
0001
0100
0001
0000
,
0010
0000
0100
0000
0M00
0000
0010
0000
1000
0100
0010
0000
0100
0000
0010
0000
,
0100
0000
0001
0000
0M00
0000
0001
0010
0100
0000
1000
0000
0100
0000
M00M
0000
,
0010
0000
0100
0000
1000
0000
0001
1000
0001
0000
0100
0000
0100
0000
0M0M
0000
,
0010
0000
1000
0000
0100
0000
0010
1000
0010
0000
1000
0000
0100
0000
00MM
0000
,
0100
0000
0001
0000
0010
0000
0001
1000
0100
0000
0010
0000
0100
0000
MM00
0000
,
0010
0000
0010
0000
0010
0000
1000
0100
0010
0000
0100
0000
0100
0000
M0M0
0000
,
0001
0000
0001
0000
0001
0000
0010
0100
1000
0000
0100
0000
0010
0000
0M0M
0000
,
1000
0000
0001
0000
1000
0000
0010
1000
0001
0000
1000
0000
1000
0000
0M0M
0000
,
0010
0000
0100
0000
0010
0000
1000
0010
1000
0000
0100
0000
0100
0000
0100
0000
,
0010
0000
0001
0000
0010
0000
0001
0010
0001
0000
0001
0000
0001
0000
M0M0
0000
,
0100
0000
0100
0000
0010
0000
1000
0001
1000
0000
1000
0000
1000
0000
0MM0
0000
,
1000
0000
0100
0000
1000
0000
0010
1000
0010
0000
1000
0000
1000
0000
1MM0
0000
,
0010
0000
0100
0000
0001
0000
0100
0001
0100
0000
0100
0000
0100
0000
0010
0000
,
1000
0000
0010
0000
1000
0000
0100
1000
0100
0000
1000
0000
1000
0000
1000
0000
,
0010
0000
0100
0001
1000
0000
0010
0000
1000
0000
0001
0000
1000
0000
0100
0000
,
2002
0000
0000
0000
0000
0000
3003
0000
1001
0000
0000
0101
0000
0000
1010
0000
,
0101
0000
0000
0011
0000
0000
1100
0000
0000
1010
0000
0000
0000
0000
0000
0000
,
1111
MMMM
0000
MMMM
0000
MMMM
0000
MMMM
,
0000
MMMM
0000
MMMM
0000
MMMM
0000
MMMM
,
1000
0000
1000
0000
0001
0000
0001
0000
0200
0000
0000
0320
0000
0000
2030
0000
,
3002
0000
0000
0000
0000
0000
0000
0000
0000
0103
0000
0000
0000
0000
0000
0000
0000
0000
0102
0000
0000
0000
0000
0000
0000
0000
0000
0013
0000
0000
0000
0000
0000
0000
0000
0000
1000
0000
0000
0010
0100
0000
0001
0000
1000
0100
0000
0000
,
0010
0001
0100
1000
0000
0010
1000
0010
1000
0000
0010
0100
0000
0001
0100
0001
,
0100
0000
0010
0100
0000
0100
0010
0100
0010
0000
1000
0100
0000
0010
1000
0010
,
1000
0000
1000
0010
0000
1000
0100
1000
0100
0000
0100
0010
0000
0100
0001
0100
,
0010
0000
0010
0100
0000
0100
0001
0100
1000
0000
0010
0100
0000
1000
0100
1000
,
0100
0000
0010
0100
0000
0100
0001
0100
0001
0000
0010
0100
0000
1000
0100
0010
,
0001
0000
0010
0100
0000
0001
0010
0100
1000
0000
0010
0100
0000
0100
0001
0100
,
0001
0000
0010
0100
0000
1000
0010
1000
0010
0000
1000
0100
0000
0100
1000
0100
,
1000
0000
0010
0100
0000
0100
0001
0100
0001
0000
0010
0100
0000
1000
0001
1000
,
0001
0000
0010
1000
0000
1000
0100
0010
0100
0000
0100
1000
0000
0100
0010
0100
,
0001
0000
0010
0100
0000
1000
0001
1000
0001
0000
1000
0001
0000
0100
0001
0100
,
0001
0000
0010
0100
0000
0100
0010
0100
0010
0000
1000
0100
0000
0100
1000
0100
,
0010
0000
0100
0001
0000
0100
0001
0000
1001
0000
0000
0101
0000
0000
1000
0001
,
1000
0000
0010
1000
0000
1000
0100
0010
0100
0000
0010
0100
0000
0100
0001
0010
,
0100
0000
0010
0001
0000
0010
0100
1000
0100
0000
0010
0100
0000
0100
0001
0100
,
0001
0000
0010
0100
0000
1000
0100
1000
0100
0000
0010
0100
0000
0100
0001
0100
,
0001
0000
0010
0100
0000
1000
0100
1000
0100
0000
0010
0100
0000
0001
1000
0M01
,
1000
0000
1000
00M1
0000
1000
0001
1M00
0001
0000
1000
00M1
0000
1000
0001
1M00
,
0001
0000
1000
00M1
0000
0001
1000
0M01
1000
0000
1000
00M1
0000
0001
0100
M001
,
0100
0000
0010
0100
0000
1000
0100
0010
0001
0000
0001
0100
0000
0010
1000
0001
,
1000
0000
0010
0100
0000
1000
0100
0000
0010
0000
0000
2200
00MM
0000
00M2
0000
,
0020
0000
0000
0000
0000
0000
0000
3333
;
