#TITLE:Rise of the Machines;
#SUBTITLE:;
#ARTIST:SkyMarshall Arts;
#TITLETRANSLIT:;
#SUBTITLETRANSLIT:;
#ARTISTTRANSLIT:;
#GENRE:;
#CREDIT:;
#BANNER:Rise of the Machines-bn.JPG;
#BACKGROUND:Rise of the Machines-bg.jpg;
#LYRICSPATH:;
#CDTITLE:;
#MUSIC:Rise of the Machines.ogg;
#OFFSET:-0.060;
#SAMPLESTART:30.240;
#SAMPLELENGTH:12.000;
#SELECTABLE:YES;
#BPMS:0.000=67.500,32.000=135.000;
#STOPS:32.000=1.340
;
#BGCHANGES:;
#KEYSOUNDS:;

//---------------dance-single - ----------------
#NOTES:
     dance-single:
     :
     Hard:
     7:
     0.452,0.536,0.542,0.077,0.017:
0000
0000
0000
0000
0000
0000
1000
0010
,
0100
0020
0000
0000
0001
0001
0001
0031
,
1000
0001
0200
0000
1000
0000
1000
0000
1000
0300
1000
0000
1010
0000
0110
0000
,
2002
0000
0000
3003
0110
0000
0010
0100
,
1000
0200
0010
0000
0010
0000
0310
0000
0001
0000
0010
0000
0011
0000
1100
0000
,
1002
0000
1000
1000
1000
0203
0010
0310
,
0100
0010
1000
0000
0100
0000
0010
0000
0001
0000
0010
0000
1001
0000
1010
0000
,
0011
0000
0010
0000
0100
0000
1000
0010
0001
0000
0010
0000
1000
0000
0010
0000
,
1001
0000
0010
1000
0100
0000
0010
0000
,
0001
0000
1000
0001
1000
0000
1MM1
0000
,
0101
0000
1MM1
0000
1010
0000
0010
0100
,
0010
0000
1000
0100
1000
0000
0010
0001
,
0010
0000
0100
1000
0010
0000
0010
0000
,
0001
1000
1000
M1M1
,
1001
0000
M1M1
0000
0010
0000
0100
1000
,
0100
0000
1010
0000
0100
0000
0010
0001
,
0010
0000
1000
0100
0010
0000
0001
0000
,
0001
0100
0010
1M1M
,
1001
0000
11MM
0000
0010
0000
0010
0100
,
0010
0000
1000
0100
1000
0000
0010
0001
,
0010
0000
0100
0001
0010
0000
1010
0000
,
0100
1001
0100
MM11
,
1100
1M1M
0100
0010
,
1000
0100
0100
0000
0010
0000
1000
0001
,
1000
0010
1000
0100
0001
0000
0011
0000
,
0100
1000
0010
1M1M
,
0110
0000
1MM1
0000
0101
0000
0010
0100
,
1000
0000
1000
0100
0010
0000
0001
0100
,
0001
0000
1000
0010
0100
0000
0010
0000
,
0010
0000
1000
0001
1000
0000
11MM
0000
,
0101
MM11
0010
0100
,
1000
0000
1100
0000
0010
0000
1000
0100
,
0100
0000
0010
0001
0010
0000
0100
0000
,
0010
1001
0100
M1M1
,
0110
0000
11MM
0000
0010
0000
1000
0100
,
0001
0000
0001
0100
1000
0000
0010
0100
,
0100
0000
1000
0001
0100
0000
0100
0000
,
1000
0000
1000
0010
0100
0000
0110
0000
,
1M1M
0011
0100
1001
,
1000
0100
0010
0000
0010
0000
0001
1000
,
0001
0100
0010
1000
0100
0000
0010
0000
,
0001
0000
0101
0000
0010
0000
1000
0010
,
1000
0100
0010
0001
,
1001
MM11
1100
1M1M
,
0110
0000
0010
0001
0010
0000
0100
1000
,
0010
0100
0001
0100
0010
1000
0010
0001
,
0100
1000
0010
0001
,
1000
1M1M
0110
MM11
,
1100
0000
1001
0000
1000
0000
0010
0100
,
0010
0000
0010
0000
0001
0000
0100
0001
,
0100
0110
0010
0100
,
MM11
0101
MM11
0101
,
1MM1
0000
0110
1000
0000
0100
0000
0010
,
0000
0001
0000
1000
0100
0010
0000
0010
,
0000
0001
0000
1000
0000
0010
0000
0001
,
0000
1000
0000
0010
0100
0001
1000
0010
,
0100
0010
2002
0000
0000
3003
0000
0000
;

//---------------dance-single - ----------------
#NOTES:
     dance-single:
     :
     Medium:
     5:
     0.311,0.315,0.086,0.172,0.000:
0000
0000
0000
0000
,
0000
0000
0000
0000
,
1000
0002
0000
0000
0M10
0M13
1000
0100
,
0020
0000
0000
0030
2000
0000
0000
0000
,
3010
1000
0000
0000
1000
0100
0010
0001
,
0110
0000
0200
0000
1300
0000
0010
0001
,
0010
1000
0000
0000
1000
0010
0100
0001
,
1002
0000
0000
10M0
20M0
0000
3003
0000
,
1001
0000
0010
0100
0010
0000
1000
0000
,
1000
0010
0100
0001
,
0010
1000
0200
0000
,
0000
0000
0000
0300
1000
0000
0010
0000
,
0100
0000
1000
0001
1000
0000
0000
0000
,
1000
0010
0100
0001
,
0001
0020
0000
0000
,
0000
0000
0230
0000
0000
0300
1000
0000
,
1001
0000
1000
0100
0010
0000
0001
0000
,
0001
0010
0100
1000
,
0010
0000
1001
0000
0000
0000
1000
0001
,
1000
0000
02M0
0000
0000
0300
0010
0100
,
0010
0000
1000
0100
0010
0000
0001
0000
,
0001
0010
0100
1000
,
0010
0002
0000
1000
,
1000
1000
2003
0000
0000
3000
0010
0000
,
0110
0000
1000
0010
0100
0000
0001
0000
,
0001
0010
1000
0010
,
0100
1000
0002
0000
,
0010
0000
0010
0010
0013
0000
0100
0000
,
0000
0000
1000
0010
1000
0000
0100
0000
,
0100
0010
0001
0100
,
1000
0020
0000
0100
,
0100
0000
M230
0000
0000
0300
1000
0000
,
1001
0000
1000
0001
0001
0000
0010
0000
,
0100
0001
0010
1000
,
0010
0000
M002
0000
0000
0000
1000
1000
,
1003
0010
0000
0100
,
1000
0000
0010
0100
0001
0000
0001
0000
,
0010
1000
0100
0010
,
0010
0000
0200
0000
0000
0000
0000
0300
,
1000
0001
0100
0000
0000
0000
0010
0000
,
1001
1000
1000
1000
,
0010
0100
0010
0000
0001
0000
0001
0000
,
0001
0000
0100
0000
0010
0000
0001
0010
,
0100
1000
1000
0010
,
0100
0000
0001
0000
1000
0000
0010
0001
,
0100
0000
0010
0000
1000
0000
1000
0100
,
0010
0000
0010
0000
0001
0000
1000
0001
,
1000
0010
1001
0100
,
1001
1000
0010
0100
,
0001
1000
1000
0000
0010
0000
0001
0000
,
0100
0001
1000
0010
,
1000
1000
0010
0100
,
0001
0000
0010
0000
0100
0000
1000
0100
,
1000
0000
0020
0000
0130
0000
0001
0010
,
0001
0000
0100
0000
0010
0000
1000
0001
,
0100
1000
0010
0002
,
2000
0000
0000
3003
0000
0000
0000
0000
;

//---------------dance-single - ----------------
#NOTES:
     dance-single:
     :
     Easy:
     3:
     0.191,0.193,0.060,0.000,0.000:
0000
0000
0000
0000
,
1000
0010
0001
1000
,
1001
0000
0010
0100
,
1000
0000
0010
0001
,
0110
0000
1000
0001
,
0001
0000
0010
0100
,
1000
0001
0000
0010
,
0100
0010
1000
0001
,
1001
1000
0010
0000
,
0100
0010
0001
0100
,
0100
0100
0100
0000
,
1000
0000
0001
0000
,
0010
0001
0100
0000
,
0010
0000
0001
1000
,
1000
0010
0000
0100
,
0000
1000
0000
0001
,
0000
1001
1000
0000
,
0010
0000
0100
0010
,
0010
0001
0000
1000
,
0000
0010
0000
1000
,
0000
0100
1000
0000
,
0010
0000
0001
1000
,
1000
0100
0000
0000
,
0010
0001
0000
0000
,
1000
0110
0100
0000
,
1000
0000
0010
0001
,
0001
1000
0001
0000
,
0010
0000
0100
0000
,
1000
0010
0001
0000
,
0100
0000
1000
0010
,
0010
0001
0000
1000
,
0000
0100
0000
0010
,
0001
1001
0000
1000
,
0000
1000
0000
0100
,
0100
0100
0000
0010
,
0000
0001
0000
1000
,
0000
0010
0010
0000
,
0001
0000
1000
0001
,
0001
1000
0000
1000
,
1000
1001
0000
0000
,
0000
0010
0000
0100
,
0000
1000
0000
0010
,
0000
0001
0000
0000
,
1000
1000
1000
1000
,
1000
0100
0000
0010
,
0000
0100
0000
0001
,
0000
0010
0000
0100
,
0000
0010
0001
0100
,
0000
0010
0000
0100
,
1000
0010
0000
1000
,
0000
0100
0000
0000
,
0001
0001
0001
1000
,
0001
1000
0000
0010
,
0100
0100
0000
0100
,
0000
0010
0000
1000
,
0000
0001
1000
0001
,
1000
0000
0000
0000
;

//---------------dance-single - ----------------
#NOTES:
     dance-single:
     :
     Beginner:
     1:
     0.076,0.073,0.052,0.000,0.000:
0000
0000
0000
0000
,
1000
0000
0000
0000
,
0001
0000
0000
0000
,
0010
0000
0000
0000
,
1000
0000
0000
0000
,
0010
0000
0000
0000
,
0001
0000
0000
0000
,
0010
0000
0000
0000
,
1001
0000
0000
0000
,
0010
0000
0000
0000
,
0000
0100
0000
0000
,
0000
1000
0000
0000
,
0000
0001
0000
0000
,
0000
0010
0000
0000
,
0000
0100
0000
0000
,
0000
1000
0000
0000
,
0000
0010
0000
0000
,
0000
0100
0000
0000
,
0000
0001
0000
0000
,
0000
1000
0000
0000
,
0000
0010
0000
0000
,
0000
0100
0000
0000
,
0000
1000
0000
0000
,
0000
0010
0000
0000
,
0000
0110
0000
0000
,
0000
1000
0000
0000
,
0000
0001
0000
0000
,
0000
0010
0000
0000
,
0000
0100
0000
0000
,
0000
1000
0000
0000
,
0000
0010
0000
0000
,
0000
0100
0000
0000
,
0000
1001
0000
0000
,
0000
0001
0000
0000
,
0000
1000
0000
0000
,
0000
0100
0000
0000
,
0000
0010
0000
0000
,
0000
0001
0000
0000
,
0000
1000
0000
0000
,
0000
0010
0000
0000
,
0000
1001
0000
0000
,
0000
1000
0000
0000
,
0000
0100
0000
0000
,
0000
0010
0000
0000
,
0000
0001
0000
0000
,
0000
1000
0000
0000
,
0000
0100
0000
0000
,
0000
0010
0000
0000
,
0000
0110
0000
0000
,
0000
1000
0000
0000
,
0000
0001
0000
0000
,
0000
0010
0000
0000
,
0000
0100
0000
0000
,
0000
1000
0000
0000
,
0000
0001
0000
0000
,
0000
0010
0000
0000
,
0000
1001
0000
0000
;

//---------------dance-single - ----------------
#NOTES:
     dance-single:
     :
     Challenge:
     11:
     0.823,1.000,0.576,0.060,0.731:
0000
0000
0000
0000
,
0010
0100
0010
1000
0001
1000
0001
0000
1000
0000
0100
0000
0010
0001
0010
0001
,
0010
0001
0100
0000
0100
0010
0100
0010
0100
1000
0001
1000
0101
0000
0011
0000
,
1100
0000
0010
0000
1000
0001
1000
0100
0010
0000
0001
0000
0001
0010
0100
1000
,
0100
0100
0100
0000
1000
0001
1000
0000
0010
1000
0010
0000
1000
0100
0010
0001
,
1000
0000
M1MM
0000
0001
0100
0001
0000
1000
0000
0001
0000
0010
0100
1000
0000
,
0001
0100
0010
0100
0001
0100
0010
0100
0001
0100
0010
0100
1000
0100
0010
0001
1000
0100
0010
0001
1000
0100
0010
0001
1000
0100
0010
0001
0010
0100
0001
1000
,
0010
0100
0001
1000
0001
0010
0100
1000
0001
0010
0100
1000
0001
0010
0001
0010
0001
0010
0001
0010
0001
0010
0001
0010
1000
0010
1000
0100
1000
0100
1000
0100
,
1001
0000
0000
0000
0010
0000
0100
0000
0001
0000
0100
0000
0010
0000
1000
0100
,
0010
0100
1000
0100
0010
1000
0001
1000
0010
0000
1000
0000
0101
0000
0001
0000
,
0011
0000
1000
0000
1001
0000
0010
0000
1010
0000
0100
0000
0010
0001
0010
0001
,
0100
0000
0010
0000
1000
0001
1000
0001
1000
0000
1000
0100
0010
0100
1000
0100
,
0010
0000
0100
0000
0001
0000
1000
0000
0100
0000
0010
0000
0001
0010
0001
0010
,
0100
0000
1000
0010
0100
1000
0001
1000
0001
0000
0100
0000
0011
0000
1000
0000
,
1100
0000
0010
0000
1010
0000
0100
0000
0010
0000
1000
0000
0100
0000
0010
0001
,
0010
0100
1000
0001
0100
0000
0010
0000
1000
0000
0100
0000
0010
0001
1000
0001
,
1010
0000
1000
0000
0100
0000
0010
0000
0011
0000
0010
0000
0100
0000
1000
0001
,
0100
0010
0100
1000
0100
0000
0010
0000
0100
0000
1000
0000
0011
0000
0100
0000
,
1010
0000
0001
0000
1001
0000
0010
0000
1000
0000
0010
0000
1000
0100
0010
0100
,
1000
0000
0100
0000
0010
0001
0010
0100
0010
0000
0001
0000
0100
0001
1000
0001
,
1000
0000
0001
0000
0100
0000
0010
0000
1000
0000
0100
0000
0010
1000
0010
1000
,
0010
0000
0100
0000
0001
1000
0001
0100
0001
0000
0100
0000
0011
0000
1000
0000
,
0101
0000
0010
0000
1010
0000
0100
0000
0010
0000
1000
0001
0100
0000
0010
0000
,
0011
0000
1100
0000
1010
0000
0100
0000
0010
0000
1000
0000
0010
0100
1000
0001
,
0100
0000
0010
0000
1010
0000
0100
0000
0011
0000
0100
0000
1000
0001
1000
0001
,
1000
0000
0100
0000
0010
1000
0100
0010
0001
0000
0100
0000
0011
0000
0100
0000
,
1001
0000
0010
0000
1100
0000
0100
0000
0101
0000
0010
0000
1000
0100
0010
0100
,
1000
0000
0100
0000
0001
0100
1000
0100
0001
0000
0010
0000
1000
0010
0001
0010
,
1000
0000
0010
0000
0100
0000
0001
0000
1001
0000
0010
0000
1000
0100
0010
0100
,
0001
0000
0100
0000
0010
0001
0010
0001
0010
0000
0100
0000
0011
0000
0100
0000
,
0101
0000
1000
0000
1010
0000
1000
0000
0100
0000
0010
0000
0001
0010
0001
0010
,
0001
0000
0100
0000
0001
0100
0001
0100
0001
0010
0100
0010
0001
0100
0010
0100
,
0010
0100
1000
0100
0011
1000
0010
1000
,
0100
0000
0100
0000
0010
0100
0001
0100
0001
0000
0100
0000
1001
0000
0100
0000
,
0101
0000
0001
0000
0011
0000
0010
0100
1000
0000
0010
0100
0001
0000
1000
0100
,
0001
0000
0001
1000
0001
0000
0010
1000
0100
0010
0001
0010
0100
1000
0100
0010
,
0100
0000
0001
0000
1000
0000
0100
0000
0010
0000
0001
0000
1000
0001
1000
0001
,
1000
0000
0010
0000
1000
0010
1000
1000
0100
0000
0010
0000
0011
0000
0100
0000
,
1001
0000
0010
0000
1010
0000
1000
0000
0100
0000
0001
0010
0100
1000
0001
0010
,
0100
1000
0001
0010
0100
1000
0100
0010
0100
0001
1000
0010
0101
0010
1000
0010
,
1000
0100
0010
0001
0100
0000
0010
0000
1000
0000
0100
0000
0010
0000
0100
0000
,
MM11
1000
1MM1
0010
1000
0100
0010
0001
,
0100
1000
11MM
0010
0100
0001
0100
0001
,
1MM1
0100
1MM1
0100
1MM1
0100
1MM1
0100
,
1MM1
0100
M1M1
2200
0000
0010
0000
0011
,
0000
0001
0000
0011
0000
0001
0000
3311
,
0000
0010
0100
1000
0100
0010
0001
0100
,
1M1M
0100
1MM1
0100
1MM1
0100
1MM1
0010
,
1M1M
0000
0001
0000
1000
0000
0010
1000
0010
0000
0100
0010
0100
0000
0001
0100
,
0001
0000
1000
0001
1000
0000
1000
0100
1000
0000
0010
0001
0010
0000
0010
1000
,
0010
0000
0100
0001
0100
0000
0010
0100
0010
0000
1000
0001
1000
0000
0100
0000
,
M1M1
0001
11MM
0001
11MM
0001
11MM
0001
,
11MM
0010
0100
0202
0000
0010
0000
1010
,
0000
0010
0000
1010
0000
0010
0000
1313
,
0000
0000
1000
0000
0100
0000
0010
0001
0010
0000
0100
0010
0100
0000
1000
0100
,
1000
0100
0001
0010
0100
1000
0000
MM20
,
0M02
2M00
0000
0000
0000
3033
0000
0000
;
