#TITLE:Party Rock Anthem;
#SUBTITLE:(High Ram Remix);
#ARTIST:LMAO remixed by SuperSampleStar;
#TITLETRANSLIT:;
#SUBTITLETRANSLIT:;
#ARTISTTRANSLIT:;
#GENRE:;
#CREDIT:;
#BANNER:Party Rock Anthem (High Ram Remix)-bn.jpg;
#BACKGROUND:Party Rock Anthem (High Ram Remix)-bg.jpg;
#LYRICSPATH:;
#CDTITLE:;
#MUSIC:Party Rock Anthem (High Ram Remix).ogg;
#OFFSET:-0.220000;
#SAMPLESTART:1.180000;
#SAMPLELENGTH:12.000000;
#SELECTABLE:YES;
#BPMS:0.000000=181.740005
,131.000000=90.870003
,163.000000=181.740005
;
#STOPS:
;
#BGCHANGES:;
#KEYSOUNDS:;
#ATTACKS:;

//---------------dance-single - ----------------
#NOTES:
     dance-single:
     :
     Hard:
     9:
     0.724209,0.677070,0.611990,0.502379,0.054805,433.000000,67.000000,55.000000,65.000000,6.000000,0.000000,0.724209,0.677070,0.611990,0.502379,0.054805,433.000000,67.000000,55.000000,65.000000,6.000000,0.000000:
0000
0000
0000
0000
,
0000
0000
0000
0000
,
0000
0000
0000
0000
,
0000
0000
0000
0000
,
0000
0000
0000
0000
0000
0000
0100
0001
,
0100
1000
0100
0001
0100
1000
0100
0001
,
0100
1000
0100
0010
0100
0010
1001
0000
,
0101
00M0
0010
1000
0010
0001
0010
1000
,
0010
0001
0010
0100
0001
0100
0101
0000
,
0011
0M00
0001
0100
1000
0100
0001
0010
,
1000
0010
0001
0100
1001
0000
0011
00M0
,
1100
0000
1000
0100
0010
0001
1000
0100
,
0010
0001
0010
0100
0010
0001
0011
0000
,
0101
00M0
0001
1000
0100
0010
1000
1000
,
0001
0001
1000
0010
0100
1000
1010
0000
,
1100
0000
0010
1000
0100
0010
1000
1000
,
0001
0000
0001
0000
1000
0000
1000
0000
0001
1000
0001
1000
1001
0000
0000
0000
,
0101
M00M
0010
0100
1000
0000
1000
0100
,
0010
0100
1000
0100
0010
0000
01M0
0000
,
0011
0000
0100
0000
1010
0000
200M
3100
,
0010
0000
M002
0103
1000
0000
0010
0000
,
1001
0000
0010
1000
0100
0000
0010
200M
,
3100
0M20
0031
02M0
0310
0000
01M0
0000
,
0101
0000
0001
0000
1001
0000
200M
3100
,
1000
0000
0M20
0130
0010
0000
0M10
0000
,
1001
0000
1000
0000
0110
0000
0M20
0130
,
200M
3100
0M20
0031
2000
0000
3010
0000
,
1001
0000
1000
0010
0100
0000
M002
0013
,
0100
0000
2M00
3001
0100
0000
0M10
0000
,
1001
0000
1000
0100
0010
0000
0200
M320
,
0230
03M2
2003
30M2
2003
3000
0010
0000
,
1100
0000
1000
0000
0101
0000
1000
0001
,
1000
0000
0010
0000
1000
0000
0100
0000
0010
0100
1000
0010
1002
0000
0000
0000
,
1M00
0000
0010
M100
0013
0000
0012
0000
,
0M10
0000
1000
01M0
1003
0000
0120
0000
,
100M
0000
0001
010M
1030
0000
2100
0000
,
01M0
0000
0010
00M1
3100
0000
0012
0000
,
M020
0000
2030
32M0
2303
3000
1020
0000
,
M100
0000
0001
M100
0031
0000
1002
0000
,
2M00
0000
3M20
0230
0323
0000
1030
1000
,
0010
0000
0000
0000
0010
0000
0000
0000
0100
0000
0000
0000
0100
0000
0000
0000
1000
0000
0001
0000
1000
0010
0001
0100
1001
0000
0000
0000
0000
0000
0000
0000
,
0101
0000
0010
1000
0100
0010
0100
1000
,
0001
0100
0010
1000
0001
0100
0101
0000
,
0011
0M00
0001
0010
0100
1000
0100
0010
,
1000
0001
0100
0010
1000
0001
1001
0000
,
0110
000M
1000
0100
0001
0100
1000
0100
,
0010
0010
1000
0001
1000
0010
1100
0000
,
0101
M000
0010
0100
1000
0010
0100
0001
,
1000
0010
1000
0001
1000
0001
0101
0000
,
0011
0M00
0001
0010
0100
1000
0100
0010
,
0001
0010
0100
1000
0100
0010
0011
0000
,
0101
00M0
0001
0100
0001
0100
0010
0100
,
0010
1000
0010
1000
0010
1000
1100
0M00
,
0011
0000
0010
0100
0010
1000
0001
0001
,
1000
1000
0010
1000
0110
0000
1100
0000
,
0011
0000
0010
0100
1000
0100
0010
0010
,
1000
0000
1000
0000
0010
0000
0010
0000
0001
1000
0001
0100
1001
0000
0000
0000
,
0101
0000
0001
0100
0001
0000
0010
0100
,
0010
1000
0100
0010
0100
0000
1000
0000
,
0101
0000
0001
0000
1100
0000
200M
3100
,
0001
0000
0M20
0130
1000
0000
0010
0000
,
1001
0000
0100
0000
1001
0000
1000
2M00
,
302M
M230
032M
0100
0130
0000
01M0
0000
,
0011
0000
0100
0000
1010
0000
200M
3100
,
0001
0000
M002
0103
1000
0000
0100
0000
,
0011
0000
0100
0000
1010
0000
1000
2M00
,
302M
0100
M230
0010
0310
0000
1000
0000
,
1001
0000
0100
0000
1001
0000
0M20
0130
,
1000
0000
0M20
0130
0001
0000
0100
0000
,
0011
0000
0100
0000
1001
0000
0010
200M
,
3100
0M20
0130
M002
0103
0000
0010
0000
,
1001
0000
1000
0001
1000
0000
0010
0010
,
200M
0000
3MM2
0000
1003
0000
1000
0000
0010
0100
1000
0100
1001
0000
0000
0000
,
0110
1100
2002
0000
,
0000
3003
0000
0000
0000
0000
0000
0000
;

//---------------dance-single - ----------------
#NOTES:
     dance-single:
     :
     Medium:
     7:
     0.501075,0.465158,0.456709,0.200952,0.000000,312.000000,50.000000,22.000000,0.000000,0.000000,0.000000,0.501075,0.465158,0.456709,0.200952,0.000000,312.000000,50.000000,22.000000,0.000000,0.000000,0.000000:
0000
0000
0000
0000
,
0000
0000
0000
0000
,
0000
0000
0000
0000
,
0000
0000
0000
0000
,
0000
0000
0000
1000
,
0102
0000
0000
0010
0000
1000
0000
0013
,
0000
2100
0000
0000
3010
0000
0101
0000
,
0012
0000
0000
0010
0000
1000
0000
0010
,
0000
0103
0000
0000
1100
0000
0011
0000
,
0201
0000
0000
0001
0000
1000
0000
1000
,
0000
0301
0000
0000
1100
0000
0011
0000
,
0210
0000
0000
0010
0000
1000
0000
0001
,
0000
0310
0000
0000
0110
0000
1001
0000
,
0210
0000
0000
1000
0000
0320
0000
0100
,
0000
0031
0000
0000
0110
0000
1000
0000
,
0101
0000
0000
0002
0000
0023
0000
0230
,
0000
2300
0000
3000
0010
0000
1001
0000
,
0102
0000
0010
0000
1003
0000
0100
1000
,
0100
0000
0010
0100
0010
0000
0100
0000
,
0010
0000
0001
0000
0100
0000
0010
0001
,
0010
0000
1000
0100
1000
0000
0010
0000
,
1001
0000
0100
0000
1001
0000
0010
1000
,
0010
0000
0100
0001
0100
0000
0010
0000
,
1001
0000
0100
0000
0110
0000
1000
0100
,
0001
0000
0001
0100
1000
0000
0010
0000
,
1010
0000
0100
0000
1001
0000
1000
0100
,
1000
0000
0010
0001
0010
0000
0100
0000
,
1001
0000
0010
0000
1001
0000
1000
0010
,
0001
0000
0001
0010
1000
0000
0010
0000
,
1001
0000
0100
0000
1001
0000
0010
1000
,
0010
0000
0100
0010
0100
0000
1000
0000
,
0010
0000
0100
0001
0010
0000
1000
0100
,
0010
0000
1000
0001
2000
0000
3020
0000
,
1030
0000
0100
0001
0020
0000
1030
0000
,
0101
0000
0010
0100
0010
0000
2000
0000
,
3010
0000
1000
0100
0010
0000
0001
0000
,
1100
0000
0010
1000
0200
0000
0320
0000
,
1000
0000
1000
1000
1030
0000
0020
0000
,
0230
0000
0310
0001
0010
0000
1000
0100
,
1000
0000
0010
0100
0001
0000
0010
1000
,
0001
1000
0010
0010
0100
0100
1000
0000
,
0010
0000
1000
0100
0000
0010
0000
1001
,
0000
0101
0000
0000
0010
0000
1000
0000
,
1001
0000
0000
0001
0000
0010
0000
0100
,
0000
1000
0000
0000
1001
0000
1001
0000
,
1001
0000
0000
0010
0000
0100
0000
1000
,
0000
0001
0000
0000
1010
0000
0110
0000
,
1002
0000
0000
1000
0000
1000
0000
0010
,
0000
0013
0000
0000
1000
0000
1001
0000
,
0120
0000
0000
1000
0000
1000
0000
0001
,
0000
0031
0000
0000
0110
0000
1010
0000
,
0101
0000
0010
0100
0000
1000
0000
0010
,
0000
0100
0000
0000
0001
0000
0011
0000
,
1100
0000
0000
0010
0000
1000
0000
0010
,
0000
0001
0000
0000
1000
0000
0110
0000
,
1010
0000
0000
1000
0000
0010
0000
0001
,
0000
0010
0000
1000
0001
0000
1001
0000
,
0101
0000
0010
0000
0100
0000
1000
0100
,
1000
0000
0010
0100
0010
0000
0100
0000
,
0001
0000
0010
0100
1000
0000
0010
1000
,
0100
0000
0010
0001
0100
0000
0010
0000
,
0100
0000
1000
0100
0001
0000
0001
0100
,
1000
0000
1000
0010
0001
0000
0010
0000
,
0100
0000
1000
0010
0001
0000
0010
0000
,
0100
0000
1000
0001
1000
0000
0010
0000
,
1000
0000
0010
1000
1000
0000
0100
0010
,
0010
0000
0001
0100
0100
0000
0010
0000
,
1000
0000
0010
1000
0010
0000
0100
0000
,
0001
0000
0010
1000
0010
0000
1000
0000
,
0100
0000
1000
0100
1000
0000
0010
0001
,
0010
0000
1000
0010
1000
0000
0100
0000
,
0100
0000
0001
0100
0001
0000
1000
0000
,
0010
0000
0001
0010
1000
0001
1001
0000
;

//---------------dance-single - ----------------
#NOTES:
     dance-single:
     :
     Easy:
     4:
     0.314476,0.334539,0.127878,0.000000,0.000000,227.000000,14.000000,0.000000,0.000000,0.000000,0.000000,0.314476,0.334539,0.127878,0.000000,0.000000,227.000000,14.000000,0.000000,0.000000,0.000000,0.000000:
0000
0000
0000
0000
,
0000
0000
0000
0000
,
0000
0000
0000
0000
,
0000
0000
0000
0000
,
0000
0000
0000
0001
,
0010
1000
0010
0100
,
0001
1000
1001
0010
,
1000
0100
0100
0001
,
1000
0010
0110
1000
,
0010
0001
0100
0100
,
0001
1000
1001
0010
,
1000
0100
0010
0010
,
1000
0001
0110
1000
,
0010
0100
0001
0100
,
0100
0010
1001
1000
,
0010
0100
0001
0001
,
1000
0010
1000
1001
,
0000
1000
0001
1000
,
0001
1000
0001
0000
,
0010
0000
0100
0010
,
0100
0010
0100
0000
,
1000
0000
0001
1000
,
1000
0001
0001
0010
,
0000
0100
0000
1000
,
0100
1000
0100
0010
,
0000
0100
0000
0010
,
0010
0100
0100
1000
,
0000
0010
0000
0001
,
1000
0001
1000
0100
,
0000
0010
0000
0010
,
0100
0001
1000
0100
,
0000
0010
0000
1000
,
0010
0001
1000
1001
,
1000
0100
0010
0001
,
1001
1000
0100
0010
,
0001
0100
0110
0010
,
0100
0001
1001
1000
,
0100
0010
0001
0010
,
1000
0010
0110
1000
,
1000
0001
0001
1000
,
0100
0010
0001
0100
,
0010
1000
0010
0001
,
0100
1000
0010
0100
,
0100
1000
0010
0001
,
0001
0010
0100
1000
,
1000
0010
0100
1000
,
0001
1000
0010
1000
,
0010
0100
0001
0010
,
1000
0010
1000
0001
,
0000
0100
0000
1000
,
0000
0010
0000
0100
,
0000
0001
0000
0010
,
0000
1000
0000
1001
,
0000
0010
0000
0100
,
0100
0000
0010
0000
,
1000
0000
0010
0010
,
0001
0000
1001
0000
,
1000
0000
0010
1000
,
0100
0010
0100
0000
,
1000
0000
0001
0010
,
0010
0100
0100
0000
,
1000
0000
0010
0100
,
0010
1000
0001
0000
,
0010
0000
0100
0001
,
0100
0010
1000
0000
,
0100
0000
0010
1000
,
1000
0100
0100
0000
,
0010
0000
0001
1000
,
0001
0000
0010
0000
,
0100
0000
0010
0001
,
0001
0010
0010
0000
,
0100
0000
1000
0000
,
0010
0000
0001
0001
,
1000
1001
0000
0000
;

//---------------dance-single - ----------------
#NOTES:
     dance-single:
     :
     Beginner:
     1:
     0.100476,0.133816,0.054805,0.000000,0.000000,71.000000,6.000000,0.000000,0.000000,0.000000,0.000000,0.100476,0.133816,0.054805,0.000000,0.000000,71.000000,6.000000,0.000000,0.000000,0.000000,0.000000:
0000
0000
0000
0000
,
0000
0000
0000
0000
,
0000
0000
0000
0000
,
0000
0000
0000
0000
,
0000
0000
0000
1000
,
0000
0000
0000
0010
,
0000
0000
0000
0100
,
0000
0000
0000
1000
,
0000
0000
0000
0001
,
0000
0000
0000
0010
,
0000
0000
0000
0100
,
0000
0000
0000
1000
,
0000
0000
0000
0010
,
0000
0000
0000
0100
,
0000
0000
0000
0001
,
0000
0000
0000
0010
,
0000
0000
0000
1001
,
0000
0000
0000
1000
,
0000
0000
0000
0010
,
0000
0000
0000
0100
,
0000
0000
0000
0001
,
0000
0000
0000
0010
,
0000
0000
0000
1000
,
0000
0000
0000
0100
,
0000
0000
0000
1000
,
0000
0000
0000
0010
,
0000
0000
0000
0100
,
0000
0000
0000
0001
,
0000
0000
0000
0010
,
0000
0000
0000
1000
,
0000
0000
0000
0100
,
0000
0000
0000
1000
,
0000
0000
0000
0110
,
0000
1000
0000
0000
,
0001
0000
0000
1000
,
0000
0000
0000
0010
,
0000
0000
0000
0100
,
0000
0000
0000
1000
,
0000
0000
0000
0010
,
0000
0000
0000
0001
,
0000
0000
0000
1001
,
0000
0000
0000
1000
,
0000
0000
0000
0010
,
0000
0000
0000
0100
,
0000
0000
0000
0001
,
0000
0000
0000
1000
,
0000
0000
0000
0010
,
0000
0000
0000
0100
,
0000
0000
0000
1000
,
0000
0000
0000
0001
,
0000
0000
0000
0010
,
0000
0000
0000
0100
,
0000
0000
0000
1000
,
0000
0000
0000
0010
,
0000
0000
0000
0100
,
0000
0000
0000
1000
,
0000
0000
0000
1001
,
0000
0000
0000
0010
,
0000
0000
0000
1000
,
0000
0000
0000
0100
,
0000
0000
0000
0010
,
0000
0000
0000
0001
,
0000
0000
0000
1000
,
0000
0000
0000
0100
,
0000
0000
0000
0010
,
0000
0000
0000
0100
,
0000
0000
0000
1000
,
0000
0000
0000
0010
,
0000
0000
0000
0100
,
0000
0000
0000
0001
,
0000
0000
0000
1000
,
0000
0000
0000
0010
,
0000
0000
0000
1001
,
0000
1001
0000
0000
;

//---------------dance-single - ----------------
#NOTES:
     dance-single:
     :
     Challenge:
     11:
     0.930381,0.915587,0.337964,0.173549,0.566319,657.000000,37.000000,19.000000,127.000000,36.000000,0.000000,0.930381,0.915587,0.337964,0.173549,0.566319,657.000000,37.000000,19.000000,127.000000,36.000000,0.000000:
0000
0000
0000
0000
,
0000
0000
0000
0000
,
0000
0000
0000
0000
,
0000
0000
0000
0000
,
0000
0000
0000
0000
0000
0000
1000
0010
,
0100
0000
0010
M10M
0010
0000
1000
0000
0100
0000
0010
0000
0100
0000
1000
01MM
,
1000
0000
0100
0000
0010
0000
0001
0000
0100
0000
0010
1M0M
0010
0000
1000
0000
,
0100
0000
0010
0000
0001
0000
0100
M0M1
0100
0000
0010
0000
1000
0000
0100
0000
,
0010
0000
1000
0MM1
1000
0000
0010
0000
1000
0000
0100
0000
0010
0000
0100
0000
,
0010
0000
1000
01MM
0010
0000
0001
0000
0100
0000
0010
0000
1000
0000
0001
M1M0
,
0010
1000
0001
0100
1001
0101
0010
1000
,
0010
0000
1000
01MM
1000
0000
0100
0000
0010
0000
1000
0000
0001
0000
0100
0000
,
0010
0000
1000
01MM
1000
0000
0100
0000
0010
0000
0110
0000
1001
0000
0100
0000
,
0010
0000
0100
M0M1
0100
0000
0010
0000
1000
0000
0100
0000
0010
0000
1000
0000
,
0001
0000
1000
0MM1
1000
0000
0001
0000
1010
0000
0101
0000
0010
0000
0100
0000
,
1000
0000
0010
1M0M
0010
0000
1000
0000
0100
0000
0010
0000
M1MM
0000
M1MM
0000
,
0010
0000
1000
0000
0001
0000
1000
0000
0001
1000
0001
1000
0101
0000
0010
0000
,
1001
0000
0100
0000
0010
0000
1000
0000
0100
0000
0010
0000
1000
0010
1000
0010
,
1000
0100
1000
0100
1000
0100
1000
0000
1000
0000
0100
0000
0010
0000
0001
0000
,
0100
0000
0010
M10M
0010
0000
1000
0000
0100
0000
0001
M1M0
0001
0000
0100
0000
,
0010
0000
0100
0000
0010
100M
0100
0000
0010
0000
0100
0000
1000
0000
0100
0000
,
0010
0000
0001
0010
0001
0000
0010
0000
0100
0000
0010
0000
1000
0010
0001
0010
,
1000
0010
0001
0010
1000
0010
0001
0010
1000
0010
0001
0000
1000
0000
0100
0000
,
0010
0000
1000
M0M1
1000
0000
0010
0000
1000
0000
0100
0000
0M1M
1000
0010
0000
,
1000
0000
0100
0000
0001
M1M0
0010
0000
0100
0000
0001
0000
1000
0000
0010
1M0M
,
0100
0000
0010
0000
0100
0000
0010
1MM0
0001
0000
1000
0000
0001
0100
0001
0010
,
0001
0100
0001
1000
0001
0100
0001
1000
0010
0000
0100
0000
0010
0000
1000
0M10
,
1000
0000
0100
0000
0010
0000
1000
010M
0010
0000
0001
0000
0100
0000
0010
0000
,
0100
0000
10M0
0001
1000
0000
0100
0000
0010
0000
0001
0000
0100
M010
0100
0000
,
0001
0000
0010
0000
0100
0000
0010
0000
1000
0000
0100
0000
0010
1000
0010
0001
,
0010
0100
0010
1000
0010
0001
0010
0100
1000
0000
0100
0000
0010
0000
1000
0000
,
0001
0000
1000
01M0
1000
0000
0100
0000
0010
0000
1000
0000
0100
0000
0100
0000
,
0010
0000
1000
0001
1000
0010
1000
0010
1000
0100
0001
0010
2MM2
0000
0000
0000
,
0110
0000
01M0
0M10
01M0
3M13
22MM
0000
,
0011
0000
001M
001M
00M1
33M1
M2M2
0000
,
M010
0000
10M0
10M0
10M0
13M3
M22M
0000
,
100M
0000
M001
M001
100M
133M
2M2M
0000
,
010M
0000
0M01
0M01
010M
313M
MM22
0000
,
1M00
0000
M100
M100
1M00
1M33
22MM
0000
,
0011
0000
001M
001M
00M1
001M
33M1
0010
,
0110
0000
0000
0000
0011
0000
0000
0000
1100
0000
0000
0000
0110
0000
0000
0000
1000
0000
0001
0000
1000
0010
0001
0100
1001
0000
0000
0000
0100
0000
0000
0000
,
0101
0000
0100
0000
0010
0000
1000
0000
0100
0000
1000
01M0
1000
0000
0010
0000
,
0100
0000
0010
010M
0010
0000
0100
0000
1000
0000
0100
100M
0100
0000
0010
0000
,
0100
0000
0010
0001
0100
0000
0010
0000
1000
0000
0001
1000
0100
0000
0010
0000
,
0100
0000
0001
M100
0010
0000
1000
0000
0100
0000
0010
0000
1000
0000
0001
0000
,
1000
0000
0010
100M
0100
0000
0010
0000
0100
0000
0001
M100
0010
0000
1000
0000
,
0100
0000
0001
10M0
0001
0000
0100
0000
0010
0000
1000
0000
0100
0000
0010
0000
,
0010
0000
0001
1M00
0001
0000
0100
0000
0010
0000
1000
001M
1000
0000
0010
0000
,
1000
0000
0100
10M0
0100
0000
0010
0000
0100
0000
1000
0000
0100
0000
0010
0000
,
0001
0000
0100
M001
0100
0000
0010
0000
1000
0000
0010
1M00
0010
0000
1000
0000
,
0100
0000
0010
M100
0010
0000
1000
0000
1001
0000
1001
0000
0010
0000
1000
0000
,
0100
0000
0010
010M
1000
0000
0100
0000
0010
0000
1000
0M01
1000
0000
0010
0000
,
1000
0000
0010
100M
0010
0000
1000
0000
0101
0000
0011
0000
0001
0000
0010
0000
,
0100
0000
1000
010M
0010
0000
1000
0000
0001
0000
1000
0M01
1000
0000
0010
0000
,
1000
0000
0010
100M
0100
0000
0010
0000
1001
0000
1100
0000
0010
0000
0100
0000
,
1000
0000
0010
1M00
0010
0000
1000
0000
0100
0000
0002
0000
1003
0000
2000
0000
,
3001
0000
0002
0000
1003
0000
1000
0000
0001
0010
0001
0100
1001
0000
0010
0000
,
0101
0000
0010
0000
1000
0000
0010
0000
1000
0000
0100
0000
0001
1000
0001
0100
,
0001
1000
0001
0100
0001
1000
0010
0000
0100
0000
0010
0000
0100
0000
0010
0000
,
1000
0000
0010
1000
0100
0000
0010
0000
0100
0000
1000
0000
0010
1000
0010
0000
,
1000
0000
0001
0000
1000
0001
1000
0000
0001
0000
0100
0000
0010
0000
0100
0000
,
0010
0000
1000
0010
1000
0000
0100
0000
0010
0000
0100
0000
1000
0100
0001
0100
,
1000
0100
0001
0100
1000
0100
0001
0100
1000
0000
0100
0000
1000
0000
0010
0000
,
0100
0000
1000
0100
0010
0000
0100
0000
0001
0000
0100
0000
0010
1000
0010
0000
,
1000
0000
0001
0000
1000
0001
0100
0000
0010
0000
1000
0000
0100
0000
0010
0000
,
0001
0000
0010
0100
1000
0000
0100
0000
0010
0000
0100
0000
1000
0100
0010
0001
,
1000
0100
0010
0001
1000
0100
0001
0000
0010
0000
0100
0000
1000
0000
0010
0000
,
0100
0000
1000
0100
0010
0000
0100
0000
1000
0000
0010
0000
1000
0010
1000
0000
,
0001
0000
1000
0000
0001
0100
1000
0000
0100
0000
0010
0000
1000
0000
0001
0000
,
0100
0000
1000
0010
0001
0000
0010
0000
0100
0000
1000
0000
0001
0010
0100
1000
,
0001
0010
0100
1000
0001
0010
0001
0000
1001
0000
0101
0000
0010
0000
1000
0000
,
0100
0000
0010
1000
0100
0000
0010
0000
0001
0000
0100
0000
0010
1000
0010
0000
,
1000
0000
0100
0000
0010
0100
0001
0010
1000
0100
0010
0001
1001
0000
0000
0000
,
1001
22MM
00MM
00MM
,
00MM
33MM
0000
0000
;

//---------------dance-single - Import----------------
#NOTES:
     dance-single:
     Bill R edit:
     Edit:
     8:
     0.645916,0.540743,0.237488,0.283159,0.000000,438.000000,26.000000,31.000000,31.000000,0.000000,0.000000,0.645916,0.540743,0.237488,0.283159,0.000000,438.000000,26.000000,31.000000,31.000000,0.000000,0.000000:
// measure 0
0000
0000
0000
0000
,  // measure 1
0000
0000
0000
0000
,  // measure 2
0000
0000
0000
0000
,  // measure 3
0000
0000
0000
0000
,  // measure 4
0000
0000
0000
0000
0000
0000
0100
0001
,  // measure 5
0100
1000
0100
0001
0100
1000
0100
0001
,  // measure 6
0100
1000
0100
0010
0100
0010
0002
0000
,  // measure 7
0103
00M0
0010
1000
0010
0001
0010
1000
,  // measure 8
0010
0001
0010
0100
0001
0100
0002
0000
,  // measure 9
0023
0M00
0031
0100
1000
0100
0001
0010
,  // measure 10
1000
0010
0001
0100
0010
1000
0002
00M0
,  // measure 11
0203
0000
1300
0100
0010
0001
1000
0100
,  // measure 12
0010
0001
0010
0100
0010
0001
0002
0000
,  // measure 13
0203
00M0
0301
1000
0100
0010
1000
1000
,  // measure 14
0001
0001
1000
0010
0100
1000
0020
0000
,  // measure 15
2030
0000
3010
1000
0100
0010
1000
1000
,  // measure 16
0001
0001
1000
1000
0001
0001
1001
0000
,  // measure 17
0101
M00M
0010
0100
1000
0000
0010
1000
,  // measure 18
0100
0010
0001
0100
1000
0000
0010
1000
,  // measure 19
0100
0000
0010
0001
0100
1000
0010
1000
,  // measure 20
0100
0010
0100
1000
1001
0000
0010
1000
,  // measure 21
0100
0000
0010
0100
1000
0100
0010
0010
,  // measure 22
0001
0100
0001
0100
0010
1000
0001
0000
,  // measure 23
0101
0000
0001
0010
0100
0000
1000
0100
,  // measure 24
0010
0000
0001
0010
0100
0000
1000
0001
,  // measure 25
0100
0000
0010
1000
0100
0000
0010
1000
,  // measure 26
0001
0100
0010
1000
0110
0000
1000
0000
,  // measure 27
0010
0000
1000
0100
1000
0000
0010
0100
,  // measure 28
0001
0000
0010
0100
0001
0000
1000
0000
,  // measure 29
0101
0000
0001
0010
0100
0000
1000
0010
,  // measure 30
1000
0100
0010
0100
0001
0000
0010
0000
,  // measure 31
0110
0000
0001
0010
0100
0000
1000
0100
,  // measure 32
0010
0001
0010
0100
1000
0100
1002
0000
,  // measure 33
1000
0000
1000
1000
1003
0000
2100
0000
,  // measure 34
0100
0000
0100
0100
3100
0000
0102
0000
,  // measure 35
1000
0000
1000
1000
1003
0000
0120
0000
,  // measure 36
1000
0000
1000
1000
1030
0000
0012
0000
,  // measure 37
0100
0000
0100
0100
0103
0000
1020
0000
,  // measure 38
0100
0000
0001
0001
0130
0000
1100
0000
,  // measure 39
0011
0000
0010
1000
0001
0000
1000
0010
,  // measure 40
1000
0010
0100
0001
0010
1000
1001
0000
,  // measure 41
0010
0000
1000
0100
0010
0001
0100
1000
,  // measure 42
0010
1000
0001
0100
0010
1000
0M20
0000
,  // measure 43
023M
0000
1300
0100
1000
0100
0001
0100
,  // measure 44
0001
0100
0010
0100
0010
0100
200M
0000
,  // measure 45
3M02
0000
1003
0100
0010
0100
0010
0100
,  // measure 46
0010
0100
1000
0100
0010
0100
200M
0000
,  // measure 47
3M20
0000
0031
0100
0001
0100
0010
0100
,  // measure 48
0001
1000
0001
1000
0100
1000
02M0
0000
,  // measure 49
M302
0000
0013
0100
0001
1000
0010
0100
,  // measure 50
0001
1000
0010
0100
0001
1000
0M20
0000
,  // measure 51
023M
0000
1300
0100
1000
0100
0001
0100
,  // measure 52
0001
0100
1000
0100
1000
0100
M020
0000
,  // measure 53
203M
0000
3001
0100
1000
0100
0001
0100
,  // measure 54
1000
0100
0001
0100
2M00
0000
302M
0000
,  // measure 55
0130
0000
1000
0010
0100
0001
1000
0010
,  // measure 56
1000
0100
0010
1000
0100
0010
1000
0000
,  // measure 57
1100
0000
0010
1000
0100
0000
0100
0001
,  // measure 58
0010
1000
0001
0100
0010
0000
0100
0000
,  // measure 59
1001
0000
0M10
0000
1001
0000
1000
0100
,  // measure 60
1000
0000
0001
0100
0001
0000
0010
0000
,  // measure 61
0010
0000
1000
0001
1000
0000
1000
0100
,  // measure 62
0010
0001
1000
0100
0010
0000
0001
0000
,  // measure 63
0001
0000
0100
0001
0100
0000
0001
0010
,  // measure 64
0001
0000
0001
0100
0001
0000
0010
0000
,  // measure 65
1001
0000
0010
1000
0010
0000
0001
0010
,  // measure 66
0100
1000
0001
0010
0100
0000
0010
0000
,  // measure 67
0110
0000
1000
0010
0100
0000
02M0
0010
,  // measure 68
0310
0000
M002
1000
1003
0000
0010
0000
,  // measure 69
0100
0000
1000
0100
0010
0000
0001
0100
,  // measure 70
0001
0010
0001
0010
0001
0000
0010
0000
,  // measure 71
1001
0000
0010
1000
0100
0000
0100
0100
,  // measure 72
0010
0010
0001
1000
0001
1000
0101
0000
,  // measure 73
0011
1100
1001
MMMM
,  // measure 74
MMMM
0000
0000
0000
;
