#VERSION:0.81;
#TITLE:One Goal;
#SUBTITLE:;
#ARTIST:Eiffel 65;
#TITLETRANSLIT:;
#SUBTITLETRANSLIT:;
#ARTISTTRANSLIT:;
#GENRE:;
#ORIGIN:;
#CREDIT:;
#BANNER:One Goal-bn.jpg;
#BACKGROUND:One Goal-bg.jpg;
#PREVIEWVID:;
#JACKET:;
#CDIMAGE:;
#DISCIMAGE:;
#LYRICSPATH:;
#CDTITLE:;
#MUSIC:One Goal.ogg;
#OFFSET:-0.103000;
#SAMPLESTART:59.160000;
#SAMPLELENGTH:12.000000;
#SELECTABLE:YES;
#BPMS:0.000=130.000,
66.000=65.000,
82.000=130.000,
178.000=65.000;
#STOPS:;
#DELAYS:;
#WARPS:;
#TIMESIGNATURES:0.000=4=4;
#TICKCOUNTS:0.000=4;
#COMBOS:0.000=1;
#SPEEDS:0.000=1.000=0.000=0;
#SCROLLS:0.000=1.000;
#FAKES:;
#LABELS:0.000=Song Start;
#BGCHANGES:;
#KEYSOUNDS:;
#ATTACKS:
;

//---------------dance-single - ----------------
#NOTEDATA:;
#CHARTNAME:;
#STEPSTYPE:dance-single;
#DESCRIPTION:;
#CHARTSTYLE:;
#DIFFICULTY:Hard;
#METER:7;
#RADARVALUES:0.463856,0.541012,0.267508,0.018449,0.166039,321.000000,29.000000,2.000000,0.000000,0.000000,0.000000,0.000000,0.000000,0.463856,0.541012,0.267508,0.018449,0.166039,321.000000,29.000000,2.000000,0.000000,0.000000,0.000000,0.000000,0.000000;
#CREDIT:;
#NOTES:
// measure 0
0000
0000
0000
0000
,  // measure 1
0000
0000
0000
0000
,  // measure 2
1000
0100
0010
0001
0100
0000
0010
0000
,  // measure 3
1001
0000
1000
0010
0000
0100
0000
0010
,  // measure 4
0001
0010
0100
1000
1100
0000
1000
0100
,  // measure 5
0011
0000
0000
0000
1010
0000
0100
0010
,  // measure 6
1001
0000
0110
1010
,  // measure 7
1000
0100
0010
0000
0011
0000
1100
0000
,  // measure 8
0010
1000
0100
0001
0100
1000
0100
0010
,  // measure 9
0001
0010
0100
1000
0010
0100
0001
0010
,  // measure 10
1000
1000
0100
0100
0010
0001
0010
0001
,  // measure 11
0100
0001
0100
0010
0100
0010
1000
0010
,  // measure 12
1000
1000
0010
0010
0001
0100
0001
0100
,  // measure 13
0010
0100
0010
1000
0010
1000
0100
1000
,  // measure 14
0100
0010
0001
0010
0100
0000
1000
0000
,  // measure 15
0010
0001
1000
0000
1001
1000
0000
1000
,  // measure 16
0000
0000
0010
0000
0000
0000
0100
0000
1001
1000
0010
0100
0001
0000
0100
0000
,  // measure 17
0010
0001
0010
0100
0000
1000
0000
0010
0000
1000
0001
1000
0010
0000
1000
0100
,  // measure 18
0000
0010
0000
0001
0000
0100
0000
0010
0100
1000
0100
0010
0001
0000
0101
1000
,  // measure 19
0001
0000
0010
0000
0000
0000
1000
0100
0010
0100
1000
0010
0001
0100
0010
0100
,  // measure 20
0000
0000
1000
0000
0000
0000
1000
0000
0010
0100
0010
0000
0100
0010
0100
0000
1000
0000
0000
0000
0010
0000
0000
0000
0100
0000
0000
0000
0001
0000
0000
0000
,  // measure 21
0100
0000
0010
0000
1000
0001
0100
0010
,  // measure 22
0000
1000
0000
0100
0000
0010
0001
0010
,  // measure 23
0100
0000
1000
0010
0000
0001
0000
1000
,  // measure 24
0010
1000
0100
0010
0001
0100
1000
0010
,  // measure 25
0100
0000
0100
0000
0010
0001
1000
0001
,  // measure 26
0000
0100
0000
1000
0010
0001
0010
1000
,  // measure 27
0100
0010
1000
1001
0000
0000
0000
0000
,  // measure 28
1000
0100
0010
0001
0100
0000
0011
0000
,  // measure 29
1100
0000
0010
0100
0000
1000
0000
0010
,  // measure 30
1000
0001
0100
0010
0100
0000
1100
0000
,  // measure 31
1010
0000
0010
0001
0000
0100
0000
0001
,  // measure 32
0100
1000
0100
0001
0101
0000
0001
0010
,  // measure 33
1100
0000
0000
0000
1010
0000
0100
0010
,  // measure 34
1100
0000
1010
0110
,  // measure 35
1000
0001
1000
0000
0110
0000
0000
0000
,  // measure 36
1000
0100
0010
0100
0001
0001
0100
0010
,  // measure 37
0100
0001
0010
0100
0001
0010
0100
1000
,  // measure 38
0010
0010
0100
0100
1000
0001
1000
0001
,  // measure 39
1000
0010
1000
0100
0010
0001
0010
0100
,  // measure 40
1000
1000
0010
0010
0001
0010
0001
0100
,  // measure 41
0010
0100
0010
1000
0010
1000
0100
1000
,  // measure 42
0100
0010
0100
1000
0010
0000
0101
0000
,  // measure 43
0001
0010
0100
0000
1000
0000
0000
0000
,  // measure 44
1000
0000
0010
0000
1000
0000
0001
0000
1001
0000
0010
0000
0100
0000
1000
0100
,  // measure 45
0010
0000
0000
0000
0001
0010
0100
1000
0100
0000
0010
0000
1000
0000
0010
0001
,  // measure 46
0100
0000
0000
0000
0010
1000
0100
0010
0001
0000
0100
0001
0011
0000
0000
0000
,  // measure 47
1000
0000
0010
0100
1001
0000
0000
0000
0010
0000
1000
0000
0010
0001
1000
0000
,  // measure 48
2002
0000
0000
0000
0000
0000
0000
3003
;

//---------------dance-single - ----------------
#NOTEDATA:;
#CHARTNAME:;
#STEPSTYPE:dance-single;
#DESCRIPTION:;
#CHARTSTYLE:;
#DIFFICULTY:Medium;
#METER:5;
#RADARVALUES:0.295181,0.293048,0.166039,0.027673,0.000000,203.000000,18.000000,3.000000,0.000000,0.000000,0.000000,0.000000,0.000000,0.295181,0.293048,0.166039,0.027673,0.000000,203.000000,18.000000,3.000000,0.000000,0.000000,0.000000,0.000000,0.000000;
#CREDIT:;
#NOTES:
0000
0000
0000
0000
,
0000
0000
0000
0000
,
1000
0000
0010
0100
0001
0000
0010
0000
,
0001
0000
2000
0000
0000
3000
0010
0000
,
0100
0010
1000
0000
0100
0000
0010
0000
,
1001
0000
0100
0010
,
1001
0000
1000
1000
,
0001
1000
0001
0000
0100
0000
0000
0000
,
0010
1000
0010
0100
,
0001
1000
0010
1000
,
0010
1000
0100
0000
0010
0000
0001
0000
,
1000
0010
0100
0001
,
1000
0001
1000
0000
0010
0000
1000
0000
,
0010
1000
0100
0010
,
0001
0100
0101
1001
,
0101
1001
1001
0000
,
1000
0000
0010
0000
0100
0010
0001
1000
,
0010
0000
0100
0000
1000
1000
0010
0100
,
0001
0000
0001
0000
0001
0010
0100
1000
,
0010
0100
0000
1000
1000
0010
0001
1000
,
1001
1000
1000
1000
,
1000
0000
0010
0000
0100
0010
0100
0000
,
0000
0100
0010
0010
,
0010
0000
0010
0001
0010
0000
0000
0000
,
0001
0100
0100
0100
,
0100
0000
1000
0000
1000
0010
0100
0000
,
0000
1000
0010
0001
,
1000
0000
0010
0100
0000
0000
0000
0000
,
1000
0010
0001
0100
,
0010
0000
1000
0100
0000
0000
0100
0000
,
0010
0001
0100
0010
,
0001
0000
1000
0001
0000
0000
1001
0000
,
0010
0000
0100
0010
1000
0000
0100
0000
,
0110
0000
1000
0100
,
0011
0000
0001
0010
,
0100
1000
1001
0000
,
0010
1000
0100
0010
,
0001
0100
0001
0000
0100
0000
0010
0000
,
0010
1000
0010
0000
1000
0000
0100
0000
,
0010
0001
0010
0000
0100
0000
1000
0000
,
0010
0000
0010
0000
0010
1000
0001
0000
,
0100
0100
0100
1000
,
1000
0001
0100
0000
0011
0000
1100
0000
,
1010
0101
0110
0000
,
1000
0000
0010
0000
0001
0100
1000
0010
,
0001
0000
1000
0010
0010
0100
0001
1000
,
0010
0000
1000
0100
0010
0001
0100
0000
,
0010
0001
1000
0000
0010
0000
1000
0000
,
2002
0000
0000
0000
0000
0000
0000
3003
;

//---------------dance-single - ----------------
#NOTEDATA:;
#CHARTNAME:;
#STEPSTYPE:dance-single;
#DESCRIPTION:;
#CHARTSTYLE:;
#DIFFICULTY:Easy;
#METER:3;
#RADARVALUES:0.173946,0.177109,0.064571,0.000000,0.000000,125.000000,7.000000,0.000000,0.000000,0.000000,0.000000,0.000000,0.000000,0.173946,0.177109,0.064571,0.000000,0.000000,125.000000,7.000000,0.000000,0.000000,0.000000,0.000000,0.000000,0.000000;
#CREDIT:;
#NOTES:
0000
0000
0000
0000
,
0000
0000
0000
0000
,
1000
0001
1000
0000
,
0010
0000
0100
0000
,
0010
0100
1000
0000
,
0001
0000
0010
0000
,
1000
0000
0010
0000
,
0100
0010
1001
0000
,
1000
0000
0010
0000
,
0100
0000
0001
0000
,
0010
0010
0010
0000
,
0100
0000
1000
0000
,
0010
1000
1000
0000
,
0100
0000
0010
0000
,
0001
0000
1000
1000
,
0001
0000
0100
0000
,
0010
0000
1000
0000
,
0010
0100
0001
1000
,
1001
0000
0010
0100
,
0001
1000
0100
0010
,
1001
0000
1000
1000
,
0010
0100
0001
0100
,
0000
0000
0001
0001
,
0010
0100
1000
0000
,
0000
0000
0010
0010
,
0100
0001
1000
0100
,
0000
0000
1000
1000
,
0100
0010
1001
0000
,
0001
0000
0010
0100
,
1000
0000
0010
0000
,
0001
1000
0001
0000
,
0100
0000
0010
0000
,
1000
0010
0100
0100
,
0100
0000
0001
0001
,
0001
0000
0010
0000
,
1000
0001
1001
0000
,
0010
0000
1000
0000
,
0100
0000
0010
0000
,
0001
0001
0001
0000
,
0100
0000
0010
0000
,
0100
0100
0100
0000
,
1000
0000
0010
0000
,
0001
0000
1000
1000
,
1000
0000
0110
0000
,
1000
0010
0001
0100
,
0000
1000
0010
0100
,
0000
1000
0001
0001
,
0010
0100
1000
0000
,
1001
0000
0000
0000
;

//---------------dance-single - ----------------
#NOTEDATA:;
#CHARTNAME:;
#STEPSTYPE:dance-single;
#DESCRIPTION:;
#CHARTSTYLE:;
#DIFFICULTY:Beginner;
#METER:1;
#RADARVALUES:0.076431,0.088554,0.055346,0.000000,0.000000,52.000000,6.000000,0.000000,0.000000,0.000000,0.000000,0.000000,0.000000,0.076431,0.088554,0.055346,0.000000,0.000000,52.000000,6.000000,0.000000,0.000000,0.000000,0.000000,0.000000,0.000000;
#CREDIT:;
#NOTES:
0000
0000
0000
0000
,
0000
0000
0000
0000
,
1000
0000
0000
0000
,
0010
0000
0000
0000
,
0001
0000
0000
0000
,
1000
0000
0000
0000
,
0010
0000
0000
0000
,
0100
0000
0000
0000
,
1001
0000
0000
0000
,
0001
0000
0000
0000
,
0100
0000
0000
0000
,
0010
0000
0000
0000
,
1000
0000
0000
0000
,
0100
0000
0000
0000
,
0010
0000
0000
0000
,
0001
0000
0000
0000
,
0000
0000
1000
0000
,
0000
0000
0010
0000
,
0000
0100
0000
0000
,
1000
0000
0010
0000
,
0100
0000
1000
0000
,
0000
0000
0010
0000
,
0000
0000
0100
0000
,
0000
0000
0001
0000
,
0000
0000
1000
0000
,
0000
0000
0010
0000
,
0000
0000
0100
0000
,
0000
0000
1001
0000
,
0000
0000
1000
0000
,
0000
0000
0010
0000
,
0000
0000
0100
0000
,
0000
0000
0001
0000
,
0000
0000
1000
0000
,
0000
0000
0010
0000
,
0000
0000
0100
0000
,
0000
0000
0001
0000
,
0000
0000
1000
0000
,
0000
0000
0100
0000
,
0000
0000
0010
0000
,
0000
0000
1001
0000
,
0000
0000
0010
0000
,
0000
0000
0110
0000
,
0000
0000
1000
0000
,
0000
0000
1001
0000
,
0000
0000
1000
0000
,
0010
0000
0100
0000
,
1000
0000
0001
0000
,
0010
0000
0100
0000
,
1001
0000
0000
0000
;

//---------------dance-single - ----------------
#NOTEDATA:;
#CHARTNAME:;
#STEPSTYPE:dance-single;
#DESCRIPTION:;
#CHARTSTYLE:;
#DIFFICULTY:Challenge;
#METER:9;
#RADARVALUES:0.607493,1.000000,0.322854,0.018449,0.428935,424.000000,35.000000,2.000000,36.000000,0.000000,0.000000,0.000000,0.000000,0.607493,1.000000,0.322854,0.018449,0.428935,424.000000,35.000000,2.000000,36.000000,0.000000,0.000000,0.000000,0.000000;
#CREDIT:;
#NOTES:
0000
0000
0000
0000
,
0000
0000
0000
0000
,
0010
0100
0001
1000
0010
1000
0100
0010
,
0100
1000
0010
0100
0001
0100
0000
0100
,
1000
0010
1000
0001
0100
0010
1000
0100
,
0101
0000
0010
0100
1000
0100
0010
0100
,
1100
1010
0110
1001
,
1010
1001
0110
0000
1001
0000
0110
0000
,
1000
0010
1000
0000
0100
0000
0010
0000
0001
0000
0100
0000
1000
0000
0100
0000
,
0010
0001
0010
0100
1000
0010
0100
0001
,
1000
0001
1000
0000
0010
0000
1000
0000
0100
0000
0010
0000
0001
0000
0010
0000
,
M001
M001
0010
0100
1M00
1M00
0010
0100
,
1000
0010
1000
0000
1000
0000
0100
0000
0010
0000
0100
0000
M001
0000
M001
0000
,
0010
0100
1M00
1M00
0010
1000
0M01
0M01
,
0010
0100
10M0
10M0
0010
0000
1010
0000
,
1001
1010
0110
0000
1001
0010
0000
1000
,
0000
0000
0010
0000
0100
0000
0001
0000
0100
1000
0100
0010
0100
1000
0100
0010
,
0001
0100
0010
1000
0001
1000
0010
1000
0100
0010
0100
0010
1000
0001
1000
0001
,
0100
0001
0100
0001
0100
0010
0100
0010
1000
0010
1000
0100
0010
0001
1000
0100
,
0010
0001
0010
0001
0010
0001
0010
0100
0010
0100
1000
0100
1000
0100
0010
0001
,
0000
0000
1000
0000
0000
0000
0010
0000
1000
0100
1000
0000
0010
0100
0010
0000
1001
0000
0000
0000
0010
0000
0000
0000
1000
0000
0000
0000
0100
0000
0000
0000
,
0010
0001
0100
0010
1000
0100
0110
0000
,
1000
0000
0010
0000
1000
0010
1000
0000
0100
0000
0010
0000
0001
0000
0100
0000
,
1000
0010
0100
0010
0000
0001
0000
0100
,
0010
1000
0010
0000
1000
0001
1000
0000
0010
0000
1000
0000
0100
0000
0010
0000
,
0100
0001
0100
0010
1000
0100
0010
0100
,
0000
0000
0100
0000
1000
0001
1000
0000
0010
0000
1000
0000
0100
0000
0010
0000
,
0100
1000
0100
0010
0101
0001
0100
0001
,
0100
0010
0100
0010
1010
0010
1000
0100
,
0010
0001
0100
1000
0000
0010
0000
0010
,
1000
0001
1000
0001
0100
1000
0010
0100
,
M001
M001
0010
0100
0000
0010
0000
1000
,
0001
1000
0010
0100
1000
0000
1000
0100
,
M11M
0000
1MM1
0000
M1M1
0000
0001
0010
,
M11M
1000
1001
0011
,
1100
1010
0110
0000
1001
0000
0110
0000
,
1000
0010
01M0
01M0
0010
0001
0100
0010
,
1M00
1M00
0010
0100
1000
0001
0010
0100
,
1000
0001
1000
0000
0010
0000
1000
0000
0100
0000
0010
0000
M001
0000
M001
0000
,
0010
0100
1000
1000
0010
0100
00M1
00M1
,
0100
0001
0100
0000
0010
0000
0100
0000
1000
0000
0010
0000
M100
0000
01M0
0000
,
0010
1000
00M1
M001
0010
1000
01M0
M100
,
0010
1000
0001
0100
0101
0000
1001
0000
,
1000
0001
1000
0000
0010
0000
0100
0000
0110
0000
1000
0000
0000
0000
1000
0000
,
0010
0000
0000
0000
1000
0000
0000
0000
0100
0000
0000
0000
0010
0000
0000
0000
0001
0000
0100
0000
0010
0000
1000
0000
0001
0010
0001
0010
0001
1000
0100
1000
,
0010
0000
0000
0000
0010
0000
0100
0000
0010
0000
1000
0000
0100
0000
0010
0000
1000
0000
0010
0000
0100
0000
0010
0000
1000
0100
1000
0010
1000
0100
0010
1000
,
0101
0000
0000
0000
0001
0000
0010
0000
0100
0000
1000
0000
0100
0010
0100
0001
0100
1000
0010
0001
0100
1000
0010
0001
0100
0000
0000
0000
1000
0000
0000
0000
,
1000
0000
0001
0000
1000
0100
1000
0010
1000
0100
1000
0100
0010
0000
0000
0000
0100
0001
0100
0010
0100
0001
0100
1000
0001
0100
1000
0100
0010
0100
0001
1000
,
2002
0000
0000
0000
0000
0000
0000
0000
0000
0000
0000
0000
0000
0000
0000
0000
0000
0000
0000
0000
0000
0000
0000
3003
;
