#TITLE:Night Life;
#SUBTITLE:;
#ARTIST:Jesse Kay feat. Jordan Miller;
#TITLETRANSLIT:;
#SUBTITLETRANSLIT:;
#ARTISTTRANSLIT:;
#CREDIT:;
#BANNER:;
#BACKGROUND:;
#LYRICSPATH:;
#CDTITLE:;
#MUSIC:Night Life.ogg;
#OFFSET:-0.290;
#SAMPLESTART:69.000;
#SAMPLELENGTH:12.000;
#SELECTABLE:YES;
#BPMS:0.000=130.000;
#STOPS:;
#BGCHANGES:;

//---------------dance-single - ----------------
#NOTES:
     dance-single:
     :
     Hard:
     6:
     0.509,0.459,0.283,0.132,0.000:
0000
0000
0000
0000
,
0000
0000
2000
0000
3020
0000
0130
0001
,
0010
1000
0200
0000
0320
0000
0031
1000
,
0100
0010
2000
0000
3002
0000
0103
0001
,
0100
0001
0002
0000
0203
0000
0310
1000
,
0010
1000
0100
0000
0110
0000
1000
0100
,
0001
0100
1000
0000
0011
0000
0001
0010
,
1000
0010
0001
0000
0110
0000
1000
0010
,
0100
0001
0001
0000
0011
0000
0100
0000
,
1010
0000
1000
0010
0100
0000
0100
0001
,
0010
0000
0010
0001
1000
00M0
1000
0100
,
0010
0000
1000
0000
0110
0000
1000
0100
,
0010
0001
0010
0000
0101
0000
0001
0010
,
0100
1000
0100
0000
0010
0000
1000
0001
,
2000
0001
3002
0000
0203
0000
0310
0100
,
0010
0100
0100
0000
1100
0000
0010
1000
,
0100
0010
1000
0000
1001
0000
1000
1000
,
0010
0010
0110
0000
1010
0000
1000
0100
,
0010
0000
1000
0010
0100
0000
0100
0001
,
0020
0000
1000
1000
1030
0000
0010
0100
,
0010
0100
1000
0001
1000
0000
1000
0100
,
1000
0011
0100
1010
,
0100
1100
0100
0011
,
0100
0010
1010
1000
,
1001
0010
0110
1000
,
0101
0000
0010
0000
0010
0000
1000
0001
,
1000
00M0
0100
0000
0100
0000
1000
0100
,
1000
0M00
0010
0000
0010
0000
0001
0010
,
0001
00M0
0100
0000
0100
0000
0010
1000
,
0001
1000
1001
0000
MMMM
0000
0110
0000
,
MMMM
1100
MMMM
0101
,
MMMM
1010
0011
1010
,
0110
0000
1000
1000
0100
0100
0010
0010
,
0001
0001
0101
0001
0010
0100
1000
0010
,
0000
0M0M
1000
0010
1000
0010
0100
0010
,
0100
1000
0100
0010
0100
0001
0100
0010
,
0000
0MM0
1000
0100
0010
0001
1000
0100
,
0010
0001
0010
0100
0010
0100
1000
0010
,
0000
M00M
1000
1000
0010
0010
0100
0100
,
0001
0001
0100
0001
0100
0010
1000
0100
,
0000
MM00
0010
1000
0010
0100
1000
0010
,
1000
0001
0100
1000
0010
1000
0001
0100
,
0000
0MM0
1000
1000
0010
1000
0010
0010
,
0001
1000
0010
1000
0100
0010
0001
0100
,
0000
M00M
0100
1000
0010
0001
1000
0010
,
1000
0001
1001
0000
1000
0000
0010
0100
,
0010
0000
1000
0100
1000
0000
0010
0001
,
0010
0000
1001
0000
0010
0000
1000
0100
,
0010
0000
0001
0000
0010
1000
0001
1000
,
0010
1000
0100
0010
0001
0100
1000
0010
,
0000
0MM0
1000
0001
1000
0001
0100
0100
,
0010
0100
0010
1000
0100
0010
0001
0100
,
0000
M00M
0100
0010
1000
0001
0010
1000
,
0001
1000
0010
1000
0100
0010
0001
0100
,
0000
MM00
0001
0010
0100
1000
0001
0010
,
0100
1000
0100
1000
0100
0010
0100
0010
,
0000
0M0M
1000
0010
1000
0010
1000
0001
,
2000
0002
0000
3003
0000
0000
0000
0000
;

//---------------dance-single - ----------------
#NOTES:
     dance-single:
     :
     Medium:
     5:
     0.344,0.378,0.094,0.009,0.000:
0000
0000
0000
0000
,
0000
0000
1000
0000
1000
0000
0010
0100
,
0010
0000
0001
0000
0001
0000
0001
0100
,
0001
0000
0100
0000
0100
0000
0010
1000
,
0010
0000
0100
0000
0100
0000
0010
1000
,
0100
0010
0001
0100
,
1000
0010
0100
0001
,
1000
0010
0100
1000
,
0010
0001
1000
1001
,
0000
1000
1000
0010
,
0010
0100
0100
0001
,
0001
0010
1000
0010
,
0100
0000
1000
0000
0010
0000
0001
0100
,
0001
0001
0010
0100
,
1000
0010
0100
1000
,
1000
0010
0100
0001
,
1000
0010
1000
0100
,
0010
0000
1001
0000
1000
0000
1000
1000
,
1000
0000
0110
0000
0100
0000
0100
0100
,
0100
0000
0010
0000
0001
0000
0100
0010
,
0100
0000
0010
0000
1000
0000
0100
1000
,
0100
0010
1000
0010
,
0100
0001
0010
1000
,
0010
0001
0000
1000
,
0000
0100
0000
0010
,
0000
0000
1000
0010
0000
0100
0000
0001
,
0000
0010
0000
0100
0000
1000
0000
0001
,
0000
0100
0000
0100
0000
0010
0000
1000
,
0000
0001
0000
0010
0000
1000
0000
0010
,
0000
1000
0001
0000
0000
0000
0110
0000
,
0000
1000
0000
1001
,
0000
1000
1000
0001
,
0001
1001
0110
1010
,
0101
0000
1000
0100
1000
0000
0010
0000
,
0100
0000
0001
0100
0001
0000
0010
0000
,
0100
0000
1000
0010
1000
0000
0100
0000
,
0010
0000
0001
0010
0001
0000
0100
0000
,
0010
0000
1000
0001
1000
0000
0010
0000
,
0100
0000
0010
1000
0010
0000
0010
0000
,
0100
0000
1000
0100
1000
0000
0010
0000
,
0010
0000
0001
0100
0001
0000
0100
0000
,
0100
0000
0010
0100
0010
0000
1000
0000
,
1000
0000
0010
1000
0100
0000
0010
0000
,
0100
0000
0100
0001
0010
0000
0100
0000
,
0010
0000
1000
0100
0001
0000
0010
0000
,
1000
0000
0010
0100
0010
0000
1000
0000
,
0010
0000
0001
0100
0001
0000
0010
0000
,
1000
0000
0100
0010
1000
0000
0100
0000
,
0010
0000
1000
0001
0001
0000
0100
0000
,
0010
1001
1000
0100
,
0010
0001
0100
0010
,
1000
0000
0010
0000
0100
0000
0001
0001
,
0001
0010
1000
0010
,
0100
0000
0001
0000
0010
0000
1000
1000
,
1000
0010
0001
0100
,
0010
0000
1000
0000
0100
0000
0010
0010
,
0100
1000
0010
0001
,
1000
2000
0000
3000
0000
0000
0000
0000
;

//---------------dance-single - ----------------
#NOTES:
     dance-single:
     :
     Easy:
     3:
     0.226,0.241,0.094,0.000,0.000:
0000
0000
0000
0000
,
0000
1000
1000
1000
,
0000
0001
0001
0001
,
0000
0010
0010
0010
,
0000
0100
0100
0100
,
0000
1000
0100
0010
,
0000
0001
0010
0100
,
0000
0100
0010
1000
,
0000
0100
0000
0010
,
0000
0001
0001
0100
,
0000
1000
1000
0010
,
0000
0010
0010
1000
,
0000
1000
1000
0100
,
0000
0001
0100
1000
,
0000
1000
0100
0001
,
0000
0001
0010
1000
,
0000
1000
0010
0001
,
0000
1001
0000
0100
,
0000
0010
0000
1000
,
1000
1000
0000
0010
,
0000
0100
0000
0110
,
0000
1000
0001
1000
,
0000
0100
0010
0100
,
0000
1000
0100
1000
,
0000
0010
0000
0100
,
0000
1001
0000
0010
,
0010
0100
0000
0100
,
0100
0010
0000
0001
,
0001
1000
0000
1000
,
0001
1001
0000
1000
,
0000
0110
0000
0001
,
0000
1001
1000
1001
,
0001
1001
0000
0000
,
0000
1000
0010
0100
,
0000
0100
0001
0010
,
0001
1000
0000
0100
,
0000
0010
0100
1000
,
0010
0001
0000
0100
,
0000
1000
0010
0001
,
0100
0010
0000
0001
,
0000
1000
1000
0001
,
1000
0001
0000
0001
,
0000
0010
0010
0100
,
0010
0100
0000
0010
,
0000
1000
0001
1000
,
0000
1001
1000
1000
,
0000
0100
0010
0001
,
0000
0001
0000
0010
,
0000
0100
0000
1000
,
0000
0110
1000
0100
,
0000
0010
0001
1000
,
0000
0010
1000
0100
,
0000
0010
0001
0100
,
0000
0010
0100
1000
,
0000
0010
0100
0001
,
0000
0001
0010
0100
,
0000
1000
0001
1000
;

//---------------dance-single - ----------------
#NOTES:
     dance-single:
     :
     Beginner:
     1:
     0.101,0.107,0.057,0.000,0.000:
0000
0000
0000
0000
,
0000
1000
0000
0000
,
0000
0001
0000
0000
,
0000
0010
0000
0000
,
0000
0100
0000
0000
,
0000
1000
0000
0000
,
0000
0010
0000
0000
,
0000
0001
0000
0000
,
0000
1000
0000
0000
,
0000
1001
0000
0000
,
0000
0010
0000
0000
,
0000
0100
0000
0000
,
0000
1000
0000
0000
,
0000
0010
0000
0000
,
0000
0100
0000
0000
,
0000
0001
0000
0000
,
0000
1000
0000
0000
,
0000
0110
0000
0000
,
0000
1000
0000
0000
,
0000
0010
0000
0000
,
0000
0001
0000
0000
,
0000
0100
0000
0000
,
0000
0010
0000
0000
,
0000
1000
0000
0000
,
0000
0100
0000
0000
,
0000
0010
0000
0000
,
0000
0001
0000
0000
,
0000
1000
0000
0000
,
0000
0100
0000
0000
,
0000
1001
0000
0000
,
0000
1000
0000
0000
,
0000
0110
0000
0000
,
0000
1000
0000
0000
,
0000
1000
1000
1000
,
0000
0010
0000
0000
,
0000
0001
0001
0001
,
0000
0100
0000
0000
,
0000
0010
0010
0010
,
0000
0100
0000
0000
,
0000
1000
1000
1000
,
0000
0001
0000
0000
,
0000
0001
0001
0001
,
0000
1000
0000
0000
,
0000
0100
0100
0100
,
0000
0010
0000
0000
,
0000
1000
0000
0000
,
0000
0001
0000
0000
,
0000
1000
0000
0000
,
0000
0010
0000
0000
,
0000
0110
0000
0000
,
0000
1000
0000
0000
,
0000
0010
0000
0000
,
0000
0001
0000
0000
,
0000
0100
0000
0000
,
0000
0010
0000
0000
,
0000
1000
0000
0000
,
0000
0010
0000
0000
,
1001
0000
0000
0000
;

//---------------dance-single - ----------------
#NOTES:
     dance-single:
     :
     Challenge:
     10:
     0.787,0.648,0.367,0.386,0.438: // measure 1
0000
0000
0000
0000
,  // measure 2
0000
0000
0000
0000
0100
0001
0010
0000
0100
0000
0010
0000
100M
0000
0100
0000
,  // measure 3
0010
0000
0100
0000
1000
0010
0100
0000
0010
0000
1000
0000
0100
0000
0010
0000
,  // measure 4
M001
0000
0100
0000
0100
0001
0010
0000
0100
0000
0010
0000
1000
0000
1000
0000
,  // measure 5
0010
0000
0010
0000
1000
0010
1000
0000
010M
0000
0010
0000
0100
0000
01M0
0000
,  // measure 6
0001
0000
0001
0000
1000
0001
1000
0000
01M0
0000
1000
0000
0100
0000
01M0
0000
,  // measure 7
1000
0000
1000
0000
0010
0100
0010
0000
1000
0000
0100
0000
0010
0000
0M10
0000
,  // measure 8
0001
0000
0001
0000
0100
0001
0010
0000
0100
0000
0100
0000
0M10
0000
1000
0000
,  // measure 9
0001
0000
0001
0000
0010
0100
1000
0000
0100
0000
0010
0000
1000
0000
0010
0000
,  // measure 10
100M
0000
0100
0000
0110
0000
1000
0100
1000
0000
0010
0100
0010
0000
1000
0000
,  // measure 11
0100
0000
0010
0000
0101
0000
0001
0100
0001
0000
1000
0001
1000
0000
0100
0000
,  // measure 12
0010
0000
0100
0000
1100
0000
0010
1000
0010
0000
0100
0010
0100
0000
1000
0000
,  // measure 13
010M
0000
0010
0000
0011
0000
0001
0010
0100
0000
1000
0100
0010
0000
1000
0000
,  // measure 14
0001
0000
0100
0000
0101
0000
0001
0100
1000
0000
1000
0100
0001
0000
0010
0000
,  // measure 15
01M0
0000
1000
0000
1010
0000
1000
0010
0001
0000
0001
0010
1000
0000
0010
0000
,  // measure 16
0100
0000
0100
0000
1010
0000
1000
0100
0010
0000
0010
0100
100M
0000
0100
0000
,  // measure 17
0010
0000
0100
0000
0011
0000
0001
0010
0001
0000
1000
0001
1000
0000
0010
0000
,  // measure 18
1000
0000
0110
0000
1001
0000
0010
1000
0010
0000
1000
0100
1000
0000
0010
0000
,  // measure 19
M100
0000
0100
0000
0101
0000
0001
0100
0001
0000
0010
1000
0010
0000
1000
0000
,  // measure 20
010M
0000
0100
0000
0110
0000
1000
0100
1000
0000
0010
0100
0010
0000
1000
0000
,  // measure 21
00M1
0000
0100
0000
0010
0000
1000
0100
0010
0000
0001
0100
1000
0000
0100
0000
,  // measure 22
M010
0000
0001
0000
0100
0000
0010
1000
0100
0000
0010
0001
0100
0000
1000
0000
,  // measure 23
010M
0000
0010
0000
0100
0000
0001
0100
1000
0000
0010
1000
0100
0000
0010
0001
,  // measure 24
01M0
0000
1000
0000
0100
0000
0010
0001
0100
0000
0010
0100
1000
0000
0010
1000
,  // measure 25
0100
0000
0010
0000
1M01
0000
1000
0100
1000
0000
0010
1000
0100
0000
0010
1000
,  // measure 26
0100
0000
0010
0000
M011
0000
0100
0000
0010
0000
1000
0100
0010
0000
1000
0000
,  // measure 27
0100
0000
0010
0000
10M1
0000
1000
0001
1000
0000
0010
1000
0010
0000
1000
0000
,  // measure 28
0100
0000
0010
0000
011M
0000
1000
0100
1000
0000
0010
1000
0010
0000
1000
0000
,  // measure 29
0100
0000
0010
0000
0M01
0000
0100
1000
0100
0000
0010
1000
0001
0000
0100
0000
,  // measure 30
M01M
0100
2100
0000
3010
0000
0012
0000
,  // measure 31
0103
1020
0130
2001
,  // measure 32
3010
0M11
110M
1M10
,  // measure 33
M110
0000
0000
0000
1000
0100
1000
0000
0010
0100
1000
0100
0010
1000
0001
1000
,  // measure 34
0010
0000
1000
0000
0010
1000
0100
0010
0001
0000
0100
0000
2002
0000
0M20
0000
,  // measure 35
0000
0000
3033
0000
1000
0001
1000
0000
0010
0000
1000
0010
1000
0000
0100
0000
,  // measure 36
0010
0000
0100
0010
0100
0000
1000
0001
1000
0000
0010
1000
0200
0000
20M2
0000
,  // measure 37
0000
0000
3303
0000
0010
1000
0100
0000
0010
0000
0001
0100
1000
0000
0100
0000
,  // measure 38
0010
0000
1000
0001
0100
0000
0010
0000
1000
0000
0100
0000
2200
0000
002M
0000
,  // measure 39
0000
0000
3330
0000
1000
0001
1000
0000
0010
0000
1000
0100
1000
0000
0100
0000
,  // measure 40
0010
0000
0100
0010
0100
0000
0010
0000
0001
0000
0100
0000
0002
0000
22M0
0000
,  // measure 41
0000
0000
3303
0000
0010
1000
0100
0000
0010
0000
0001
0100
1000
0000
0100
0000
,  // measure 42
0010
0000
0100
0000
0010
1000
0100
0000
0010
0000
0100
0000
0220
0000
200M
0000
,  // measure 43
0000
0000
3330
0000
1000
0001
1000
0000
0010
0000
0100
0010
0100
0000
0010
0000
,  // measure 44
0100
0000
0010
0000
1000
0010
1000
0000
0100
0000
0010
0000
2020
0000
020M
0000
,  // measure 45
0000
0000
3330
0000
1000
0001
1000
0000
0010
0000
1000
0000
0010
1000
0010
0000
,  // measure 46
1000
0000
0100
0000
0001
0100
0001
0000
0010
0000
0100
0000
0022
0000
2M00
0000
,  // measure 47
0000
0000
3033
0000
1010
0000
0001
0100
0010
0000
1000
0000
0100
0010
0001
0000
,  // measure 48
0100
0000
1000
0000
0010
0100
1000
0000
0100
0000
0010
0000
0202
0000
M020
0000
,  // measure 49
0000
0000
0333
0000
0010
1000
0010
0000
0100
0000
0010
1000
0001
0000
1000
0000
,  // measure 50
0010
0000
1000
0000
1100
0000
0011
0000
0100
0000
0010
1000
0100
0000
M2M2
0000
,  // measure 51
0000
0000
0303
0000
0001
0010
0100
0000
1000
0000
0100
0000
0010
0100
1000
0000
,  // measure 52
0100
0000
0010
0000
1000
0001
0100
0000
0010
0000
1000
0000
2002
0000
02M0
0000
,  // measure 53
0000
0000
3303
0000
0010
1000
0010
0000
0100
0000
0010
0100
0010
0000
1000
0000
,  // measure 54
0100
0000
0010
0000
0001
0100
0001
0000
0010
0000
0100
0000
0022
0000
2M00
0000
,  // measure 55
0000
0000
3033
0000
1000
0100
1000
0000
0100
0000
0001
0100
0001
0000
0100
0000
,  // measure 56
0010
0001
0010
0000
0001
0000
0010
0000
0100
0000
1000
0000
0100
0000
MM22
0000
,  // measure 57
0000
0000
0033
0000
1000
0001
1000
0000
0010
0000
1000
0000
0100
0000
0020
0000
,  // measure 58
2000
0M02
0000
3033
0000
0000
0000
0000
;
