#TITLE:Incredible Simulations;
#SUBTITLE:;
#ARTIST:Petriform;
#TITLETRANSLIT:;
#SUBTITLETRANSLIT:;
#ARTISTTRANSLIT:;
#GENRE:;
#CREDIT:;
#BANNER:Incredible Simulations-bn.jpg;
#BACKGROUND:Incredible Simulations-bg.jpg;
#LYRICSPATH:;
#CDTITLE:;
#MUSIC:Incredible Simulations.ogg;
#OFFSET:-0.140;
#SAMPLESTART:60.100;
#SAMPLELENGTH:12.000;
#SELECTABLE:YES;
#BPMS:0.000=128.000,64.000=64.000,96.000=128.000,224.000=64.000;
#STOPS:;
#BGCHANGES:;
#KEYSOUNDS:;

//---------------dance-single - ----------------
#NOTES:
     dance-single:
     :
     Beginner:
     1:
     0.086,0.134,0.062,0.000,0.000:
0000
0000
0000
0000
,
0000
0000
0000
0000
,
0000
0000
0000
0000
,
0000
0000
0000
0000
,
1000
0000
0000
0000
,
0001
0000
0000
0000
,
0010
0000
0000
0000
,
0100
0000
0000
0000
,
1001
0000
0000
0000
,
1000
0000
0000
0000
,
0100
0000
0000
0000
,
0010
0000
0000
0000
,
1000
0000
0000
0000
,
0001
0000
0000
0000
,
0100
0000
0000
0000
,
0010
0000
0000
0000
,
1001
0000
0000
0000
,
1000
0000
0000
0000
,
0100
0000
0000
0000
,
0010
0000
0000
0000
,
0001
0000
0000
0000
,
1000
0000
0000
0000
,
0100
0000
0000
0000
,
0001
0000
0000
0000
,
1001
0000
0000
0000
,
1000
0000
0010
0000
,
0001
0000
0000
0000
,
1000
0000
0100
0000
,
0010
0000
0000
0000
,
0001
0000
0100
0000
,
0010
0000
1000
0000
,
0001
0000
1000
0000
,
1001
0000
0000
0000
,
1000
0000
0010
0000
,
0100
0000
0001
0000
,
0010
0000
0000
0000
,
0100
0000
0000
0000
,
1000
0000
0000
0000
,
0010
0000
0000
0000
,
0010
0000
0000
0000
,
0001
0000
0000
0000
,
1000
0000
0100
0000
,
0010
0000
0000
0000
,
0001
0000
1000
0000
,
1001
0000
0000
0000
,
0010
0000
0100
0000
,
1000
0000
0010
0000
,
0001
0000
0100
0000
,
0110
0000
0000
0000
,
1000
0000
0100
0000
,
0010
0000
0001
0000
,
0100
0000
0000
0000
,
0010
0000
0000
0000
,
1000
0000
0000
0000
,
0100
0000
0000
0000
,
1000
0000
0000
0000
,
1001
0000
0010
0000
,
0100
0000
1001
0000
;

//---------------dance-single - ----------------
#NOTES:
     dance-single:
     :
     Easy:
     3:
     0.182,0.248,0.062,0.015,0.000:
0000
0000
0000
0000
,
0000
0000
0000
0000
,
0000
0000
0000
0000
,
0000
0000
0000
0000
,
1000
0000
0010
0000
,
0100
0000
0001
0000
,
0010
0000
0100
0000
,
1000
0000
0001
0000
,
1000
1000
1000
0000
,
0001
0001
0001
0000
,
0010
0010
0010
0000
,
0100
0100
0100
0000
,
1000
0100
0001
0000
,
0001
0100
1000
0000
,
1000
0100
0010
0000
,
0001
0010
0100
0000
,
1001
0000
0010
1000
,
0100
0000
0010
0001
,
0001
0000
1000
0010
,
0001
0010
0100
0000
,
1001
0000
1000
0010
,
0100
0001
0010
0000
,
0100
0000
1000
1000
,
0010
1001
1000
1000
,
1000
1000
1000
0100
,
0010
0000
0001
0100
,
0001
0000
0010
0000
,
0100
0000
0010
1000
,
1000
0000
0000
0010
,
0100
0000
0001
0010
,
0100
0100
1000
1000
,
1000
0000
0010
0001
,
1001
0000
0000
1000
,
0010
0000
0100
0010
,
0001
0001
0100
0100
,
0100
0000
1000
0100
,
0001
0000
0001
0000
,
1000
0000
0010
0000
,
0100
0000
0010
0000
,
0001
0000
1000
1000
,
1001
0000
0000
0010
,
0001
0000
0100
0010
,
1000
0000
0000
0100
,
0010
0000
1000
0001
,
0001
0000
0000
0010
,
0100
0000
1000
0010
,
0100
0100
0010
0010
,
0010
0000
0001
1000
,
0110
0000
0000
1000
,
0100
0000
0100
0001
,
0010
0010
0001
0001
,
0001
0000
0100
0010
,
0010
0000
0001
0010
,
0100
0000
1000
0000
,
0100
0000
0010
0000
,
0001
1000
1000
0001
,
1001
1000
0100
0010
,
0001
1000
2002
0000
,
0000
3003
0000
0000
0000
0000
0000
0000
;

//---------------dance-single - ----------------
#NOTES:
     dance-single:
     :
     Medium:
     6:
     0.351,0.588,0.434,0.194,0.108:
0000
0000
0000
0000
,
0000
0000
0000
0000
,
0000
0000
0000
0000
,
0000
0000
0000
0000
,
1000
0100
1000
0000
0010
0000
0010
0000
,
0001
0100
0001
0000
0100
0000
0100
0000
,
0010
1000
0100
0000
0010
0000
0010
0000
,
0010
0001
0010
0000
0010
0000
1000
0000
,
0010
0000
1000
0000
0000
0000
0101
0000
0000
0000
1010
0000
0000
0000
1000
0100
,
0000
0000
0010
0000
0000
0000
1010
0000
0000
0000
1001
0000
0000
0000
0001
0100
,
0000
0000
0010
0000
0000
0000
1010
0000
0000
0000
0100
0000
0000
0000
1000
0100
,
0000
0000
1100
0000
0000
0000
1000
0000
0000
0000
1100
0000
0000
0000
0010
1000
,
0000
0000
0010
0000
0000
0000
0101
0000
0000
0000
0010
0000
0000
0000
0100
0001
,
0000
0000
0001
0000
0000
0000
0101
0000
0000
0000
0010
0000
0000
0000
1000
0100
,
0000
0000
1100
0000
0000
0000
0010
0000
0000
0000
1001
0000
0000
0000
1000
0100
,
0000
0010
0000
0001
0100
0000
0010
0000
,
1001
0000
0000
1000
0010
0000
0100
0100
,
0100
0000
0000
0000
0000
0000
0100
0000
0010
0000
0000
0000
0001
0000
0010
0100
,
0010
0000
0000
1000
1000
0000
0010
0100
,
1000
0000
1000
0000
0010
0000
0001
0000
0100
0000
0000
0000
0010
0000
1000
0001
,
1000
0000
0000
1000
0100
0000
0010
0001
,
0010
0000
0001
0000
0100
0000
0100
0000
0100
0000
0000
0000
1000
0000
0001
0100
,
0001
0000
0010
0010
0010
0000
1100
0000
,
0011
0000
0000
0101
0000
0000
1001
0000
0000
0000
0000
0000
1000
0000
0010
0000
,
2002
0000
3000
1003
,
0101
0000
0000
0000
M0M0
0000
0000
0000
0010
0000
0000
0100
0000
0000
1000
0000
,
2200
0000
3300
0011
,
0101
0000
MM00
0000
0001
0000
0010
0100
,
2000
0000
0000
3000
0000
0000
1100
0000
,
1100
0000
0000
0000
0000
0000
0000
0000
0010
0000
0000
0100
0000
0000
0100
0000
,
0001
1001
1000
1010
,
1010
0000
0000
0000
0MM0
0000
0000
0000
1000
0000
0000
0000
0010
1000
0010
0000
,
2002
0000
3000
0103
,
0011
0000
0000
0000
0000
0000
0000
0000
1000
0000
0000
0100
0000
0000
0010
0000
,
0001
0101
0011
2100
,
0010
0000
0000
3000
0010
0000
0100
1000
,
2000
0000
3001
0100
,
0110
0000
2002
3000
,
0013
0000
0000
1000
0000
0000
0100
0000
,
0010
0001
0100
0MM0
,
2020
3030
0MM0
0101
,
0011
0000
0000
0000
0000
0000
0000
0000
0010
0000
0000
1000
0000
0000
2000
0000
,
0002
0000
3003
1100
,
0101
0000
0MM0
0000
0010
0000
1000
0001
,
0200
0000
1300
0010
,
0101
0000
0000
0000
M0M0
0000
0000
0000
0010
0000
0000
1000
0000
0000
1000
0000
,
0100
1100
0101
1010
,
2002
0000
0000
0000
0000
0000
3003
0000
0010
0000
0000
0000
0001
0100
0001
0000
,
0202
0000
0303
0011
,
1100
0000
0000
0000
0MM0
0000
0000
0000
1000
0000
0000
0001
0000
0000
0001
0000
,
0100
0010
1010
1001
,
0011
0000
0000
0000
0010
0000
1000
0002
,
0200
0000
0000
0003
0302
0000
1003
0000
,
1001
0000
1010
0000
,
1100
0000
0000
0011
0000
0000
0110
0000
,
0010
0000
0010
0000
0010
0000
0010
1000
,
1001
0001
0100
0000
0010
1000
0100
0000
0010
0100
1000
0100
0001
0010
0100
1000
,
0001
0010
0001
0000
0001
0010
0100
1000
2200
0000
0000
0000
0000
0000
0000
0000
,
0000
0000
0000
3300
0000
0000
0000
0000
;

//---------------dance-single - ----------------
#NOTES:
     dance-single:
     :
     Hard:
     8:
     0.421,0.449,0.108,0.279,0.120:
0000
0000
0000
0000
,
0000
0000
0000
0000
,
0000
0000
0000
0000
,
0000
0000
0000
0000
,
1000
0010
0100
0000
0100
0001
0010
0000
,
0010
0001
1000
0000
1000
0100
1000
0000
,
0010
1000
0010
0000
0001
0010
0001
0000
,
0100
0010
1000
0000
0001
0000
1001
0000
,
1000
0000
0010
0000
0000
0000
01M0
0000
0000
0000
0100
0000
0000
0000
1000
0100
,
0000
0000
1000
0000
0000
0000
100M
0000
0000
0000
1000
0000
0000
0000
1000
0010
,
0000
0000
0001
0000
0000
0000
M001
0000
0000
0000
0001
0000
0000
0000
0010
0100
,
0000
0000
0100
0000
0000
0000
01M0
0000
0000
0000
0100
0000
0000
0000
1000
0001
,
0000
0000
0100
0000
0000
0000
01M0
0000
0000
0000
0100
0000
0000
0000
1000
0010
,
0000
0000
1000
0000
0000
0000
01M0
0000
0000
0000
0010
0000
0000
0000
0001
0100
,
0000
0000
0001
0000
0000
0000
0M10
0000
0000
0000
0100
0000
0000
0000
1000
0100
,
0000
0010
0000
100M
0002
0000
1003
0000
,
0022
0000
0000
0000
0000
0000
0000
0000
0030
0000
0000
0000
1000
0000
0000
0000
0023
0000
0000
0000
0000
0000
0000
0000
0130
0000
0000
0001
0000
0000
0010
0000
,
0200
0000
0000
0000
0000
0000
1300
0000
0110
0000
0000
0000
1000
0000
1000
0100
,
0020
0000
0000
0000
0000
0000
0000
0000
0000
0000
0000
0000
0001
0000
0000
0000
0031
0000
0000
0000
0000
0000
0000
0000
0001
0000
0000
0010
0000
0000
0100
0000
,
1000
0000
0000
0000
0100
0000
0000
0000
0010
0000
0000
0000
1000
0000
0000
0000
0110
0000
0000
0000
0000
0000
0000
0000
1000
0000
0000
0000
0001
0100
0001
0000
,
2100
0000
0000
0000
0000
0000
0000
0000
0000
0000
0000
0000
0010
0000
0000
0000
0020
0000
0000
0000
3030
0000
0000
0000
1000
0000
0000
0100
0000
0000
1000
0000
,
0100
0000
0010
0000
0100
0000
0010
0000
1002
0000
0000
0000
1003
0000
0010
1000
,
0010
0000
0110
0001
1001
0000
2200
0300
,
0010
0000
0000
0001
0000
0000
0010
0000
0000
0000
00M0
0000
0001
0000
3001
0000
,
1000
0010
0100
0010
1000
0100
0010
0001
,
0010
0000
0100
0000
1000
0000
0100
0000
0010
0000
0000
0010
0000
0000
1000
0000
,
0100
0010
0001
1000
0100
0010
0001
0100
,
1000
1000
0100
0010
0001
0100
0010
0010
,
0001
0100
0001
0100
0010
0100
0010
1000
,
0100
0000
1000
0000
0100
0000
1000
0000
0100
0000
0000
0100
0000
0000
0010
0000
,
0002
0203
0320
0032
,
2003
0000
0000
0000
0000
0000
0000
0000
3002
0000
0000
0000
1003
0100
1000
0000
,
0100
0010
0100
0010
0100
0100
1000
0001
,
1000
0000
1000
0000
0100
0000
0010
0000
0001
0000
0000
0001
0000
0000
0010
0000
,
0200
2300
3200
0320
,
0032
0000
MMM0
0000
0100
0000
1003
1000
,
0001
1000
0010
0100
0001
0010
0100
1000
,
0100
0010
0001
0100
1000
1000
0010
0100
,
0002
0000
0000
0023
0000
0000
0100
0000
,
1000
0000
0000
0000
1030
0000
0000
0000
0010
0000
0000
0100
0001
0000
0010
0000
,
1001
1000
0100
1000
0100
0010
0100
0100
,
0010
0000
1000
0000
0001
0000
0001
0000
0100
0000
0000
0010
0000
0000
1000
0000
,
0100
1000
0100
1000
0100
0010
0100
0001
,
0100
0001
0010
0001
0010
0100
0010
0010
,
1000
0001
1000
0100
1000
0100
0010
0010
,
0100
0000
1000
0000
0100
0000
1000
0000
0100
0000
0000
0100
0000
0000
0100
0000
,
0010
0102
0010
0100
,
2003
0000
0000
0000
0000
0000
0000
0000
3010
0000
0000
0000
1000
0001
1000
0000
,
0101
0010
0100
1000
0100
0010
1000
1000
,
0100
0000
1000
0000
0100
0000
0010
0000
0001
0000
0000
0010
0000
0000
0001
0000
,
0020
0230
2300
3020
,
0032
0000
0000
0000
0103
0000
1000
1000
,
0002
0000
0000
0003
1000
0001
1000
0001
,
0100
0000
0100
0000
0100
1000
0010
0100
,
0002
0000
0000
1000
0000
0000
0203
0000
,
0010
0001
1300
0110
,
1000
0100
1000
0000
0010
0000
0100
0000
0001
0010
0100
0000
0010
0000
0100
0000
,
1000
0100
0010
0001
0100
0000
1000
0000
2002
0000
0000
0000
0000
0000
0000
0000
,
3003
0000
0000
0000
;

//---------------dance-single - Hard----------------
#NOTES:
     dance-single:
     Hard:
     Challenge:
     11:
     0.714,0.989,0.279,0.178,0.790:
0000
0000
0000
0000
,
0000
0000
0000
0000
,
0000
0000
0000
0000
,
0000
0000
0000
0000
,
0000
0000
1000
0100
2000
0000
0200
0000
3300
0000
0010
0100
0020
0000
0200
0000
,
0330
0000
1000
0100
2000
0000
0200
0000
3300
0000
0001
0100
0020
0000
0002
0000
,
0033
0000
0010
1000
0200
0000
0020
0000
0330
0000
0100
0001
0020
0000
0200
0000
,
0330
0000
0001
1000
0002
0000
2000
0000
3003
0000
1000
0001
2000
0000
0002
0000
,
3103
0000
1M1M
0000
0000
0000
0101
0000
0000
0000
11MM
0000
0000
0000
0100
0010
,
0100
0000
M1M1
0000
0000
0000
1100
0000
0000
0000
M1M1
0000
0000
0000
0010
0100
,
0001
0000
1MM1
0000
0000
0000
1010
0000
0000
0000
11MM
0000
0000
0000
0100
0010
,
1000
0000
M1M1
0000
0000
0000
0011
0000
0000
0000
M1M1
0000
0000
0000
1000
0100
,
1000
0000
11MM
0000
0000
0000
0011
0000
0000
0000
M1M1
0000
0000
0000
0100
0010
,
0100
0000
10MM
0000
0000
0000
0101
0000
0000
0000
M10M
0000
0000
0000
1000
0010
,
0100
0000
0100
0000
0000
0000
M1M1
0000
0000
0000
0101
0000
0000
0000
1000
0001
,
1000
1000
0000
1M0M
0010
1000
0100
0000
,
0022
0000
0000
0000
0030
0000
0000
0000
0000
0000
0000
0000
1003
0000
0000
0000
0010
0000
0000
0000
0100
0000
0000
0000
0010
0100
0000
0100
0010
0000
1000
0000
,
0001
0000
0100
0000
0010
0000
0100
0000
1000
0000
0100
0000
0010
1000
0001
1000
,
0002
0000
0000
0000
0000
0000
0000
0000
0000
0000
0000
0000
0103
0000
0000
0000
0101
0000
0000
0000
0100
0000
0000
0000
1000
0100
0000
0100
1000
0000
0100
0000
,
0010
0000
0100
0000
0010
0000
0100
0000
0001
0000
0100
0000
0001
0000
0100
0000
0001
0000
0000
0000
0000
0000
0000
0000
0010
0000
0000
0000
1000
0001
1000
0000
,
2200
0000
0000
0000
3300
0000
0000
0000
0000
0000
0000
0000
0011
0000
0000
0000
1100
0000
0000
0000
0000
0000
0000
0000
0010
0100
0000
0100
0010
0000
0100
0000
,
1000
0010
0100
0010
0001
0010
0001
0010
0001
0000
MMMM
0000
0110
0000
0001
1000
,
0001
0000
0010
0100
1000
0010
0100
0010
,
1000
0000
0001
0000
1000
0000
0001
0000
1000
0000
0001
0000
1000
0000
0001
0000
1000
0100
0001
0100
1000
0100
0001
0100
1000
0100
0001
0100
1000
0100
0001
0100
,
0110
0000
100M
0100
100M
0000
M010
0100
M010
0000
01M0
0001
01M0
0000
0M10
1000
,
0M10
0000
100M
0100
100M
0000
0010
0000
0100
1000
0000
1000
0100
0000
0010
0000
,
0101
0000
00M1
0100
00M1
0000
1M00
0001
1M00
0000
100M
0100
100M
0000
0M10
1000
,
001M
0000
M100
0010
010M
0000
00M1
0100
M001
0000
0100
0000
0011
0000
0101
0000
,
0011
0000
1M00
0001
10M0
0000
0M10
1000
001M
0000
100M
0100
10M0
0000
001M
0100
,
M010
0000
01M0
0001
01M0
0000
0001
0000
1000
0100
0000
0100
1000
0000
0100
0000
,
0M10
1000
001M
0000
01M0
0001
M100
0000
00M1
1000
0M01
0000
0010
0100
1000
0000
,
0M10
1000
001M
0000
0100
0000
0010
0000
0001
0000
0010
0100
1000
0100
0010
0000
,
1001
0000
0100
0001
0100
0000
0M10
1000
001M
0000
100M
0100
10M0
0000
001M
0100
,
M010
0000
1M00
0001
1M00
0000
0001
0000
1000
0100
0000
0100
1000
0000
0100
0000
,
0M10
1000
0M10
0000
10M0
0001
10M0
0000
M001
0100
M001
0000
001M
0100
001M
0000
,
1000
0000
0100
0000
0010
0000
0001
0000
0001
0010
0100
1000
0001
0010
0100
1000
,
0010
0000
0M10
0000
0M10
0000
0010
0100
0010
0100
0010
0100
0010
0100
0010
0000
,
0010
0000
0100
1000
0001
0010
0100
1000
0110
0000
01M0
0000
01M0
0000
01M0
0000
,
1000
0100
0010
0001
1000
0100
0010
0001
0M10
0000
0M10
0000
0M10
0000
0M10
0000
,
0001
0010
0100
1000
0001
0010
0100
1000
0100
1000
0100
1000
0100
1000
0001
1000
,
1001
0000
1M00
0001
1M00
0000
0001
0100
00M1
0000
00M1
1000
0001
0000
100M
0100
,
100M
0000
M010
0100
001M
0000
0100
0000
1000
0100
0000
0100
1000
0000
0100
0000
,
0110
0000
1M00
0001
10M0
0000
100M
0100
10M0
0000
0M10
1000
001M
0000
M100
0010
,
010M
0000
0001
0000
1000
0000
0100
0000
0001
0100
1000
0100
0001
0100
0001
0100
,
0101
0000
0001
0100
0001
0000
1000
0001
1000
0000
1000
0100
1000
0000
0M10
1000
,
001M
0000
1M00
0010
0100
0000
0010
0000
0100
0010
0000
0010
0100
0000
0001
0000
,
001M
0100
001M
0000
10M0
0100
100M
0000
M010
0100
001M
0000
1M00
0001
1M00
0000
,
1000
0000
0100
0000
0010
0000
0001
0000
0100
0000
1000
0100
0010
0100
0001
0000
,
0101
0000
00M1
0100
M001
0000
1M00
0001
10M0
0000
100M
0100
100M
0000
0M10
1000
,
001M
0000
100M
0100
M010
0000
0100
0000
0001
0010
0000
0010
0100
0000
1000
0000
,
0M10
1000
001M
0000
10M0
0100
100M
0000
M010
0100
001M
0000
0100
0000
M001
0000
,
0010
0100
1000
0100
0010
0100
1000
0100
0010
0000
0100
0000
0001
0000
0001
0000
,
1000
0100
0001
0100
1000
0100
0001
0100
1000
0000
100M
0000
100M
0000
100M
0000
,
1000
0010
0001
0010
1000
0010
0001
0010
1000
0000
1M00
0000
1M00
0000
1M00
0000
,
0010
0100
0001
1000
0010
0100
0001
1000
0010
0100
1000
0100
0010
0000
0010
0000
,
1000
0001
1000
0001
1000
0001
1000
0001
1000
0001
1000
0001
0100
0000
0100
0000
,
0001
0010
0100
0000
1000
0000
0010
0100
1000
0100
0010
0100
0010
0000
0100
0001
0100
0001
0100
0001
0100
0001
0100
0001
0100
0000
0010
0000
0100
1000
0100
0010
,
0100
0000
1000
0100
0010
0100
1000
0100
0010
0000
1000
0000
0001
1000
0100
0010
2002
0000
0000
0000
0000
0000
0000
0000
0000
0000
0000
0000
0000
0000
0000
0000
,
3003
0000
0000
0000
;
