#TITLE:I'm So Classy;
#SUBTITLE:;
#ARTIST:F-777;
#TITLETRANSLIT:;
#SUBTITLETRANSLIT:;
#ARTISTTRANSLIT:;
#GENRE:;
#CREDIT:;
#BANNER:I'm So Classy-bn.jpg;
#BACKGROUND:I'm So Classy-bg.jpg;
#LYRICSPATH:;
#CDTITLE:;
#MUSIC:I'm So Classy.ogg;
#OFFSET:-0.012000;
#SAMPLESTART:22.540001;
#SAMPLELENGTH:12.000000;
#SELECTABLE:YES;
#BPMS:0.000000=127.919998
,80.000000=63.959999
,96.000000=127.980011
,160.000000=63.959999
,172.000000=128.020004
;
#STOPS:
;
#BGCHANGES:;
#KEYSOUNDS:;
#ATTACKS:;

//---------------dance-single - ----------------
#NOTES:
     dance-single:
     :
     Challenge:
     11:
     0.584570,0.931241,0.640350,0.109328,0.593495,428.000000,82.000000,14.000000,537.000000,0.000000,0.000000,0.584570,0.931241,0.640350,0.109328,0.593495,428.000000,82.000000,14.000000,537.000000,0.000000,0.000000:
// measure 0
0000
0000
0000
0000
,  // measure 1
0000
0000
0000
0000
,  // measure 2
0000
0000
0000
0000
,  // measure 3
0000
0000
0000
0000
,  // measure 4
1MM0
0001
1MM0
0001
1MM0
0010
1M0M
0010
,  // measure 5
1M0M
0100
10MM
0100
MM10
0001
1MM0
0001
,  // measure 6
M10M
0010
10MM
0100
MM10
0001
M1M0
0001
,  // measure 7
1MM0
1000
0MM1
0001
M1M0
0001
1MM0
0002
,  // measure 8
0000
0023
0000
0230
0000
2300
0000
3002
,  // measure 9
0000
0023
0000
2030
0000
3001
0000
0200
,  // measure 10
0000
2300
0000
3020
0000
2030
0000
3010
,  // measure 11
0000
1010
0000
1001
0000
0101
0000
1000
,  // measure 12
0001
0000
0100
0000
0001
0000
1000
0000
0001
0100
0000
0001
0000
0000
MMMM
0000
,  // measure 13
0010
0000
1000
0000
0100
0000
0010
0000
1000
0100
0000
1000
0000
0000
MMMM
0000
,  // measure 14
1000
0000
1000
0000
0010
0000
0010
0000
1000
0001
0000
0100
0000
0000
MMMM
0000
,  // measure 15
0010
0000
1000
0000
0010
0000
1000
0000
0001
1000
0000
0001
0100
0001
1000
0001
,  // measure 16
1100
0000
0110
0000
1010
0000
0101
0000
0010
1000
0000
0100
0000
0000
MMMM
0000
,  // measure 17
0110
0000
1001
0000
0110
0000
1100
0000
0010
1000
0000
0100
0000
0000
MMMM
0000
,  // measure 18
0110
0000
1001
0000
1100
0000
0101
0000
1000
0001
0000
0100
0000
0000
MMMM
0000
,  // measure 19
1100
0000
0110
0000
1010
0000
1001
0000
1000
0001
1000
0001
0100
0001
1000
0001
,  // measure 20
0100
0000
1000
0000
0010
0000
1000
0000
0010
0100
0000
0010
0000
0000
MMMM
0000
0010
0000
1000
0000
0100
0000
0010
0000
1000
0100
0000
1000
0000
0000
MMMM
0000
,  // measure 21
0010
0000
0010
0000
0100
0000
0100
0000
1000
0001
0000
0100
0000
0000
MMMM
0000
0110
0000
1000
0000
0001
0000
1000
0000
0001
1000
0001
0100
0010
1000
0001
0100
,  // measure 22
0110
0000
1000
0000
0100
0000
0010
0000
0001
0100
0000
0010
0000
0000
MMMM
0000
1000
0000
0100
0000
1000
0000
0100
0000
1000
0010
0000
0100
0000
0000
MMMM
0000
,  // measure 23
0100
0000
0001
0000
0010
0000
0100
0000
1000
0010
0000
0100
0000
0000
MMMM
0000
1000
0000
0010
0000
0001
0000
0100
0000
0010
1000
0001
1000
0001
1000
0001
0100
,  // measure 24
0010
0000
0100
0000
1000
0000
0100
0000
1000
0010
0000
0100
0000
0000
MMMM
0000
,  // measure 25
0010
0000
0100
0000
0001
0000
1000
0000
0010
1000
0000
0100
0000
0000
MMMM
0000
,  // measure 26
0010
0000
0010
0000
1000
0000
1000
0000
0001
1000
0000
0100
0000
0000
MMMM
0000
,  // measure 27
0010
0000
1000
0000
0010
0000
1000
0000
0001
1000
0001
0100
0001
1000
0001
1000
,  // measure 28
0101
0000
1000
0000
0110
0000
1000
0000
0100
0010
0000
0100
0000
0000
MMMM
0000
,  // measure 29
0011
0000
1000
0000
0101
0000
1000
0000
0010
1000
0000
0100
0000
0000
MMMM
0000
,  // measure 30
0110
0000
0001
0000
1010
0000
0001
0000
0100
0001
0000
0100
0000
0000
MMMM
0000
,  // measure 31
0110
0000
1000
0000
0101
0000
1000
0000
0010
1000
0010
1000
0010
1000
0001
1000
,  // measure 32
0002
0000
0003
1MM1
MMMM
MMMM
1M1M
MMMM
,  // measure 33
11MM
MMMM
MMMM
MM11
MMMM
MMMM
M1MM
MMMM
,  // measure 34
1MM1
MMMM
MMMM
1M1M
MMMM
MMMM
1MM1
MMMM
,  // measure 35
M1M1
MMMM
MMMM
11MM
MMMM
MMMM
MM11
MMMM
,  // measure 36
M1M1
MMMM
MMMM
1MM1
MMMM
MMMM
1MM1
MMMM
,  // measure 37
1M1M
MMMM
MMMM
M11M
MMMM
MMMM
M11M
MMMM
,  // measure 38
MMM1
MMMM
MMMM
1MM1
MMMM
MMMM
1M1M
MMMM
,  // measure 39
1MM1
MMMM
MMMM
M1M1
MMMM
MMMM
MM1M
MMM0
,  // measure 40
1000
0000
0010
0000
1000
0000
0010
1000
0010
0000
0100
0000
0010
1000
0001
0000
0100
0000
0001
0000
0100
0000
0010
0000
1000
0000
0100
0001
0010
0000
0000
0000
,  // measure 41
0001
0000
1000
0000
0001
0000
1000
0001
1000
0000
0010
0000
1000
0001
0100
0000
0010
1000
0100
0010
0100
0000
1000
0000
0010
0000
0100
0001
1000
0000
0000
0000
,  // measure 42
1000
0100
0010
0001
0100
1000
0001
0100
0010
1000
0010
0100
0010
1000
0010
0100
0001
0100
1000
0010
0001
0100
1000
0001
1000
0100
0001
0010
1000
0100
0001
0100
,  // measure 43
1001
0000
1000
0000
0010
0000
1000
0000
0010
1000
0000
0100
0000
0000
MMMM
0000
,  // measure 44
1000
0000
0001
0000
0100
0000
0010
0000
0010
1000
0000
0100
0000
0000
MMMM
0000
,  // measure 45
1000
0000
1000
0000
0001
0000
0001
0000
0010
0100
0000
0010
0000
0000
MMMM
0000
,  // measure 46
1000
0000
1000
0000
0010
0000
0010
0000
1000
0010
0000
1000
0001
1000
0001
1000
,  // measure 47
0001
0000
0110
0000
0100
0000
1010
0000
0010
1000
0000
0100
0000
0000
MMMM
0000
,  // measure 48
0010
0000
1001
0000
0010
0000
0101
0000
0010
0001
0000
0100
0000
0000
MMMM
0000
,  // measure 49
0100
0000
0011
0000
0100
0000
0101
0000
1000
0001
0000
0100
0000
0000
MMMM
0000
,  // measure 50
0010
0000
1100
0000
0010
0000
1100
0000
0001
1000
0000
0010
1000
0010
1000
0010
,  // measure 51
M1MM
MMMM
MMMM
1MM1
MMMM
MMMM
11MM
MMMM
,  // measure 52
MM11
MMMM
MMMM
M1M1
MMMM
MMMM
1MM1
MMMM
,  // measure 53
1M1M
MMMM
MMMM
11MM
MMMM
MMMM
M1M1
MMMM
,  // measure 54
M11M
MMMM
MMMM
1MM1
MMMM
MMMM
M11M
MMMM
,  // measure 55
M1M1
MMMM
MMMM
MM11
MMMM
MMMM
1M1M
MMMM
,  // measure 56
11MM
MMMM
MMMM
1MM1
MMMM
MMMM
MM11
MMMM
,  // measure 57
M11M
MMMM
MMMM
1MM1
MMMM
MMMM
M11M
MMMM
,  // measure 58
M1M1
MMMM
MMMM
MM11
MMMM
MMMM
11MM
MMMM
,  // measure 59
2002
0000
0000
0000
0000
3003
0000
0000
;

//---------------dance-single - ----------------
#NOTES:
     dance-single:
     :
     Hard:
     7:
     0.383764,0.470501,0.078091,0.265511,0.117137,300.000000,10.000000,34.000000,33.000000,0.000000,0.000000,0.383764,0.470501,0.078091,0.265511,0.117137,300.000000,10.000000,34.000000,33.000000,0.000000,0.000000:
0000
0000
0000
0000
,
0000
0000
0000
0000
,
0000
0000
0000
0000
,
0000
0000
0000
0000
,
1000
0100
1000
0100
1000
0100
1000
0M00
,
0010
0100
0010
0100
0010
0100
0010
0M00
,
0001
0100
0001
0100
0001
0100
0001
00M0
,
1000
0010
0100
0001
,
0001
0010
0100
1000
0001
0010
0100
0000
,
1000
0100
0010
0001
1000
0100
0010
0000
,
0001
1000
0001
1000
0010
0100
0010
0000
,
2002
0000
0000
3003
,
1000
0000
0100
0000
0010
0000
0100
0000
1000
0000
0000
0010
0000
0000
0M00
0000
,
1000
0000
1000
0000
0010
0000
0100
0000
0010
0000
0000
0001
0000
0000
00M0
0000
,
0001
0000
0001
0000
0100
0000
0001
0000
0100
0000
0000
0010
0000
0000
0M00
0000
,
1000
0100
0010
0100
1000
0000
1001
0000
,
0010
0000
1000
0000
0100
0000
0010
0000
1000
0000
0000
1000
0000
0000
00M0
0000
,
1000
0000
0010
0000
1000
0000
0010
0000
0100
0000
0000
0100
0000
0000
0M00
0000
,
0010
0000
0001
0000
0010
0000
0001
0000
0100
0000
0000
0100
0000
0000
00M0
0000
,
0001
0000
0010
0000
0100
0000
1000
0000
0100
0000
0000
0100
0000
0000
1000
0000
,
1001
0000
0000
0000
1000
0000
0000
0000
0010
0000
0100
0000
0010
0001
0010
0000
,
0001
0000
0000
0000
0100
0010
1000
0000
1000
0000
0000
0000
0010
1000
0001
0000
,
1001
0000
0000
0000
1000
0100
1000
0000
0110
0000
0000
0000
0001
0100
0001
0000
,
0110
0000
0000
0000
0001
0010
0001
0000
1MM1
0000
0000
0000
1000
0001
1000
0000
,
1000
0000
0010
0000
0100
0000
0000
0000
0001
0000
0000
0010
0000
0000
0M00
0000
,
1000
0000
0100
0000
1000
0000
0010
0000
0100
0000
0000
0100
0000
0000
00M0
0000
,
1000
0000
0001
0000
1000
0000
0001
0000
1000
0000
0000
1000
0000
0000
0M00
0000
,
1000
0100
0001
0000
0001
0100
1000
0100
,
0010
0000
0100
0000
1000
0000
0100
0000
0010
0000
0000
0010
0000
0000
0M00
0000
,
1000
0000
0001
0000
1000
0000
0001
0000
0001
0000
0000
0001
0000
0000
M000
0000
,
0010
0000
0100
0000
0010
0000
0100
0000
0010
0000
0000
0010
0000
0000
0M00
0000
,
1000
0000
0100
0000
0010
0000
0100
0000
1000
0000
0000
1000
0000
0000
0010
0000
,
2000
0000
0000
3200
0000
0000
0320
0000
,
0032
0000
0000
0203
0000
0000
0320
0000
,
1000
0000
0000
2030
0000
0000
0010
0000
,
3200
0000
0000
0302
0000
0000
0013
0100
,
2000
0000
0000
0010
0000
0000
3200
0000
,
0320
0000
0000
0032
0000
0000
0023
0000
,
0001
0000
0000
0230
0000
0000
0320
0000
,
1000
0000
0000
0230
0000
0000
0302
0000
,
1003
0000
0010
0000
0100
0001
0100
0000
0010
0000
1000
0000
0001
0000
0010
0000
,
0100
0000
1000
0000
0010
1000
0010
0000
1000
0000
1000
0000
1001
0000
0000
0000
,
1000
0100
0010
0001
0010
1000
1001
0000
,
1000
0000
0100
0000
1000
0000
0100
0000
0010
0000
0000
0100
0000
0000
00M0
0000
,
1000
0000
0001
0000
1000
0000
0001
0000
0100
0000
0000
0010
0000
0000
0M00
0000
,
0001
0000
0010
0000
0001
0000
0010
0000
0001
0000
0000
0100
0000
0000
00M0
0000
,
0001
0100
0001
0000
1000
0001
1000
1000
,
0010
0000
1000
0000
0100
0000
0010
0000
0100
0000
0000
0100
0000
0000
00M0
0000
,
1000
0000
0100
0000
0010
0000
0100
0000
1000
0000
0000
1000
0000
0000
000M
0000
,
0001
0000
0100
0000
1000
0000
0100
0000
0001
0000
0000
0001
0000
0000
0M00
0000
,
1000
0000
0010
0000
0100
0000
1000
0000
0100
0000
0000
0100
0000
0000
1000
0000
,
0020
0000
0000
1000
0000
0000
0230
0000
,
0320
0000
0000
0032
0000
0000
0010
0000
,
0203
0000
0000
1000
0000
0000
2300
0000
,
0010
0000
0000
3200
0000
0000
0320
0000
,
0032
0000
0000
2003
0000
0000
0010
0000
,
3200
0000
0000
0001
0000
0000
0320
0000
,
0230
0000
0000
1000
0000
0000
0010
0000
,
0302
0000
0000
1000
0000
0000
1003
0000
,
1001
0M00
00M0
000M
M000
0000
M00M
0000
,
0M00
00M0
M00M
0000
0000
0000
0000
0000
;

//---------------dance-single - ----------------
#NOTES:
     dance-single:
     :
     Medium:
     5:
     0.335793,0.303922,0.101519,0.054664,0.000000,281.000000,13.000000,7.000000,6.000000,0.000000,0.000000,0.335793,0.303922,0.101519,0.054664,0.000000,281.000000,13.000000,7.000000,6.000000,0.000000,0.000000:
0000
0000
0000
0000
,
0000
0000
0000
0000
,
0000
0000
0000
0000
,
0000
0000
0000
0000
,
1000
0000
0010
0000
0001
0100
0001
0000
,
0010
0000
0110
0000
1000
0100
1000
0000
,
1000
0000
0101
0000
0001
0100
1000
0000
,
0010
0000
1010
0000
1000
0100
0010
0100
,
1000
0000
0110
0000
1000
0100
0001
0000
,
0010
0000
1001
0000
0010
0100
0100
0000
,
1000
0000
0110
0000
1000
0100
0100
0000
,
0001
0000
0101
0000
0010
0100
1000
0000
,
1000
0100
1000
0000
0010
0100
0010
0000
,
0001
0100
0001
0000
1000
0001
1000
0000
,
1000
0100
1000
0000
0010
1000
0010
0000
,
2000
0000
3100
0000
0001
0010
0100
0000
,
0001
1000
0001
0000
1000
0100
1000
0000
,
0020
0100
0130
0000
0010
0001
0010
0000
,
0001
0100
0100
0000
0010
1000
0010
0000
,
2000
0001
3001
0000
0010
1000
0100
0000
,
1001
1000
0010
0100
,
1000
0000
0010
0000
0001
1000
0001
1000
,
0110
200M
3020
0001
,
0130
0000
1001
0000
1000
0001
1000
0000
,
1000
0001
1000
0000
0010
0000
01M0
0000
,
1000
0100
1000
0000
0100
0000
0010
0000
,
0001
0010
0001
0000
0100
0000
0010
0000
,
0001
1000
0001
0000
1000
0100
0010
0000
,
0001
0100
0001
0000
0010
0000
0100
0000
,
1000
0001
0001
0000
0010
0000
0100
0000
,
0001
1000
1000
0000
0010
0000
1000
0000
,
0010
0100
0010
0000
1000
0000
0001
0000
,
1000
0000
1000
0000
1000
0000
0010
0100
,
0010
0010
0010
0010
,
0001
1000
0001
0000
0001
0000
0001
0000
,
0100
0010
0100
0000
0100
0000
0100
0000
,
1000
0100
0010
0000
0001
0000
0001
0000
,
0010
0100
1000
0000
1000
0000
1000
0000
,
0001
1000
1000
0000
0010
0000
0100
0000
,
0010
0100
0100
0000
1000
0000
1001
0000
,
1000
0000
0010
0000
0100
0100
0100
0000
,
1000
0000
0001
0000
0010
0000
0100
0100
,
1000
0010
0001
1000
,
1000
0100
1000
0000
0010
0000
0100
0000
,
0010
0001
0010
0000
0001
0000
0100
0000
,
1000
0001
1000
0000
0010
0000
0100
0000
,
1000
0100
1000
0000
0001
0010
0100
0000
,
0100
0001
0100
0000
0010
0000
0010
0000
,
1000
0001
1000
0000
0100
0000
0100
0000
,
1000
0100
1000
0000
0010
0000
0010
0000
,
0001
0100
0001
0000
1001
0000
MMMM
0000
,
1000
0010
0100
0010
,
0001
0000
0001
0000
0001
0100
0001
0000
,
0100
0000
0100
0000
0010
1000
0010
0000
,
1000
0000
1000
0000
1000
0100
0010
0000
,
0001
0000
0001
0000
0001
0100
0001
0000
,
0100
0000
0100
0000
0010
1000
0100
0000
,
0010
0000
0001
0000
0010
0100
1000
0000
,
0001
0000
1000
0000
0010
1000
0001
0000
,
2002
0000
0000
0000
0000
0000
0000
3003
;

//---------------dance-single - ----------------
#NOTES:
     dance-single:
     :
     Easy:
     3:
     0.162876,0.161259,0.070282,0.000000,0.000000,137.000000,9.000000,0.000000,0.000000,0.000000,0.000000,0.162876,0.161259,0.070282,0.000000,0.000000,137.000000,9.000000,0.000000,0.000000,0.000000,0.000000:
0000
0000
0000
0000
,
0000
0000
0000
0000
,
0000
0000
0000
0000
,
0000
0000
0000
0000
,
1000
0000
0010
0000
,
0001
0000
1000
0000
,
0010
0000
0100
0000
,
0001
0000
1000
1000
,
0010
0000
0100
0000
,
0001
0000
1000
0000
,
0010
0000
0100
0000
,
0001
0000
1000
0000
,
1000
0010
0100
0000
,
0100
0000
0010
0000
,
0001
0100
0001
0000
,
0010
0000
1000
0000
,
0010
0100
0001
0000
,
1000
0000
0010
0000
,
0001
0100
0001
0000
,
1001
0000
1000
1000
,
0010
0000
1000
0000
,
0010
0001
1000
0100
,
0010
0001
1000
0000
,
0100
0000
0010
0001
,
1000
0100
0010
0000
,
0001
0000
1000
0000
,
0100
0010
1000
0000
,
0100
0000
0010
0000
,
0001
1000
0001
0000
,
0010
0000
1000
0000
,
0001
0010
1000
0000
,
0100
0000
0010
1000
,
1001
0000
1000
0000
,
0110
0000
0010
0000
,
1001
0000
0001
0000
,
0110
0000
1000
1000
,
1001
0000
1000
0000
,
0010
0000
0001
0000
,
1000
0000
0001
0000
,
1000
0000
0100
0100
,
0110
0000
1000
0000
,
0010
0000
0001
0000
,
0100
0100
1000
1000
,
1000
0001
1000
0000
,
0010
0000
0100
0000
,
0010
0100
0010
0000
,
0001
0000
0001
0000
,
0001
0010
0100
0000
,
1000
0000
0010
0000
,
1000
0010
0100
0000
,
0001
0000
1000
1000
,
1001
0000
1000
0000
,
0010
0000
0100
0000
,
0001
0000
0010
0000
,
0100
0000
1000
1000
,
0100
0000
0010
0000
,
0001
0000
0010
0000
,
0001
0000
1000
0000
,
0100
0000
1000
1000
,
1001
0000
0000
0000
;

//---------------dance-single - ----------------
#NOTES:
     dance-single:
     :
     Beginner:
     1:
     0.078091,0.115185,0.062473,0.000000,0.000000,62.000000,8.000000,0.000000,0.000000,0.000000,0.000000,0.078091,0.115185,0.062473,0.000000,0.000000,62.000000,8.000000,0.000000,0.000000,0.000000,0.000000:
0000
0000
0000
0000
,
0000
0000
0000
0000
,
0000
0000
0000
0000
,
0000
0000
0000
0000
,
1000
0000
0000
0000
,
0001
0000
0000
0000
,
0100
0000
0000
0000
,
0010
0000
0000
0000
,
1000
0000
0000
0000
,
0010
0000
0000
0000
,
0100
0000
0000
0000
,
1000
0000
0000
0000
,
1001
0000
0000
0000
,
1000
0000
0000
0000
,
0010
0000
0000
0000
,
0001
0000
0000
0000
,
0100
0000
0000
0000
,
1000
0000
0000
0000
,
0010
0000
0000
0000
,
0100
0000
0000
0000
,
0110
0000
1000
0000
,
0000
0000
0001
0000
,
0010
0000
0100
0000
,
1000
0000
0001
0000
,
1001
0000
0000
0000
,
1000
0000
0000
0000
,
0010
0000
0000
0000
,
0100
0000
0000
0000
,
1000
0000
0000
0000
,
0010
0000
0000
0000
,
0100
0000
0000
0000
,
0001
0000
0000
0000
,
0110
0000
0000
0000
,
1000
0000
0000
0000
,
0010
0000
0000
0000
,
0100
0000
0000
0000
,
0001
0000
0000
0000
,
1000
0000
0000
0000
,
0010
0000
0000
0000
,
0100
0000
0000
0000
,
1001
0000
1000
0000
,
0010
0000
0100
0000
,
0001
0000
1000
0000
,
0110
0000
0000
0000
,
1000
0000
0000
0000
,
0010
0000
0000
0000
,
0001
0000
0000
0000
,
1000
0000
0000
0000
,
0100
0000
0000
0000
,
0010
0000
0000
0000
,
0001
0000
0000
0000
,
1001
0000
0000
0000
,
0100
0000
0000
0000
,
0010
0000
0000
0000
,
0001
0000
0000
0000
,
1000
0000
0000
0000
,
0100
0000
0000
0000
,
0010
0000
0000
0000
,
0001
0000
0000
0000
,
1001
0000
0000
0000
;
