#TITLE:Heat On Beat 2012;
#SUBTITLE:;
#ARTIST:CAPCOM;
#TITLETRANSLIT:;
#SUBTITLETRANSLIT:;
#ARTISTTRANSLIT:;
#GENRE:;
#CREDIT:;
#BANNER:Heat on Beat 2012-bn.jpg;
#BACKGROUND:Heat on Beat 2012-bg.jpg;
#LYRICSPATH:;
#CDTITLE:;
#MUSIC:Heat on Beat 2012.ogg;
#OFFSET:0.003000;
#SAMPLESTART:11.900000;
#SAMPLELENGTH:12.000000;
#SELECTABLE:YES;
#BPMS:0.000000=161.000000
;
#STOPS:
;
#BGCHANGES:;
#KEYSOUNDS:;
#ATTACKS:;

//---------------dance-single - R. Paradis----------------
#NOTES:
     dance-single:
     R. Paradis:
     Challenge:
     13:
     0.969297,1.000000,0.045660,0.118716,1.000000,725.000000,5.000000,13.000000,205.000000,0.000000,0.000000,0.969297,1.000000,0.045660,0.118716,1.000000,725.000000,5.000000,13.000000,205.000000,0.000000,0.000000:
0000
0000
0000
0000
,
0000
0000
0000
0000
,
0000
0000
0000
0000
,
0000
0000
0000
0000
,
0000
0000
0000
0000
,
0000
0000
0000
0000
,
0000
0000
0000
0000
,
2002
0000
3000
MMM0
,
1003
0000
0001
0100
0001
0000
1000
0000
0100
0010
0100
0000
1000
0000
0001
0100
,
0001
0000
1000
0000
0100
0010
0100
0000
1000
0000
0001
0100
0001
0000
1000
0000
,
0001
0100
0010
1000
0100
1000
0001
0010
0001
1000
0100
1000
0001
0100
0010
1000
,
0001
0010
0100
1000
0010
1000
0001
0100
0010
1000
0100
0000
0100
0000
0100
0000
,
1000
0000
0001
0100
0010
0000
1000
0000
0100
0010
0001
0000
1000
0000
0010
1000
,
0001
0000
0010
0000
0100
1000
0001
0000
0100
0000
0010
1000
0001
0000
1000
0000
,
0010
1000
0001
0010
0100
0010
0001
1000
0010
1000
0001
0100
0010
1000
0100
1000
,
0001
0010
0100
1000
0001
1000
0010
1000
0001
0100
0010
1000
0100
1000
0001
0010
,
0100
0000
1000
0010
1000
0000
0001
0000
0100
0010
0100
0000
0001
0000
0010
0100
,
1000
0000
0001
0000
1000
0010
0100
0000
0001
0000
0010
0001
1000
0000
0010
0000
,
1000
0100
0010
0001
1000
0010
1000
0100
0010
0001
0010
0001
1000
0010
1000
0001
,
1000
0010
1000
0001
0100
0010
1000
0100
1000
0001
0010
0000
0010
0000
0010
0000
,
0001
0000
1000
0010
1000
0000
0001
0000
0100
0010
0100
0000
0001
0000
0010
0100
,
1000
0000
0100
0000
0010
0001
1000
0000
0010
0000
1000
0001
0100
0000
0010
0000
,
1000
0010
1000
0001
0100
0010
1000
0100
1000
0001
0010
0100
1000
0010
1000
0001
,
2MM1
0MMM
0MMM
0MMM
,
3001
0100
0010
1000
0001
0010
0001
1000
0001
0100
0010
1000
0001
0010
0001
1000
,
0001
0100
0010
1000
0001
0010
0001
1000
0001
0100
0010
1000
0001
0010
0001
1000
,
0001
0100
0010
0100
0001
0010
0100
1000
0001
0100
0010
0100
0001
0010
0100
1000
,
0001
0100
0010
0100
0001
0010
0100
1000
0001
0100
0010
0100
0001
1000
0010
1000
,
0100
1000
0001
0100
0001
0010
0100
1000
0100
1000
0001
0100
0001
0010
0100
1000
,
0100
1000
0001
0100
0001
0010
0100
1000
0100
1000
0001
0100
0001
0010
0100
1000
,
0001
0100
0010
1000
0001
0100
0010
1000
0001
0100
0010
1000
0001
0100
0010
1000
,
0001
0010
0100
1000
0001
0010
0100
1000
0001
0010
0100
1000
0001
0010
0100
1000
,
0001
0010
0100
1000
0001
0100
0001
1000
0001
0010
0100
1000
0001
0100
0001
1000
,
0001
0010
0100
1000
0001
0100
0001
1000
0001
0010
0100
1000
0001
0100
0001
1000
,
0001
0010
0100
0010
0001
0100
0010
1000
0001
0010
0100
0010
0001
0100
0010
1000
,
0001
0010
0100
0010
0001
0100
0010
1000
0001
0010
0100
0010
0001
1000
0100
1000
,
0010
1000
0001
0010
0001
0100
0010
1000
0010
1000
0001
0010
0001
0100
0010
1000
,
0010
1000
0001
0010
0001
0100
0010
1000
0010
1000
0001
0010
0001
0100
0010
1000
,
0001
0010
0100
1000
0001
0010
0100
1000
0001
0010
0100
1000
0001
0010
0100
1000
,
0001
0100
0010
1000
0001
0100
0010
1000
0001
0100
0010
1000
0001
0100
0010
1000
,
MMM2
MMM0
MMM0
MMM0
,
MMM0
MMM0
MMM0
MMM0
,
2MM3
0MMM
0MMM
0MMM
,
0MMM
0MMM
0MMM
0MMM
,
3M2M
MM0M
MM0M
MM0M
,
MM0M
MM0M
MM0M
MM0M
,
M23M
M0MM
M0MM
M0MM
,
M0MM
0000
M0MM
0000
M0MM
0300
1MM1
0000
,
1MM2
MMM0
MM10
MMM0
,
1MM0
MMM0
M1M0
MMM0
,
2MM3
0MMM
0MM1
0MMM
,
0M1M
0MMM
01MM
0MMM
,
3M2M
MM0M
M10M
MM0M
,
1M0M
MM0M
1M0M
MM0M
,
M23M
0000
M0MM
0000
M0M1
0000
M0MM
0300
,
1001
0000
0000
1000
0000
0000
0100
0000
0000
0100
0000
0000
1000
0100
1000
0100
1000
0100
1000
0100
1000
0100
1000
0100
,
1000
0010
1000
0001
0100
0001
1000
0001
1000
0100
1000
0010
1000
0001
0100
0001
,
1000
0100
1000
0100
0010
0001
1000
0010
1000
0010
0100
0001
0010
0100
0010
0100
,
1000
0010
0100
0001
1000
0100
1000
0001
0100
0010
1000
0100
1000
0010
0100
0001
,
1000
0100
1000
0001
0100
0010
1000
0100
1000
0010
0100
0001
1000
0100
1000
0001
,
1000
0100
1000
0001
0010
0001
1000
0001
1000
0010
1000
0100
1000
0001
0010
0001
,
1000
0010
1000
0010
0100
0001
1000
0100
1000
0100
0010
0001
0100
0010
0100
0010
,
1000
0100
0010
0001
1000
0010
1000
0001
0010
0100
1000
0010
1000
0100
1000
0001
,
1000
0100
1000
0100
0010
0001
1000
0010
1000
0010
0100
0001
0100
0001
1000
0100
,
1000
0001
0010
0100
1000
0100
1000
0001
0010
0100
1000
0100
1000
0001
0010
0100
,
1000
0010
1000
0010
0100
0001
0010
0100
0010
0100
1000
0001
0100
0001
0100
0001
,
0100
0010
1000
0100
1000
0010
0100
0001
0100
0010
1000
0100
1000
0010
0100
0001
,
0100
0010
1000
0100
1000
0001
0100
0001
1000
0100
0010
0001
1000
0100
0010
0100
,
1000
0010
0100
0001
0010
0001
0100
0010
1000
0010
0100
0001
0010
0001
0100
0010
,
1000
0010
0100
0001
1000
0100
0010
0100
1000
0010
0100
0001
0010
0001
1000
0100
,
1000
0100
0010
0001
0100
0010
1000
0100
0010
0001
0100
0010
1000
0100
0010
0001
,
2MMM
0MMM
0MMM
0MMM
,
3MM2
MMM0
MMM0
MMM0
,
MMM0
0000
0000
0003
MMM0
0000
0000
0000
0000
0000
0000
0000
0000
0000
0000
0000
;

//---------------dance-single - ----------------
#NOTES:
     dance-single:
     :
     Hard:
     9:
     0.553138,0.563730,0.374412,0.219168,0.054792,359.000000,41.000000,24.000000,19.000000,0.000000,0.000000,0.553138,0.563730,0.374412,0.219168,0.054792,359.000000,41.000000,24.000000,19.000000,0.000000,0.000000:
// measure 0
0000
0000
0000
0000
,  // measure 1
0000
0000
0000
0000
,  // measure 2
0000
0000
0000
0000
,  // measure 3
0000
0000
0000
0000
,  // measure 4
0000
0000
0000
0000
,  // measure 5
0000
0000
0000
0000
,  // measure 6
0000
0000
0000
0000
,  // measure 7
2002
0000
0000
3000
,  // measure 8
1003
0000
0000
0012
0000
0000
0103
0000
,  // measure 9
0000
0210
0000
0000
1300
0000
0010
0000
,  // measure 10
0100
0000
0010
0000
0001
0100
1000
0000
,  // measure 11
0010
0000
1000
0000
0010
1000
0100
0010
,  // measure 12
1001
0000
0000
2200
0000
3300
0011
0000
,  // measure 13
0000
1010
0000
0000
0102
0000
0010
0000
,  // measure 14
0103
0000
1000
0000
0010
1000
0100
0000
,  // measure 15
0010
0001
0100
0010
1000
0100
0010
1000
,  // measure 16
0101
0000
0000
0022
0000
0033
1100
0000
,  // measure 17
0000
1010
0000
0000
0110
0000
1002
0000
,  // measure 18
1000
0000
0013
0000
0100
0001
0010
0000
,  // measure 19
1000
0001
0100
0000
0010
1000
0100
0010
,  // measure 20
1001
0000
0000
1010
0000
0000
0011
0000
,  // measure 21
0000
1001
0000
0000
1002
0000
0010
0000
,  // measure 22
1000
0000
0103
0000
0010
0001
0010
1000
,  // measure 23
2002
0000
0000
3003
,  // measure 24
1000
0010
0100
1000
0100
0010
0001
0010
,  // measure 25
0100
0000
1000
0000
0100
0000
0010
0000
0100
0000
0010
0100
0000
0000
0100
0000
,  // measure 26
0010
0001
0010
0100
1000
0100
0010
0001
,  // measure 27
0010
0000
0100
0000
1000
0000
0010
0000
0100
0000
0010
0100
0000
0000
0100
0000
,  // measure 28
0010
0001
0010
1000
0100
0010
0001
0100
,  // measure 29
0010
0000
0100
0000
1000
0000
0100
0000
0010
0000
0100
0010
0000
0000
0100
0000
,  // measure 30
1000
0100
0001
0100
1000
0100
0010
0001
,  // measure 31
0010
0000
0100
0000
1000
0000
0100
0000
0010
0000
1000
0100
0000
0000
0001
0000
,  // measure 32
1001
1000
0100
1000
0100
0010
0100
0010
,  // measure 33
0001
0000
0010
0000
0100
0000
1000
0000
0100
0000
0010
1000
0000
0000
1000
0000
,  // measure 34
0100
0010
0100
0001
0010
1000
0100
0010
,  // measure 35
0001
0000
0100
0000
1000
0000
0100
0000
0010
0000
0000
0001
0100
0000
0010
0000
,  // measure 36
1000
0100
0010
0001
1000
0010
1000
0100
,  // measure 37
0010
0000
0100
0000
1000
0000
0100
0000
0010
0000
0000
0100
0010
0000
1000
0000
,  // measure 38
0100
0010
0001
0100
1000
0100
0010
1000
,  // measure 39
0100
0000
0010
0000
0001
0000
0010
0000
1000
0000
0010
0100
1000
0000
0100
0000
,  // measure 40
22MM
00M0
000M
00M0
,  // measure 41
000M
0000
00M0
0000
000M
0000
00M0
0300
,  // measure 42
302M
0M00
000M
M000
,  // measure 43
0M00
000M
M000
0M00
,  // measure 44
023M
1000
0010
0001
,  // measure 45
1000
0010
0001
0010
,  // measure 46
2300
0100
0010
0001
,  // measure 47
0100
0000
0010
0000
0001
3000
0011
0000
,  // measure 48
2002
0000
0000
0000
,  // measure 49
0000
0000
0000
3003
,  // measure 50
1000
0000
0010
0100
00M0
0000
0010
0001
,  // measure 51
0010
0000
0000
0110
0000
0000
0100
0001
,  // measure 52
0010
0000
0000
1001
0000
0000
0010
0100
,  // measure 53
1000
0000
0000
1010
0000
0000
1000
0010
,  // measure 54
0100
0001
0010
0100
1000
0100
0010
1000
,  // measure 55
2002
0000
0000
3000
1000
1000
1003
0000
,  // measure 56
1000
0100
0010
0001
0010
0100
1000
0100
,  // measure 57
0101
0000
0001
1001
0000
0010
1000
0100
,  // measure 58
0010
0001
0010
0100
0010
1000
0001
0100
,  // measure 59
0010
0000
1000
0000
0001
0000
0010
0000
1000
0000
0100
1000
0100
0000
1000
0000
,  // measure 60
0100
0010
0001
0010
0100
1000
0100
0010
,  // measure 61
1100
0000
0010
1010
0000
0100
0010
0011
,  // measure 62
0000
0000
0011
0000
1010
0000
0010
0100
,  // measure 63
0000
0000
0000
0000
1000
0000
0010
0000
0000
0000
0001
1000
0001
0000
1000
0000
,  // measure 64
0110
1000
0100
0010
0001
0100
1000
0100
,  // measure 65
0010
0000
0000
0000
1000
0000
0001
0000
0000
0000
1000
0010
1000
0000
0100
0000
,  // measure 66
0010
0001
0100
1000
0100
0010
0001
0100
,  // measure 67
1000
0000
0100
0000
0010
0000
1000
0000
0100
0000
0010
1000
0100
0000
0010
0000
,  // measure 68
0001
0100
1000
0100
0010
1000
0010
1000
,  // measure 69
0101
0000
0001
1100
0000
0001
1000
0010
,  // measure 70
0000
0000
1010
0000
0110
0000
1000
0010
,  // measure 71
0001
0010
1000
0001
0100
0010
1000
0001
,  // measure 72
2002
0000
0000
0000
0000
3003
0000
0000
;

//---------------dance-single - ----------------
#NOTES:
     dance-single:
     :
     Beginner:
     1:
     0.114802,0.164376,0.082188,0.000000,0.000000,79.000000,9.000000,0.000000,0.000000,0.000000,0.000000,0.114802,0.164376,0.082188,0.000000,0.000000,79.000000,9.000000,0.000000,0.000000,0.000000,0.000000:
0000
0000
0000
0000
,
0000
0000
0000
0000
,
0000
0000
0000
0000
,
0000
0000
0000
0000
,
0000
0000
0000
0000
,
0000
0000
0000
0000
,
0000
0000
0000
0000
,
1000
0000
0000
0000
,
0010
0000
0000
0000
,
1000
0000
0000
0000
,
0001
0000
0000
0000
,
0010
0000
0000
0000
,
1000
0000
0000
0000
,
0100
0000
0000
0000
,
0010
0000
0000
0000
,
0001
0000
0000
0000
,
1001
0000
0000
0000
,
0010
0000
0000
0000
,
0100
0000
0000
0000
,
1000
0000
0000
0000
,
0010
0000
0000
0000
,
0001
0000
0000
0000
,
1000
0000
0000
0000
,
0110
0000
0000
0000
,
1000
0000
0000
0000
,
0001
0000
0000
0000
,
0010
0000
0000
0000
,
0100
0000
0000
0000
,
1000
0000
1000
0000
,
0001
0000
0001
0000
,
0010
0000
0010
0000
,
0100
0000
0100
0000
,
1001
0000
0000
0000
,
1000
0000
0000
0000
,
0010
0000
0000
0000
,
0100
0000
0000
0000
,
0001
0000
0000
0000
,
1000
0000
0000
0000
,
0010
0000
0000
0000
,
0100
0000
0000
0000
,
1001
0000
0000
0000
,
0000
0000
0000
0000
,
0010
0000
0000
0000
,
0000
0000
0000
0000
,
0100
0000
0000
0000
,
0000
0000
0000
0000
,
1000
0000
0000
0000
,
0000
0000
0000
1001
,
1001
0000
0000
0000
,
0000
0000
0000
0000
,
0010
0000
0000
0000
,
0000
0000
0000
0000
,
0100
0000
0000
0000
,
0000
0000
0000
0000
,
0001
0000
0000
0000
,
0110
0000
0000
0000
,
1000
0000
0010
0000
,
0001
0000
0010
0000
,
0100
0000
1000
0000
,
0010
0000
0001
0000
,
0001
0000
0010
0000
,
0100
0000
1000
0000
,
0010
0000
0001
0000
,
1000
0000
1000
0000
,
1001
0000
0001
0000
,
0010
0000
0100
0000
,
1000
0000
0010
0000
,
0001
0000
0100
0000
,
1000
0000
0010
0000
,
0001
0000
1000
0000
,
0010
0000
0001
0000
,
1000
0000
0000
0000
,
1001
0000
0000
0000
;

//---------------dance-single - ----------------
#NOTES:
     dance-single:
     :
     Easy:
     4:
     0.284397,0.295877,0.082188,0.054792,0.000000,203.000000,9.000000,6.000000,0.000000,0.000000,0.000000,0.284397,0.295877,0.082188,0.054792,0.000000,203.000000,9.000000,6.000000,0.000000,0.000000,0.000000:
0000
0000
0000
0000
,
0000
0000
0000
0000
,
0000
0000
0000
0000
,
0000
0000
0000
0000
,
0000
0000
0000
0000
,
0000
0000
0000
0000
,
0000
0000
0000
0000
,
0200
0000
0000
0000
0000
0000
0000
0300
,
1000
0010
0100
0010
,
0001
0010
0100
0100
,
1001
0000
0100
0000
,
0001
0000
1000
1000
,
0010
0100
0001
0010
,
0100
1000
1001
0000
,
0010
0000
1000
0000
,
0010
0000
0100
0100
,
1000
0010
0001
1000
,
0010
1000
0100
0001
,
0001
0000
0010
0000
,
1001
0000
1000
1000
,
0010
0100
0001
0010
,
1000
0010
0001
0001
,
1000
0010
1000
0001
,
1001
0000
0000
0000
,
1000
0010
0100
0001
,
1000
0100
0010
0001
,
1000
0100
0010
0001
,
0010
0100
0001
1000
,
0010
1000
0100
0010
,
0001
0010
1000
0010
,
0001
1000
0100
0100
,
0010
1000
0001
0001
,
0110
1000
0010
0001
,
0010
1000
0100
0010
,
0010
0001
1000
0001
,
1000
0010
0100
0100
,
1000
0010
0001
1000
,
0001
0010
0100
0001
,
0001
0010
1000
0010
,
1000
0100
0010
0010
,
0200
0000
0000
0000
,
0000
0000
0000
0000
,
2300
0000
0000
0000
,
0000
0000
0000
0000
,
3010
0100
0100
0100
,
0100
0100
0001
0001
,
0010
0001
0001
0100
,
0010
0100
0010
1000
,
2002
0000
0000
0000
0000
3000
0000
0000
,
2003
0000
0000
0000
,
3010
0000
0100
0000
,
0001
0000
1000
0000
,
0010
0000
0100
0000
,
1000
0000
0010
0010
,
0001
0000
0001
1000
,
1001
0000
0000
0000
,
0010
0100
0001
1000
,
0010
1000
0100
0010
,
0001
0000
0100
0000
,
0010
0010
0100
1000
,
0001
0010
1000
0100
,
0010
0000
1000
0000
,
0100
0000
1000
1000
,
0001
0010
1000
0001
,
1001
0000
1000
1000
,
0001
0010
0100
0001
,
0100
0000
1000
0000
,
0010
0010
0001
1000
,
0100
0010
0001
1000
,
0100
0000
0010
0000
,
0001
0001
0010
1000
,
0100
0000
0010
1000
,
1001
0000
0000
0000
;

//---------------dance-single - ----------------
#NOTES:
     dance-single:
     :
     Medium:
     7:
     0.483996,0.563730,0.401808,0.255696,0.000000,299.000000,44.000000,28.000000,6.000000,0.000000,0.000000,0.483996,0.563730,0.401808,0.255696,0.000000,299.000000,44.000000,28.000000,6.000000,0.000000,0.000000:
0000
0000
0000
0000
,
0000
0000
0000
0000
,
0000
0000
0000
0000
,
0000
0000
0000
0000
,
0000
0000
0000
0000
,
0000
0000
0000
0000
,
0000
0000
0000
0000
,
0220
0000
0000
0000
0000
0000
0000
0330
,
2000
0000
0000
3020
0000
0000
0230
0000
,
0000
0302
0000
0000
0013
0000
0100
0000
,
1000
0100
1000
0000
0010
0000
0100
0000
,
0001
0100
0001
0000
0010
0000
1000
0001
,
2000
0000
0000
3200
0000
0000
0320
0000
,
0000
0032
0000
0000
0103
0000
0010
0000
,
1000
0100
1000
0000
0010
0100
0010
0000
,
0001
0101
1001
0101
,
2000
0000
0000
3020
0000
0000
0230
0000
,
0000
0302
0000
0000
0013
0000
0100
0000
,
1000
0100
1000
0000
0100
0000
0011
0000
,
0001
0010
0100
0000
1000
0100
0010
0000
,
0002
0000
0000
0203
0000
0000
2300
0000
,
0000
3020
0000
0000
0130
0000
0100
0000
,
1000
0010
1000
0100
,
2002
0000
0000
3003
,
1000
0100
0010
0001
0010
0100
1000
0100
,
0010
0001
0100
0010
1000
0001
0100
0010
,
1000
0000
0101
0000
0001
0010
0100
1000
,
0100
0010
0001
0100
0010
0000
0101
0000
,
0001
1100
0001
1010
,
0100
0000
0011
0000
0001
0000
0010
0100
,
0010
1001
0100
1010
,
1000
0000
0011
0000
0100
0000
0010
1000
,
1001
0100
0010
0100
1000
0100
0010
0100
,
0010
1000
0010
1000
0100
0010
0001
0010
,
0101
0000
0001
0000
0010
0100
1000
0000
,
0010
0000
1001
0000
1000
0000
0100
0010
,
0001
0101
0001
1100
,
1000
0000
0101
0000
0010
0000
1000
0100
,
0010
0011
0001
1010
,
1000
0000
0011
0000
0010
0000
1000
0010
,
0200
0000
0000
0000
,
0000
0000
0000
0000
,
0320
0000
0000
0000
,
0000
0000
0000
0000
,
1030
0001
0010
0100
,
0010
0010
1001
1010
,
0101
0010
0100
1000
,
0010
0001
0010
0110
,
2002
0000
0000
0000
,
0000
0000
0000
3003
,
1000
0000
1000
0000
0010
0000
1000
0100
,
1000
0000
0010
0100
0000
0000
0100
0010
,
0001
0000
0000
0101
0000
0000
0001
0000
,
0011
0000
0000
1100
0000
0000
0010
0000
,
1000
1000
0001
0001
1000
1000
0001
0001
,
0010
0010
0100
0100
0010
0010
0100
0100
,
1000
0100
1000
0100
0010
0001
0010
0100
,
0101
0000
0001
0010
0000
0100
1000
0200
,
0000
0000
0310
0000
1000
0001
1000
0000
,
0010
1000
0100
0001
0100
1000
0100
0010
,
0100
0000
0011
0000
0001
0010
0001
0010
,
0101
0000
0001
0100
0000
0100
0010
1000
,
0000
0000
1100
0000
0011
0000
0010
0200
,
0000
0000
1300
0001
0000
0110
0000
1001
,
0000
1000
0010
0000
0010
0100
0001
0100
,
1100
0000
0010
1000
0000
1000
0100
0010
,
0001
0000
0101
0000
0001
0010
0100
0000
,
1000
0001
100M
100M
0010
1000
0100
0010
,
0100
0000
1100
0000
0010
1000
0001
1000
,
0101
0000
0M10
0M10
0000
100M
100M
0100
,
0000
0000
1100
0000
0011
0000
0010
1000
,
0001
0010
1000
0100
0010
0001
0010
2000
,
0002
0000
0000
0000
0000
3003
0000
0000
;
