#TITLE:Victim of Hatake;
#SUBTITLE:~ Eternally Running;
#ARTIST:Sercan;
#TITLETRANSLIT:;
#SUBTITLETRANSLIT:;
#ARTISTTRANSLIT:;
#CREDIT:;
#BANNER:Victim of Hatake ~ Eternally Running.png;
#BACKGROUND:Victim of Hatake ~ Eternally Running - BG.png;
#LYRICSPATH:;
#CDTITLE:cdtitlegpop.png;
#MUSIC:Victim of Hatake ~ Eternally Running.ogg;
#OFFSET:-0.080;
#SAMPLESTART:106.060;
#SAMPLELENGTH:12.000;
#SELECTABLE:YES;
#BPMS:0.000=180.000,128.000=90.000,192.000=180.000,512.000=90.000;
#STOPS:;
#BGCHANGES:;

//---------------dance-single - ----------------
#NOTES:
     dance-single:
     :
     Challenge:
     15:
     1.000,1.000,1.000,1.000,1.000:
0000
0000
1100
0000
0000
1001
0000
0101
,
0000
0000
0110
0000
0000
1010
0000
1001
,
0000
0000
0110
0000
0000
1010
0000
0101
,
0000
0000
1001
0000
0000
0110
0000
1100
,
0000
0000
1001
0000
0000
0101
0000
1010
,
0000
0000
1100
0000
0000
0110
0000
1100
,
0000
0000
1001
0000
0000
0101
0000
1010
,
0000
0000
0110
0000
0000
1001
0000
1100
,
1000
0100
0010
0001
1100
0010
0001
0100
0010
0100
1010
0001
0100
0010
1001
0100
,
0010
0100
0010
0001
1100
0010
0001
0100
0010
0100
1010
0001
0100
0010
1001
0100
,
0010
1000
0100
0010
1001
0100
0010
1000
0100
1000
0101
0010
1000
0100
0011
1000
,
0100
1000
0100
0010
1001
0100
0010
1000
0100
1000
0101
0010
1000
0100
0011
1000
,
0100
1000
0100
0001
1010
0100
0001
1000
0001
1000
0110
0001
1000
0100
0011
1000
,
0001
1000
0100
0001
1010
0100
0001
1000
0001
1000
0110
0001
1000
0100
0011
1000
,
0001
1000
0010
0001
1100
0010
0001
0010
0001
1000
0110
0001
1000
0010
0101
0010
,
0001
1000
0010
0001
1100
0010
0001
0010
2100
0000
0010
3200
0000
0000
0321
0000
,
0032
0000
1000
0203
0320
0001
0000
1000
,
0030
0000
0000
0000
2001
0000
3200
0000
0320
0000
1000
0032
0000
0000
0213
0000
,
2300
0000
0010
3002
2003
0100
0000
0100
,
3000
0000
0000
0000
0012
0000
0000
0000
0203
0000
1000
0320
0000
0000
2130
0000
,
3002
0000
0000
0023
1000
0000
0230
0000
2300
0000
0001
3020
0000
0000
0231
0000
,
2300
0000
0000
3002
0100
0000
0023
0000
0230
0000
0001
0000
2300
0000
0010
0000
,
3001
0100
0001
0100
0011
0100
0001
0100
0001
0100
0011
0100
0001
0100
0011
0000
,
0000
0000
0000
0000
1001
0000
0000
0000
2000
0000
0100
3020
0000
0000
0132
0000
,
2003
0000
0001
3020
0230
1000
0000
0001
,
0300
0000
0000
0000
1002
0000
0023
0000
0032
0000
1000
0203
0000
0000
2301
0000
,
3020
0000
1000
0230
0302
0010
0000
0100
,
0003
0000
0000
0000
2001
0000
0000
0000
3020
0000
1000
0230
0000
0000
1302
0000
,
0023
0000
0230
0000
2301
0000
3020
0000
0230
0000
1000
0002
0300
0000
2013
0000
,
3200
0000
0320
0000
1032
0000
0023
0000
0230
0000
0001
2300
0000
0000
3021
0000
,
0230
0000
1001
0000
0000
1000
0000
0001
,
2302
0000
0000
3003
,
2000
0000
0010
0100
3021
0000
0230
0302
2003
0000
0001
0000
0101
0000
3002
0100
,
1000
0000
0010
0100
1013
0000
0200
0320
2030
0000
3200
0000
0321
0000
0032
1000
,
0203
0000
0010
0001
1010
0000
0320
2030
3002
0000
0100
0000
1010
0000
2003
0100
,
0001
0000
0100
0010
3101
0000
0001
0000
0000
0000
0001
0000
1002
0000
0203
0010
,
0302
0000
1000
0100
1010
0000
2003
0000
0000
0000
0001
0000
3101
0000
0001
0100
,
0002
0000
1000
0010
1203
0000
0320
0000
0230
0000
0001
0000
0011
0000
0302
0100
,
0023
0000
1000
0100
1230
0000
2300
3020
0032
0000
1000
0000
1100
0000
1003
0100
,
1000
0000
1000
0100
1001
0000
1000
0000
0000
0000
1000
0000
2001
0000
0001
0100
,
3002
0000
1000
0100
2013
0000
3200
0320
0032
0000
1000
0000
0110
0000
2003
0100
,
0001
0000
0100
0001
3110
0000
0002
0023
2030
0000
3200
0000
0312
0000
0023
1000
,
0230
0000
0001
0010
1001
0000
2300
3020
2030
0000
0001
0000
0101
0000
3002
0100
,
0010
0000
0010
1000
0110
0000
1000
0000
0003
0000
1000
0000
2001
0000
3002
0100
,
2003
0000
0010
0001
0110
0000
3002
0000
0000
0000
1000
0000
1013
0000
0100
0010
,
0200
0000
0001
1000
0321
0000
2030
0000
3020
0000
0100
0000
1001
0000
0230
0010
,
0302
0000
1000
0010
1023
0000
0230
2300
3002
0000
0010
0000
1100
0000
0010
0100
,
2003
0000
0010
0100
0011
0000
0001
0000
0000
0000
0000
0000
0002
0000
0010
0010
,
3013
0100
0001
1000
0101
0010
1000
0010
0100
0001
1100
0010
1000
0001
1010
0100
,
1000
0100
0010
1000
0011
0100
0001
0010
0100
1000
0011
1000
0010
0100
0011
1000
,
0010
1000
0001
0100
0011
1000
0010
0001
1000
0100
1001
0010
0100
0001
1100
0010
,
0100
0001
1000
0010
1001
0100
1000
0100
0010
0001
1100
0010
0001
0100
1001
0010
,
0001
0100
0010
1000
0011
1000
0010
0100
0001
1000
0110
0001
0100
1000
0110
0001
,
0100
1000
0010
0100
0011
1000
0010
0001
0100
0010
1001
0100
0010
1000
0011
0100
,
1000
0010
0001
0010
0101
1000
0010
0100
1000
0001
0110
1000
0001
0010
1100
0010
,
0100
0001
1000
0010
0101
1000
0010
0001
0100
0010
1001
0100
0010
0001
1010
0100
,
1000
0100
0010
0100
1001
0010
0001
0100
1000
0010
1001
0100
1000
0100
1010
0001
,
0100
1000
0010
0001
0110
0001
1000
0100
1000
0010
1100
0001
1000
0100
1010
0001
,
0100
0001
1000
0010
1100
0001
1000
0100
0001
0100
0011
0100
0001
0100
0011
1000
,
0001
0010
1000
0010
1100
0001
0100
0010
1000
0001
0110
0001
1000
0010
1001
0010
,
0100
0001
0010
1000
0011
0100
0001
1000
0100
0010
1001
0010
0100
1000
0011
0100
,
0001
1000
0010
0001
0110
1000
0010
0001
0010
1000
0110
0001
0100
0010
1100
0001
,
0010
0001
1000
0010
0101
1000
0100
0001
0010
0001
0110
1000
0010
0001
1100
0001
,
0000
0000
1001
0000
1100
0000
0101
0000
1001
0000
0101
0000
1100
0011
1100
0011
,
2100
0010
0101
3020
0230
0010
1001
0010
,
0301
0000
0010
0000
1002
0000
0023
0000
0230
0000
0001
2300
0011
0000
3002
0000
,
0203
0010
1001
0320
2030
0010
0101
0010
,
3001
0000
0100
0000
1002
0000
0100
0000
0023
0000
1000
0032
1100
0000
0203
0000
,
0320
0000
0000
0000
0000
0000
0001
0000
0000
2030
0000
0000
0101
0000
0000
0000
0000
0000
3200
0000
0000
0000
0000
0000
0320
0000
0000
0000
0000
0000
1000
0000
0030
0002
0000
0000
1100
0000
0000
0000
0000
0000
0023
0000
0000
0000
0000
0000
,
0230
0000
0001
2300
0011
0000
3020
0000
0230
0000
0010
0000
1302
0000
0100
0000
,
1003
0010
1000
0010
1100
0010
1000
0010
1000
0010
1000
0010
1100
0000
0010
0000
,
0100
0000
0001
0000
1100
0000
0010
0000
0200
0000
1000
0302
1010
0000
2003
0000
,
3200
0010
1001
0320
0032
1000
0110
1000
,
0013
0000
0100
0000
2001
0000
3020
0000
0032
0000
0100
0023
1001
0000
0230
0000
,
2300
0010
0101
3020
0230
1000
0011
1000
,
0310
0000
0100
0000
0012
0000
1000
0000
0203
0000
0001
2300
0110
0000
3020
0000
,
0230
0000
0302
0000
1023
0000
0230
0000
2300
0000
0001
3020
1001
0000
0230
0000
,
0302
0000
0023
0000
1032
0000
0203
0000
0320
0000
0001
2030
0110
0000
3002
0000
,
0203
0000
0311
1100
0011
1100
0011
1100
0011
1100
0011
1100
0011
1100
0011
1100
,
0011
1000
0100
0010
0001
1000
0100
0010
0001
1000
0100
0010
0001
1000
0100
0010
,
0001
0010
1000
0010
1001
0010
1000
0010
0001
0010
0100
1000
0101
0010
0001
0100
,
0001
0100
0010
1000
0101
0010
0100
1000
0001
0100
1000
0001
1010
0100
1000
0001
,
0100
0001
0010
0100
1001
0100
0010
0100
1000
0010
0100
0001
1010
0100
0010
0001
,
0100
0010
1000
0010
1001
0100
1000
0010
0001
0100
0010
1000
0101
0010
0001
0010
,
1000
0100
1000
0100
0011
0100
1000
0100
0010
0001
0010
0100
1001
0100
0010
0100
,
0001
0010
0100
0010
1001
0010
0100
0010
1000
0100
0010
0001
1010
0100
1000
0100
,
1000
0010
0100
0001
1100
0010
0100
0001
1000
0100
0010
0001
1010
0100
0010
0001
,
1000
0100
0010
0001
1010
0100
1000
0001
0010
0100
1001
0100
0010
0101
1000
0001
,
1000
0100
0010
0100
1001
0100
0010
0100
1000
0100
0010
0001
0110
0001
0010
0100
,
1000
0010
0100
0001
1100
0010
0100
0001
1000
0010
1000
0010
1100
0001
0010
0100
,
1000
0010
0100
0001
1100
0010
0100
0001
0010
0100
0010
0100
0011
1000
0010
1000
,
0001
1000
0001
1000
0011
0100
0001
0100
0001
0010
0100
1000
0101
0010
0001
1000
,
0001
0010
0100
0010
1001
0010
0100
1000
0001
0010
0100
1000
0101
0010
0100
1000
,
0001
0010
1000
0010
1001
0010
0100
1000
0100
0010
0100
1000
0001
0100
0010
1000
,
0001
0100
0001
0100
1010
0100
0010
1000
0010
1000
0010
1000
0101
1000
0001
1000
,
0001
0010
0100
1000
0100
0010
0100
1000
0100
0001
0010
1000
0010
0001
0100
0000
,
1101
0010
0001
0100
0010
0001
0100
0010
0100
0010
0001
0100
0010
0001
0100
0010
,
0100
0010
0001
0100
0010
0001
0100
0010
1101
0010
0001
0100
0010
0001
0100
0010
,
1101
0010
1000
0001
0010
1000
0001
0010
0001
0010
1000
0001
0010
1000
0001
0010
,
0001
0010
1000
0001
0010
1000
0001
0010
1101
0010
1000
0001
0010
1000
0001
0100
,
1011
0100
1000
0010
0100
1000
0010
0100
0010
0100
1000
0010
0100
1000
0010
0100
,
0010
0100
1000
0010
0100
1000
0010
0100
1011
0100
1000
0010
0100
1000
0010
0100
,
1011
0100
0001
1000
0100
0001
1000
0100
1000
0100
0001
1000
0100
0001
1000
0100
,
1000
0100
0001
1000
0100
0001
1000
0100
1011
0100
0001
1000
0100
0001
1000
0100
,
1011
0100
1000
0001
0100
1000
0001
0100
0001
0100
1000
0001
0100
1000
0001
0100
,
0001
0100
1000
0001
0100
1000
0001
0100
1011
0100
1000
0001
0100
1000
0001
0010
,
1101
0010
0001
1000
0010
0001
1000
0010
1000
0010
0001
1000
0010
0001
1000
0010
,
1000
0010
0001
1000
0010
0001
1000
0010
1101
0010
0001
1000
0010
0001
1000
0100
,
1011
0100
0010
1000
0100
0010
1000
0100
1000
0100
0010
1000
0100
0010
1000
0100
,
1000
0100
0010
1000
0100
0010
1000
0100
1011
0100
0010
1000
0100
0010
1000
0010
,
1101
0010
0001
0100
0010
0001
0100
0010
0100
0010
0001
0100
0010
0001
0100
0010
,
0100
0010
0001
0100
0010
0001
0100
0010
1100
0010
0001
1100
0010
0001
1100
0010
,
1101
0010
1000
0001
0010
1000
0101
0010
0101
0010
1000
0001
0010
1000
0001
0010
,
0001
0010
1000
0001
0110
1000
0101
0010
0101
0010
1000
0101
0010
1000
0011
0100
,
1001
0100
1000
0001
0100
1000
0011
0100
0011
0100
1000
0001
0100
1000
0001
0100
,
0001
0100
1000
0001
0110
1000
0001
0100
0011
0100
1000
0011
0100
1000
0101
0010
,
1001
0010
0100
1001
0010
0100
1001
0010
1100
0001
0010
1001
0010
0100
1001
0010
,
1001
0010
0100
1001
0010
0100
1001
0010
1001
0010
0100
0001
1010
0100
0001
0100
,
1001
0110
1001
0110
1001
0110
1001
0110
1001
0110
1001
0110
1001
0100
0010
0100
,
0010
0100
1000
0010
0100
1000
0010
0100
0011
0100
1000
0011
0100
1000
0011
0100
,
1001
0100
0001
1000
0100
0001
1010
0100
1010
0100
0001
1000
0100
0001
1000
0100
,
1000
0100
0001
1000
0110
0001
1010
0100
1010
0100
0001
1010
0100
0001
1010
0100
,
1001
0010
0001
1000
0010
0001
1100
0010
1100
0010
0001
1000
0010
0001
1000
0010
,
1000
0010
0001
1000
0110
0001
1000
0010
1100
0010
0001
1100
0010
0001
1010
0100
,
1001
0100
0011
1000
0101
0010
1001
0100
1001
0100
0010
1001
0100
0010
1001
0100
,
1001
0100
0011
1000
0101
0010
1001
0100
1001
0100
0010
1001
0100
0010
1001
0010
,
1100
0010
0001
0100
0010
0001
0100
0010
0100
0010
0001
0100
0010
0001
0100
0010
,
1000
0100
0010
0001
0010
0100
1000
0100
0010
0001
0010
0100
1000
0100
0010
0001
,
2100
0001
0010
3002
0100
0010
2013
0010
,
0100
3020
0100
0001
0032
1000
0203
0001
,
1320
1000
0001
0230
0001
1000
0320
0001
,
0100
1000
0032
0100
2003
0010
3002
0100
,
1213
0010
0001
1000
0320
0001
1100
0001
,
1030
0001
0200
0010
0302
0010
2003
0100
,
3102
0010
1000
0203
0010
0001
0321
1000
,
0001
1000
0230
1000
0320
0001
2030
0100
,
3112
0100
0010
2003
0100
0001
0011
0100
,
3001
0000
0000
0000
0000
0000
0000
0000
0020
0000
0000
0000
0000
0000
0000
0030
0020
0000
0000
0000
0000
0000
0000
0000
0230
0000
0000
0000
0000
0000
0000
0300
0200
0000
0000
0000
0000
0000
0000
0000
2300
0000
0000
0000
0000
0000
0000
3000
2000
0000
0000
0000
0000
0000
0000
0000
3002
0000
0000
0000
0000
0000
0000
0000
,
1213
0010
0001
1000
0010
1000
1310
0001
,
0010
0000
0000
0000
0000
0000
0000
0000
0002
0000
0000
0000
0000
0000
0000
0003
0002
0000
0000
0000
0000
0000
0000
0000
0203
0000
0000
0000
0000
0000
0000
0300
0200
0000
0000
0000
0000
0000
0000
0000
2300
0000
0000
0000
0000
0000
0000
3000
2000
0000
0000
0000
0000
0000
0000
0000
3200
0000
0000
0000
0000
0000
0000
0000
,
1321
1000
0100
0001
0230
1000
0011
1000
,
0010
0001
0320
0100
0032
1000
0203
0001
,
2311
0100
0001
3020
0100
0001
2131
0010
,
0100
0001
3200
0010
0302
1000
0023
0100
,
2031
0010
0100
0010
0001
0010
0100
0010
0001
0010
0100
0010
0001
0010
0100
0010
0001
0010
0100
0010
0001
0010
0100
0010
0002
0000
0000
0000
0000
0000
0000
0000
,
0000
3003
0000
0000
0000
0000
0000
0000
0000
0000
0000
0000
0000
0000
0000
0000
;

//---------------dance-single - ----------------
#NOTES:
     dance-single:
     :
     Hard:
     12:
     1.000,1.000,0.608,1.000,1.000: // measure 1
0000
0000
1100
0000
0000
1001
0000
0101
,  // measure 2
0000
0000
0110
0000
0000
1010
0000
1001
,  // measure 3
0000
0000
0110
0000
0000
1010
0000
0101
,  // measure 4
0000
0000
1001
0000
0000
0110
0000
1100
,  // measure 5
0000
0000
1001
0000
0000
0101
0000
1010
,  // measure 6
0000
0000
1100
0000
0000
0110
0000
1100
,  // measure 7
0000
0000
1001
0000
0000
0101
0000
1010
,  // measure 8
0000
0000
0110
0000
0000
1001
0000
1100
,  // measure 9
1000
0100
0010
0001
0100
0010
0001
0100
0010
0100
0010
0001
0100
0010
0001
0100
,  // measure 10
0010
0100
0010
0001
0100
0010
0001
0100
0010
0100
0010
0001
0100
0010
0001
0100
,  // measure 11
0010
1000
0100
0010
1000
0100
0010
1000
0100
1000
0100
0010
1000
0100
0010
1000
,  // measure 12
0100
1000
0100
0010
1000
0100
0010
1000
0100
1000
0100
0010
1000
0100
0010
1000
,  // measure 13
0100
1000
0100
0001
1000
0100
0001
1000
0001
1000
0100
0001
1000
0100
0001
1000
,  // measure 14
0001
1000
0100
0001
1000
0100
0001
1000
0001
1000
0100
0001
1000
0100
0001
1000
,  // measure 15
0001
1000
0010
0001
1000
0010
0001
0010
0001
1000
0010
0001
1000
0010
0001
0010
,  // measure 16
0001
1000
0010
0001
1000
0010
0001
0010
2100
0000
0010
3200
0000
0000
0321
0000
,  // measure 17
0032
0000
1000
0203
0320
0001
0000
1000
,  // measure 18
0030
0000
0000
0000
2001
0000
3200
0000
0320
0000
1000
0032
0000
0000
0213
0000
,  // measure 19
2300
0000
0010
3002
2003
0100
0000
0100
,  // measure 20
3000
0000
0000
0000
0012
0000
0000
0000
0203
0000
1000
0320
0000
0000
2130
0000
,  // measure 21
3002
0000
0000
0023
1000
0000
0230
0000
2300
0000
0001
3020
0000
0000
0231
0000
,  // measure 22
2300
0000
0000
3002
0100
0000
0023
0000
0230
0000
0001
0000
2300
0000
0010
0000
,  // measure 23
3001
0100
0001
0100
0011
0100
0001
0100
0001
0100
0011
0100
0001
0100
0011
0000
,  // measure 24
0000
0000
0000
0000
1001
0000
0000
0000
2000
0000
0100
3020
0000
0000
0132
0000
,  // measure 25
2003
0000
0001
3020
0230
1000
0000
0001
,  // measure 26
0300
0000
0000
0000
1002
0000
0023
0000
0032
0000
1000
0203
0000
0000
2301
0000
,  // measure 27
3020
0000
1000
0230
0302
0010
0000
0100
,  // measure 28
0003
0000
0000
0000
2001
0000
0000
0000
3020
0000
1000
0230
0000
0000
1302
0000
,  // measure 29
0023
0000
0230
0000
2301
0000
3020
0000
0230
0000
1000
0002
0300
0000
2013
0000
,  // measure 30
3200
0000
0320
0000
1032
0000
0023
0000
0230
0000
0001
2300
0000
0000
3021
0000
,  // measure 31
0230
0000
1001
0000
0000
1000
0000
0001
,  // measure 32
2302
0000
0000
3003
,  // measure 33
2000
0000
0010
0100
3021
0000
0230
0302
2003
0000
0001
0000
0101
0000
3002
0100
,  // measure 34
1000
0000
0010
0100
1013
0000
0200
0320
2030
0000
3200
0000
0321
0000
0032
1000
,  // measure 35
0203
0000
0010
0001
1010
0000
0320
2030
3002
0000
0100
0000
1010
0000
2003
0100
,  // measure 36
0001
0000
0100
0010
3101
0000
0001
0000
0000
0000
0001
0000
1002
0000
0203
0010
,  // measure 37
0302
0000
1000
0100
1010
0000
2003
0000
0000
0000
0001
0000
3101
0000
0001
0100
,  // measure 38
0002
0000
1000
0010
1203
0000
0320
0000
0230
0000
0001
0000
0011
0000
0302
0100
,  // measure 39
0023
0000
1000
0100
1230
0000
2300
3020
0032
0000
1000
0000
1100
0000
1003
0100
,  // measure 40
1000
0000
1000
0100
1001
0000
1000
0000
0000
0000
1000
0000
2001
0000
0001
0100
,  // measure 41
3002
0000
1000
0100
2013
0000
3200
0320
0032
0000
1000
0000
0110
0000
2003
0100
,  // measure 42
0001
0000
0100
0001
3110
0000
0002
0023
2030
0000
3200
0000
0312
0000
0023
1000
,  // measure 43
0230
0000
0001
0010
1001
0000
2300
3020
2030
0000
0001
0000
0101
0000
3002
0100
,  // measure 44
0010
0000
0010
1000
0110
0000
1000
0000
0003
0000
1000
0000
2001
0000
3002
0100
,  // measure 45
2003
0000
0010
0001
0110
0000
3002
0000
0000
0000
1000
0000
1013
0000
0100
0010
,  // measure 46
0200
0000
0001
1000
0321
0000
2030
0000
3020
0000
0100
0000
1001
0000
0230
0010
,  // measure 47
0302
0000
1000
0010
1023
0000
0230
2300
3002
0000
0010
0000
1100
0000
0010
0100
,  // measure 48
2003
0000
0010
0100
0011
0000
0001
0000
0000
0000
0000
0000
0002
0000
0010
0010
,  // measure 49
3013
0100
0001
1000
0001
0010
1000
0010
0100
0001
0100
0010
1000
0001
0010
0100
,  // measure 50
1000
0100
0010
1000
0001
0100
0001
0010
0100
1000
0001
1000
0010
0100
0010
1000
,  // measure 51
0010
1000
0001
0100
0010
1000
0010
0001
1000
0100
1000
0010
0100
0001
1000
0010
,  // measure 52
0100
0001
1000
0010
0001
0100
1000
0100
0010
0001
1000
0010
0001
0100
1000
0010
,  // measure 53
0001
0100
0010
1000
0010
1000
0010
0100
0001
1000
0010
0001
0100
1000
0010
0001
,  // measure 54
0100
1000
0010
0100
0001
1000
0010
0001
0100
0010
1000
0100
0010
1000
0001
0100
,  // measure 55
1000
0010
0001
0010
0100
1000
0010
0100
1000
0001
0100
1000
0001
0010
1000
0010
,  // measure 56
0100
0001
1000
0010
0001
1000
0010
0001
0100
0010
1000
0100
0010
0001
0010
0100
,  // measure 57
1000
0100
0010
0100
1000
0010
0001
0100
1000
0010
1000
0100
1000
0100
0010
0001
,  // measure 58
0100
1000
0010
0001
0100
0001
1000
0100
1000
0010
0100
0001
1000
0100
0010
0001
,  // measure 59
0100
0001
1000
0010
0100
0001
1000
0100
0001
0100
0010
0100
0001
0100
0010
1000
,  // measure 60
0001
0010
1000
0010
0100
0001
0100
0010
1000
0001
0100
0001
1000
0010
0001
0010
,  // measure 61
0100
0001
0010
1000
0010
0100
0001
1000
0100
0010
0001
0010
0100
1000
0001
0100
,  // measure 62
0001
1000
0010
0001
0100
1000
0010
0001
0010
1000
0100
0001
0100
0010
1000
0001
,  // measure 63
0010
0001
1000
0010
0001
1000
0100
0001
0010
0001
0100
1000
0010
0001
0100
0001
,  // measure 64
0000
0000
1001
0000
1100
0000
0101
0000
1001
0000
0101
0000
1100
0010
1100
0010
,  // measure 65
2100
0000
0101
3020
0230
0010
1001
0000
,  // measure 66
0301
0000
0000
0000
1002
0000
0023
0000
0230
0000
0001
2300
0011
0000
3002
0000
,  // measure 67
0203
0000
1001
0320
2030
0010
0101
0000
,  // measure 68
3001
0000
0000
0000
1002
0000
0000
0000
0023
0000
1000
0032
1100
0000
0203
0000
,  // measure 69
0320
0000
0000
0000
0000
0000
0000
0000
0000
2030
0000
0000
0101
0000
0000
0000
0000
0000
3200
0000
0000
0000
0000
0000
0320
0000
0000
0000
0000
0000
1000
0000
0030
0002
0000
0000
1100
0000
0000
0000
0000
0000
0023
0000
0000
0000
0000
0000
,  // measure 70
0230
0000
0000
2300
0011
0000
3020
0000
0230
0000
0010
0000
1302
0000
0000
0000
,  // measure 71
1003
0010
1000
0010
1100
0010
1000
0010
1000
0010
1000
0010
1100
0000
0000
0000
,  // measure 72
0100
0000
0000
0000
1100
0000
0000
0000
0200
0000
1000
0302
1010
0000
2003
0000
,  // measure 73
3200
0000
1001
0320
0032
1000
0110
0000
,  // measure 74
0013
0000
0000
0000
2001
0000
3020
0000
0032
0000
0100
0023
1001
0000
0230
0000
,  // measure 75
2300
0000
0101
3020
0230
1000
0011
0000
,  // measure 76
0310
0000
0000
0000
0012
0000
0000
0000
0203
0000
0001
2300
0110
0000
3020
0000
,  // measure 77
0230
0000
0302
0000
1023
0000
0230
0000
2300
0000
0001
3020
1001
0000
0230
0000
,  // measure 78
0302
0000
0023
0000
1032
0000
0203
0000
0320
0000
0001
2030
0110
0000
3002
0000
,  // measure 79
0203
0000
0301
1000
0001
1000
0001
1000
0001
1000
0001
1000
0001
1000
0001
1000
,  // measure 80
0001
1000
0100
0010
0001
1000
0100
0010
0001
1000
0100
0010
0001
1000
0100
0010
,  // measure 81
0001
0010
1000
0010
0001
0010
1000
0010
0001
0010
0100
1000
0100
0010
0001
0100
,  // measure 82
0001
0100
0010
1000
0100
0010
0100
1000
0001
0100
1000
0001
0010
0100
1000
0001
,  // measure 83
0100
0001
0010
0100
1000
0100
0010
0100
1000
0010
0100
0001
0010
0100
0010
0001
,  // measure 84
0100
0010
1000
0010
0001
0100
1000
0010
0001
0100
0010
1000
0100
0010
0001
0010
,  // measure 85
1000
0100
1000
0100
0010
0100
1000
0100
0010
0001
0010
0100
1000
0100
0010
0100
,  // measure 86
0001
0010
0100
0010
0001
0010
0100
0010
1000
0100
0010
0001
0010
0100
1000
0100
,  // measure 87
1000
0010
0100
0001
1000
0010
0100
0001
1000
0100
0010
0001
0010
0100
0010
0001
,  // measure 88
1000
0100
0010
0001
0010
0100
1000
0001
0010
0100
1000
0100
0010
0001
1000
0001
,  // measure 89
1000
0100
0010
0100
1000
0100
0010
0100
1000
0100
0010
0001
0010
0001
0010
0100
,  // measure 90
1000
0010
0100
0001
1000
0010
0100
0001
1000
0010
1000
0010
0100
0001
0010
0100
,  // measure 91
1000
0010
0100
0001
1000
0010
0100
0001
0010
0100
0010
0100
0001
1000
0010
1000
,  // measure 92
0001
1000
0001
1000
0001
0100
0001
0100
0001
0010
0100
1000
0100
0010
0001
1000
,  // measure 93
0001
0010
0100
0010
0001
0010
0100
1000
0001
0010
0100
1000
0100
0010
0100
1000
,  // measure 94
0001
0010
1000
0010
0001
0010
0100
1000
0100
0010
0100
1000
0001
0100
0010
1000
,  // measure 95
0001
0100
0001
0100
0010
0100
0010
1000
0010
1000
0010
1000
0001
1000
0001
1000
,  // measure 96
0001
0010
0100
1000
0100
0010
0100
1000
0100
0001
0010
1000
0010
0001
0100
0000
,  // measure 97
1100
0010
0001
0100
0010
0001
0100
0010
0100
0010
0001
0100
0010
0001
0100
0010
,  // measure 98
0100
0010
0001
0100
0010
0001
0100
0010
1100
0010
0001
0100
0010
0001
0100
0010
,  // measure 99
1001
0010
1000
0001
0010
1000
0001
0010
0001
0010
1000
0001
0010
1000
0001
0010
,  // measure 100
0001
0010
1000
0001
0010
1000
0001
0010
1001
0010
1000
0001
0010
1000
0001
0100
,  // measure 101
0011
0100
1000
0010
0100
1000
0010
0100
0010
0100
1000
0010
0100
1000
0010
0100
,  // measure 102
0010
0100
1000
0010
0100
1000
0010
0100
0011
0100
1000
0010
0100
1000
0010
0100
,  // measure 103
1001
0100
0001
1000
0100
0001
1000
0100
1000
0100
0001
1000
0100
0001
1000
0100
,  // measure 104
1000
0100
0001
1000
0100
0001
1000
0100
1001
0100
0001
1000
0100
0001
1000
0100
,  // measure 105
1001
0100
1000
0001
0100
1000
0001
0100
0001
0100
1000
0001
0100
1000
0001
0100
,  // measure 106
0001
0100
1000
0001
0100
1000
0001
0100
1001
0100
1000
0001
0100
1000
0001
0010
,  // measure 107
1001
0010
0001
1000
0010
0001
1000
0010
1000
0010
0001
1000
0010
0001
1000
0010
,  // measure 108
1000
0010
0001
1000
0010
0001
1000
0010
1001
0010
0001
1000
0010
0001
1000
0100
,  // measure 109
0011
0100
0010
1000
0100
0010
1000
0100
1000
0100
0010
1000
0100
0010
1000
0100
,  // measure 110
1000
0100
0010
1000
0100
0010
1000
0100
0011
0100
0010
1000
0100
0010
1000
0010
,  // measure 111
1100
0010
0001
0100
0010
0001
0100
0010
0100
0010
0001
0100
0010
0001
0100
0010
,  // measure 112
0100
0000
0010
0000
0001
0000
0100
0000
0010
0000
0001
0000
0100
0000
0010
0000
1200
0300
0010
0000
0001
0000
0200
0300
0010
0000
0001
0000
0200
0300
0010
0000
,  // measure 113
1200
0300
0010
0000
1000
0000
0001
0000
0010
0000
1000
0000
0002
0003
0010
0000
0002
0003
0010
0000
1000
0000
0001
0000
0010
0000
1000
0000
0001
0000
0010
0000
,  // measure 114
0001
0000
0010
0000
1000
0000
0001
0000
0020
0030
1000
0000
0002
0003
0010
0000
0002
0003
0010
0000
1000
0000
0002
0003
0010
0000
1000
0000
0002
0003
0100
0000
,  // measure 115
0002
0003
0100
0000
1000
0000
0001
0000
0100
0000
1000
0000
0002
0003
0100
0000
0002
0003
0100
0000
1000
0000
0001
0000
0100
0000
1000
0000
0001
0000
0100
0000
,  // measure 116
0001
0000
0100
0000
1000
0000
0001
0000
0200
0300
1000
0000
0001
0000
0100
0000
0002
0003
0100
0000
1000
0000
0002
0003
0100
0000
1000
0000
0002
0003
0010
0000
,  // measure 117
0002
0003
0010
0000
0100
0000
0002
0003
0010
0000
0100
0000
0002
0003
0010
0000
0200
0300
0001
0000
0010
0000
0002
0003
0010
0000
0100
0000
0002
0003
0010
0000
,  // measure 118
0002
0003
0010
0000
0100
0000
0002
0003
0010
0000
0100
0000
0002
0003
0010
0000
0002
0003
0010
0000
0100
0000
0001
0000
0020
0030
0100
0000
0001
0000
0100
0000
,  // measure 119
0001
0100
0001
0100
0001
0100
0001
0100
0001
0100
0001
0100
0001
0100
0010
0100
,  // measure 120
0010
0000
0100
0000
1000
0000
0010
0000
0100
0000
1000
0000
0010
0000
0100
0000
0020
0030
0100
0000
1000
0000
0020
0030
0100
0000
1000
0000
0020
0030
0100
0000
,  // measure 121
2000
3000
0100
0000
0001
0000
1000
0000
0100
0000
0001
0000
2000
3000
0100
0000
2000
3000
0100
0000
0001
0000
1000
0000
0100
0000
0001
0000
1000
0000
0100
0000
,  // measure 122
1000
0000
0100
0000
0001
0000
1000
0000
0200
0300
0001
0000
2000
3000
0100
0000
2000
3000
0100
0000
0001
0000
2000
3000
0100
0000
0001
0000
2000
3000
0100
0000
,  // measure 123
2000
3000
0010
0000
0001
0000
1000
0000
0010
0000
0001
0000
2000
3000
0010
0000
2000
3000
0010
0000
0001
0000
1000
0000
0010
0000
0001
0000
1000
0000
0010
0000
,  // measure 124
1000
0000
0010
0000
0001
0000
1000
0000
0020
0030
0001
0000
1000
0000
0010
0000
2000
3000
0010
0000
0001
0000
2000
3000
0010
0000
0001
0000
2000
3000
0100
0000
,  // measure 125
2000
3000
0100
0000
0020
0030
1000
0000
0200
0300
0010
0000
2000
3000
0100
0000
2000
3000
0100
0000
0010
0000
2000
3000
0100
0000
0010
0000
2000
3000
0100
0000
,  // measure 126
2000
3000
0100
0000
0020
0030
1000
0000
0200
0300
0010
0000
2000
3000
0100
0000
2000
3000
0100
0000
0010
0000
2000
3000
0100
0000
0010
0000
2000
3000
0010
0000
,  // measure 127
2000
3000
0010
0000
0001
0000
0100
0000
0010
0000
0001
0000
0100
0000
0010
0000
0100
0000
0010
0000
0001
0000
0100
0000
0010
0000
0001
0000
0100
0000
0010
0000
,  // measure 128
1000
0100
0010
0001
0010
0100
1000
0100
0010
0001
0010
0100
1000
0100
0010
0001
,  // measure 129
2100
0001
0010
3002
0100
0010
2013
0010
,  // measure 130
0100
3020
0100
0001
0032
1000
0203
0001
,  // measure 131
1320
1000
0001
0230
0001
1000
0320
0001
,  // measure 132
0100
1000
0032
0100
2003
0010
3002
0100
,  // measure 133
1213
0010
0001
1000
0320
0001
1100
0001
,  // measure 134
1030
0001
0200
0010
0302
0010
2003
0100
,  // measure 135
3102
0010
1000
0203
0010
0001
0321
1000
,  // measure 136
0001
1000
0230
1000
0320
0001
2030
0100
,  // measure 137
3112
0100
0010
2003
0100
0001
0011
0100
,  // measure 138
3001
0000
0000
0000
0000
0000
0000
0000
0020
0000
0000
0000
0000
0000
0000
0030
0020
0000
0000
0000
0000
0000
0000
0000
0230
0000
0000
0000
0000
0000
0000
0300
0200
0000
0000
0000
0000
0000
0000
0000
2300
0000
0000
0000
0000
0000
0000
3000
2000
0000
0000
0000
0000
0000
0000
0000
3002
0000
0000
0000
0000
0000
0000
0000
,  // measure 139
1213
0010
0001
1000
0010
1000
1310
0001
,  // measure 140
0010
0000
0000
0000
0000
0000
0000
0000
0002
0000
0000
0000
0000
0000
0000
0003
0002
0000
0000
0000
0000
0000
0000
0000
0203
0000
0000
0000
0000
0000
0000
0300
0200
0000
0000
0000
0000
0000
0000
0000
2300
0000
0000
0000
0000
0000
0000
3000
2000
0000
0000
0000
0000
0000
0000
0000
3200
0000
0000
0000
0000
0000
0000
0000
,  // measure 141
1321
1000
0100
0001
0230
1000
0011
1000
,  // measure 142
0010
0001
0320
0100
0032
1000
0203
0001
,  // measure 143
2311
0100
0001
3020
0100
0001
2131
0010
,  // measure 144
0100
0001
3200
0010
0302
1000
0023
0100
,  // measure 145
2031
0010
0100
0010
0001
0010
0100
0010
0001
0010
0100
0010
0002
0000
0000
0000
,  // measure 146
0000
3003
0000
0000
0000
0000
0000
0000
0000
0000
0000
0000
0000
0000
0000
0000
;
