#TITLE:Trick & Treat;
#SUBTITLE:;
#ARTIST:OSTER Project feat. Len & Rin Kagamine;
#TITLETRANSLIT:;
#SUBTITLETRANSLIT:;
#ARTISTTRANSLIT:;
#GENRE:;
#CREDIT:;
#BANNER:Trick and treat - bn.png;
#BACKGROUND:Trick and Treat - bg.png;
#LYRICSPATH:;
#CDTITLE:!lettypop-cd.png;
#MUSIC:Kagamine Rin & Len - Trick & Treat.ogg;
#OFFSET:0.300;
#SAMPLESTART:58.800;
#SAMPLELENGTH:12.000;
#SELECTABLE:YES;
#BPMS:0.000=135.000
,37.000=67.500
,43.000=135.000
,47.000=67.500
,53.000=135.000
,57.000=67.500
,63.000=135.000
,67.000=67.500
,73.000=135.000
;
#STOPS:
;
#BGCHANGES:0.750=Trick and Treat.avi=1.000=1=0=1===CrossFade==,
99999=-nosongbg-=1.000=0=0=0 // don't automatically add -songbackground-
;
#KEYSOUNDS:;
#ATTACKS:;

//---------------dance-single - ----------------
#NOTES:
     dance-single:
     :
     Challenge:
     12:
     0.827,0.860,0.220,0.059,0.983,650.000,26.000,7.000,8.000,0.000,3.000,0.827,0.860,0.220,0.059,0.983,650.000,26.000,7.000,8.000,0.000,3.000:
0000
0000
0000
0000
,
0000
0000
0000
0000
,
0000
0000
0000
0000
,
0000
0000
0000
0000
,
0000
0000
0000
0000
0000
0000
0000
0000
0000
0000
0000
0000
1000
0000
0000
0000
0000
0000
0001
0000
0000
0000
0000
0000
1000
0000
0000
0100
0000
0000
0000
0000
0000
0100
0000
0000
0010
0000
0000
0000
0001
0000
1000
0000
0000
0000
0000
0000
,
0001
0000
0000
0000
1000
0000
0010
0000
0000
0000
0000
0000
1001
0000
0000
0000
0000
0000
1000
0000
0000
0100
0000
0000
0010
0000
0000
0001
0000
0000
1000
0000
0000
0000
0000
0000
0011
0000
0000
0000
0000
0000
0100
0000
0000
0000
0000
0000
,
1100
0000
0010
1000
0010
0100
0001
1000
0001
0000
0010
0100
0010
0001
1000
0100
,
1000
0000
0000
0010
0000
0000
0100
0000
0001
0000
0100
0000
0001
0000
0000
1000
0000
0000
0100
0000
0000
1000
0000
0000
0010
0000
0000
0000
0000
0000
0100
0000
0000
0000
0000
0000
0101
0000
0000
0000
0000
0000
1000
0000
0000
0000
0000
0000
,
1010
0000
1000
0100
0010
0001
1000
0100
1000
0000
0010
0000
0010
0000
1100
0000
,
0101
0000
0000
0000
1001
1000
0100
1000
1000
0010
0100
0001
000M
1000
0100
0010
,
0010
0001
0100
0010
0010
1000
0001
1000
1000
0001
0100
0010
0010
0000
1000
0001
,
0100
0000
0000
0001
0000
0000
0010
0000
0000
0001
0000
0000
0100
0000
0000
0010
0000
0000
0100
0000
0000
0010
0000
0000
1000
0000
0000
0010
0000
0000
1000
0000
0001
0000
1000
0000
0001
0000
0000
0100
0000
0000
0M00
0000
0000
0100
0000
0000
,
0100
0010
1000
0001
000M
0100
0010
1000
1000
0001
0010
0100
0100
1000
1000
0010
,
0100
0001
0001
1000
01M0
1000
0010
1000
0001
1000
0100
1000
0010
0100
0001
0010
,
0100
0000
0000
1000
0000
0000
0001
0000
0100
0000
0001
0000
0100
0000
0000
0010
0000
0000
1000
0000
0000
0001
0000
0000
000M
0000
0000
0100
0000
0000
0010
0000
0000
1000
0000
0000
M000
0000
0000
0001
0000
0000
0010
0000
0000
0100
0000
0000
,
0100
1000
0010
0100
0100
0001
1000
0010
0010
0100
0001
1000
1000
0010
0100
0010
,
1000
0000
0000
0000
0000
0000
0000
0000
0000
0000
0000
0000
0010
0000
0000
0000
0000
0000
0000
0000
0000
0000
0000
0000
0100
0000
0000
0000
0000
0000
0000
0000
0000
0000
0000
0000
0010
0000
0000
0000
0000
0000
0000
0000
0000
0000
0000
0000
0100
0000
0000
0000
0000
0000
0000
0000
0000
0000
0000
0000
0001
0000
0000
0000
0000
0000
0000
0000
0000
0000
0000
0000
0010
0000
0000
0000
0000
0000
0000
0000
0000
0000
0000
0000
0100
0000
0000
0000
0000
0000
0000
0000
0000
0000
0000
0000
1000
0000
0000
0000
0000
0000
0000
0000
0000
0000
0000
0000
0100
0000
0000
0000
0000
0000
0000
0000
0000
0000
0000
0000
0010
0000
0000
0000
0000
0000
0000
0000
0001
0000
0000
0000
0000
0000
0000
0000
0010
0000
0000
0000
0000
0000
0000
0000
0001
0000
0000
0000
0000
0000
0000
0000
0000
0000
0000
0000
1000
0000
0000
0000
0000
0000
0000
0000
0000
0000
0000
0000
0010
0000
0000
0000
0000
0000
0000
0000
0000
0000
0000
0000
0100
0000
0000
0000
0000
0000
0001
0000
0000
0000
0000
0000
,
0100
0000
0010
0000
0010
0000
1000
0000
M000
0000
0001
0000
0010
0000
0100
1000
0100
0000
0010
0000
0010
0000
0001
0000
1000
0000
0010
0000
0010
0000
0100
0001
,
1000
0100
0010
0001
0001
0000
0010
0000
0100
0000
1000
0000
0010
0000
0100
0000
,
0001
0010
0100
1000
0010
0100
0001
0000
0000
0010
0000
0000
0100
0000
0000
0010
0000
0000
0001
0000
0000
0001
0000
0000
,
0100
0010
0010
1000
1000
0001
0010
0010
,
0200
0000
0300
0M00
1000
0001
0100
0001
1000
0000
0010
0000
0100
0001
1000
0001
,
0010
0000
0000
0100
0000
0000
1000
0000
0000
1000
0000
0000
0001
0000
0000
0100
0000
0000
0010
0000
0000
0010
0000
0100
,
0020
0000
0000
0000
0000
0000
1000
0000
0000
0000
1030
0000
0001
0000
0000
0000
0000
0000
0010
0000
0000
0000
0000
0000
0100
0000
0000
0000
0000
0000
1000
0000
0000
0000
0000
0000
0001
0000
0000
0100
0000
0000
0010
0000
0000
0100
0000
0000
,
0001
0000
0010
0000
0100
1000
0100
1000
0001
0000
0200
0000
0310
1000
0010
0100
,
0001
0000
0010
0000
0010
0000
0100
0000
0100
0000
1000
0000
0001
0010
0100
1000
,
0001
0000
0100
0000
0100
0000
0010
0000
0010
0000
1000
0000
0001
0100
0010
0000
,
1000
0000
0101
0000
1001
0000
1000
0100
0010
0000
0001
0000
1000
0000
0100
0010
,
0100
0000
0010
0001
1000
0100
1000
0100
0010
0000
0001
0000
0100
0010
0100
0001
,
1000
0100
0010
0001
1000
0000
0010
0100
0001
0000
0010
0000
0100
0000
1000
0000
,
0001
0000
0100
0000
0010
1000
0010
0100
0001
0000
0010
0000
0100
0000
0100
0000
,
0200
0000
0000
0000
0000
0000
1000
0000
0000
0000
1300
0000
0001
0000
0000
0000
0000
0000
0100
0000
0000
0010
0000
0000
1000
0000
0000
0000
0000
0000
0001
0000
0000
0000
0000
0000
0010
0000
0000
0000
0000
0000
0100
0000
0000
0000
0000
0000
,
1000
0000
0001
0100
0010
0000
1000
0000
0001
0000
0100
0010
1000
0100
1000
0100
,
0010
0000
0000
0000
0000
0000
0001
0000
1000
0000
0001
0000
0100
0000
0000
0000
0000
0000
0010
0000
0000
1000
0000
0000
0001
0000
0000
0000
0000
0000
0010
0000
0000
0000
0000
0000
0100
0000
0000
0000
0000
0000
0010
0000
0000
0000
0000
0000
,
0001
0000
1000
0100
0010
0100
0010
0001
2000
0000
0000
0000
3001
0000
0101
0000
,
1001
0000
0000
0000
1001
0000
1000
0000
0010
0100
0001
0000
0010
0100
1000
0000
,
1000
0000
0001
0100
0001
0010
0100
1000
0001
0000
0100
0000
0100
0000
0010
0000
,
4000
0000
3001
0000
0400
0000
0340
0000
1030
0000
0001
0010
0100
0000
1000
0000
,
1000
0010
0100
0010
1000
0001
0100
0000
0001
0000
0010
0100
1000
0000
0001
0000
,
0100
0000
0001
1000
1001
0000
0001
0000
0100
0000
0010
1000
0100
0000
0010
0000
,
0011
0000
0011
0010
0100
1000
0001
0100
0010
0000
1001
0000
0100
0000
0011
0000
,
1000
0000
0100
0010
0011
0000
1000
0000
0010
0000
0100
0001
1000
0000
0100
0000
,
0110
0000
0011
0001
1000
0000
0010
0000
0010
0000
0101
0100
0010
0000
1001
0000
,
1000
0000
0000
0000
0000
0000
1000
0000
0000
0000
0001
0000
0100
0000
0000
0010
0000
0000
1000
0000
0000
0010
0000
0000
0100
0000
0000
0000
0000
0000
0001
0000
0000
1000
0000
0000
0100
0000
0000
1000
0000
0000
0010
0000
0000
0100
0000
0000
,
0001
0010
0001
0100
0010
1000
0001
0100
0001
0000
0010
0000
0100
0000
1000
0000
,
1000
0000
0000
0001
0000
0000
0100
0000
0010
0000
0100
0000
0001
0000
0000
1000
0000
0000
0100
0000
0000
0010
0000
0000
0001
0000
0000
0000
0000
0000
0100
0000
0000
0000
0000
0000
0100
0000
0000
0000
0000
0000
0010
0000
0000
0000
0000
0000
,
0010
1000
0001
0100
0002
0000
0000
0000
0013
0100
1000
0010
0200
0000
0001
0000
,
0301
0010
0001
1000
0100
0010
0100
0010
0001
0100
0010
0100
0010
1000
0001
0100
,
0001
0000
0000
1000
0000
0000
0010
0000
0100
0000
0010
0000
1000
0000
0000
0000
0000
0000
0001
0000
0000
0010
0000
0000
0001
0000
0000
0100
0000
0000
0010
0000
0000
1000
0000
0000
0001
0000
0000
0000
0000
0000
0100
0000
0000
0000
0000
0000
,
0100
0000
0100
0000
0001
0010
0100
0010
0001
0010
1000
0010
0001
0010
0100
1000
,
0001
0100
0010
0000
1001
0000
1000
0010
0100
0000
0001
0000
1000
0100
0010
0001
,
1000
0000
0010
0000
0010
0000
0100
0001
1000
0000
0001
0000
0010
0100
1000
0100
,
0010
0001
1000
0010
0100
0000
0001
1000
0100
0000
0010
0000
0001
0000
0001
0000
,
0001
0000
0100
0000
0010
1000
0010
0100
0001
0000
0010
0000
0100
0000
0100
0000
,
1000
0000
0000
0000
0000
0000
0001
0000
0000
0000
1000
0000
0001
0000
0000
0000
0000
0000
0100
0000
0000
0010
0000
0000
1000
0000
0100
0000
1000
0000
0100
0000
0000
0000
0000
0000
0010
0000
0000
0000
0000
0000
0010
0000
0000
0000
0000
0000
,
0010
0000
0001
0100
0010
1000
0001
0100
0010
0000
1000
0100
1000
0010
0100
0001
,
1000
0000
0000
0100
0000
0000
1000
0000
0100
0000
1000
0000
0100
0000
0000
0000
0000
0000
0010
0000
0000
0001
0000
0000
1000
0000
0000
0000
0000
0000
0010
0000
0000
0000
0000
0000
0010
0000
0000
0000
0000
0000
0100
0000
0000
0000
0000
0000
,
0100
0000
0000
0000
0000
0000
0001
0000
0000
0010
0000
0000
0100
0000
0000
1000
0000
0000
0001
0000
0000
0100
0000
0000
0001
0000
1000
0000
0001
0000
1000
0000
0001
0000
1000
0000
0001
0000
0000
0000
0000
0000
0110
0000
0000
0000
0000
0000
,
1001
0000
0000
0000
;

//---------------dance-single - ----------------
#NOTES:
     dance-single:
     :
     Hard:
     9:
     0.560,0.540,0.144,0.152,0.284,428.000,17.000,18.000,0.000,0.000,0.000,0.560,0.540,0.144,0.152,0.284,428.000,17.000,18.000,0.000,0.000,0.000:
0000
0000
0000
0000
,
0000
0000
0000
0000
,
0000
0000
0000
0000
,
0000
0000
0000
0000
,
0000
0000
0001
0100
0010
1000
0001
0100
,
0101
0000
1001
1000
0100
0010
0001
0001
,
0001
0000
1000
0100
0010
0000
0001
0100
,
0001
0010
1100
0000
0001
0000
0100
0010
,
1000
0000
0001
0010
0200
0000
1300
0001
,
1001
0000
0000
0000
1000
0001
0100
0001
0000
1000
0100
1000
0000
0010
0100
0001
,
0000
1000
0100
1000
0001
0000
0100
0000
0010
0000
1000
0001
1000
0000
0100
0000
,
0010
0000
0001
0000
0100
0000
0010
0000
1000
0000
0001
0000
0100
0010
0000
0010
,
0000
0100
0001
0100
0000
0010
1000
0001
0000
1000
0100
1000
0001
0000
0100
0000
,
0010
0000
1000
0001
1000
0000
0010
0000
0100
0000
0001
0000
0010
0000
0100
0000
,
1000
0000
0001
0000
0100
0010
1000
0010
0000
0100
0001
0100
0000
0001
1000
0100
,
0000
0010
0001
1000
0010
0000
0100
0000
0001
0000
1000
0100
1000
0000
0010
0000
,
0100
0000
0010
0000
0100
0000
0001
0000
0010
0000
0100
0000
1000
0001
0100
0001
,
0000
1000
0100
0010
0000
0001
0100
0001
0000
1000
0100
1000
0010
0000
0100
0000
,
0010
0000
0100
0001
0100
0000
0010
0000
0100
0000
0010
0000
1000
0000
0001
0000
,
0010
0100
0100
1000
0010
0100
0100
0001
,
0010
0100
0100
1000
0010
0100
0100
0001
,
1000
0000
0000
0000
0001
0000
0010
0000
0100
0000
1000
0000
0001
0100
0001
0100
,
0001
1000
0100
0100
0010
0010
0001
1000
,
0100
0000
0000
0000
0010
0000
0001
0000
1000
0000
0010
0000
0100
0001
0100
0001
,
0100
0000
0010
0000
0010
0000
1000
0000
1000
0000
0002
0000
0000
0000
1003
0100
,
1000
0000
0010
0000
0010
0000
0100
0000
0001
0000
0010
0000
0100
1000
0100
1000
,
0100
0010
0010
0001
0100
0010
2000
0000
,
3002
0000
0000
0000
0103
0000
0010
1000
0010
0000
0100
0000
0100
0000
0001
0000
,
0001
0000
1000
0100
1000
0000
0001
0000
0001
0000
0100
0000
0010
1000
0010
1000
,
0010
0000
0000
0000
0100
0000
0001
1000
0001
0000
1000
0000
0100
0000
0100
0000
,
0010
0000
0010
0000
0001
1000
0001
1000
0001
0000
0100
0000
0100
0000
0010
0000
,
0020
0000
0000
0000
1030
0000
0001
0100
0001
0000
1000
0000
0100
0000
0100
0000
,
0100
0000
0010
0001
0010
0000
0100
0000
0100
0000
1000
0000
0001
0100
0001
0100
,
0001
0000
0000
0000
1000
0000
0100
1000
0100
0000
0010
0000
0010
0000
0001
0000
,
0001
0000
0100
0000
0010
1000
0010
1000
0020
0000
0000
0000
0000
0000
0100
0000
,
0130
0000
0000
0000
1001
0000
1000
0000
0010
0000
0000
0100
0001
0000
1000
0000
,
0100
0000
0010
0001
0010
0000
0100
0000
1000
0000
0001
0000
0001
0000
0100
0000
,
0200
0000
0010
0000
0310
0000
1000
0000
1000
0000
0000
0001
0100
0000
0010
0000
,
1000
0000
0001
0010
0001
0000
0100
0000
0010
0000
0000
1000
0001
0000
0100
0000
,
0100
0000
0000
0000
1001
0000
0100
0000
0010
0000
0000
1000
0100
0000
0010
0000
,
0011
0001
0100
0010
1000
1001
0001
0101
,
0100
0000
0010
0000
1010
0000
1000
0000
1000
0000
0000
0001
0100
0000
0010
0000
,
1010
1000
0100
0100
0100
0011
0001
1001
,
1000
0000
0000
0001
1000
0000
0010
0000
0100
0000
0001
0000
0001
0000
0010
0000
,
0100
1000
0100
0010
0001
0100
0010
1000
,
0001
0100
0001
0001
0010
0000
0100
1000
,
0100
0010
0002
0000
0103
0010
2000
0000
,
3001
0010
0001
0100
0001
0100
0010
0100
,
0010
0100
0020
0000
1030
0100
0010
0001
,
0001
0001
1000
0100
1000
0010
1000
0001
,
1000
0010
0210
0000
0000
0000
0002
0000
,
0300
2000
0003
0200
,
3000
0020
0300
0002
,
0030
0200
0003
0020
,
0330
0000
1001
1000
0010
0100
0100
0001
,
0001
1000
0100
0010
0001
0100
0010
0010
,
0010
0000
1000
0001
0100
0010
1000
1000
,
1000
0000
0100
0000
1000
0001
1000
0001
1000
0000
0000
0000
0000
0000
0110
0000
,
1001
0000
0000
0000
;

//---------------dance-single - ----------------
#NOTES:
     dance-single:
     :
     Medium:
     6:
     0.402,0.418,0.237,0.136,0.017,288.000,28.000,16.000,0.000,0.000,0.000,0.402,0.418,0.237,0.136,0.017,288.000,28.000,16.000,0.000,0.000,0.000:
0000
0000
0000
0000
,
0000
0000
0000
0000
,
0000
0000
0000
0000
,
0000
0000
0000
0000
,
0000
0000
1000
0000
0001
0000
0100
0010
,
1001
0000
1001
0000
1000
0000
0100
0010
,
0001
0000
0100
0010
1000
0000
0001
0100
,
0001
0000
1000
0000
0100
0000
0010
0001
,
1000
0000
0010
0100
0002
0000
0000
1000
,
1003
0000
1001
1000
0010
0010
0100
0100
,
0001
0000
0001
0000
0010
0000
0100
0000
1000
0000
0001
1000
0001
0000
0000
0000
,
0100
0000
0010
1000
0010
0100
1001
0001
,
0100
0100
0010
0010
1000
1000
0001
0010
,
0100
0000
1000
0001
1000
0000
0000
0000
0010
0000
0000
0000
0100
0000
0001
0000
,
1000
0100
0011
1000
1000
0010
0010
0100
,
0100
0000
0001
0000
0001
0000
0010
0000
0100
0000
1000
0001
1000
0000
0000
0000
,
0010
0000
0100
0001
1000
0001
0110
1000
,
1000
0001
0001
0100
0100
0010
0010
1000
,
0001
0000
0100
0010
0100
0000
0000
0000
0001
0000
0000
0000
0010
0000
0000
0000
,
0100
1000
1100
0000
0001
0000
0100
0010
,
1000
0000
0001
0010
0100
0000
1000
0100
,
0010
0000
0001
0100
0001
0000
0100
0010
,
1000
0000
0001
0010
0100
0000
1000
1000
,
1000
0000
0010
0100
0001
0000
0010
0010
,
0100
0000
1000
0001
0100
0020
0000
1000
,
1030
0000
0001
0010
0001
0000
1000
0100
,
1000
0000
0010
0100
0001
1000
0020
0000
,
0130
0000
1001
0000
1000
0000
0010
0100
,
0001
0000
0010
0100
1000
0000
0001
0100
,
0001
0000
1000
0000
0010
0000
0100
0100
,
0001
0000
1000
1000
0100
0010
0010
0001
,
0001
0000
1001
1000
0010
0000
0100
0001
,
0100
0000
0010
1000
0001
0000
0010
0100
,
1000
0100
0010
0000
0001
0000
0100
0010
,
1000
0000
0001
0100
0002
0000
0000
1000
,
1003
1001
0100
0010
,
1000
0001
0010
0001
,
0100
0010
0010
1000
,
1000
0001
0010
0100
,
1000
0101
0000
0100
,
1001
1001
0000
0000
0000
1100
0000
0011
,
0000
0110
0000
0010
,
0101
0101
0000
0000
0000
0110
0000
1001
,
0000
0000
1001
0000
1000
0000
0010
0100
,
0001
0000
0010
0100
1000
0000
0001
0100
,
0010
1000
0001
0000
0010
0000
0100
1000
,
0001
0200
0300
0020
,
0030
0000
1000
0100
1000
0100
0010
0001
,
1000
0000
0001
0000
0100
0000
0010
1000
,
0010
1000
1001
0000
1100
0000
1001
0001
,
0100
0120
0000
2030
,
0000
3200
0000
0320
,
0000
0032
0000
0203
,
0000
0320
0000
2030
,
0000
0000
3001
0010
0100
0000
1000
0100
,
0010
0000
0001
0100
0010
0000
1000
0001
,
0100
0000
0010
1000
0001
0000
0100
0010
,
1000
0000
2002
0000
0000
3003
0000
1001
,
1001
0000
0000
0000
;

//---------------dance-single - ----------------
#NOTES:
     dance-single:
     :
     Easy:
     4:
     0.238,0.246,0.144,0.152,0.000,162.000,17.000,18.000,0.000,0.000,0.000,0.238,0.246,0.144,0.152,0.000,162.000,17.000,18.000,0.000,0.000,0.000:
0000
0000
0000
0000
,
0000
0000
0000
0000
,
0000
0000
0000
0000
,
0000
0000
0000
0000
,
0000
0000
0000
0000
,
0000
1001
0100
0010
,
0010
1000
1000
0100
,
0010
0001
0100
0010
,
0010
1000
0001
0000
,
0110
1001
1000
0100
,
0100
0010
0001
1100
,
0100
0010
0001
1010
,
0100
0001
1000
0100
,
0010
0011
1000
0010
,
0100
0011
1000
0001
,
0100
0010
1000
0110
,
1000
0001
0100
1001
,
0010
1000
0100
0010
,
0001
1100
0100
0010
,
0001
0100
0000
0010
,
0000
1000
0000
0001
,
0010
0100
0000
1000
,
0000
0010
0000
0001
,
1000
0010
0000
0100
,
0000
0001
0000
1000
,
0010
0100
0000
0100
,
0000
0001
0000
0010
,
0010
1001
0000
1000
,
0000
0010
0000
0100
,
0000
0001
0000
1000
,
0000
0100
0000
0100
,
0010
1100
0000
0001
,
0000
0100
0000
0010
,
1000
0001
0000
0010
,
0000
0200
0000
0300
,
0110
2001
3000
0020
,
0030
0200
0300
0002
,
0003
0020
0030
0200
,
0300
2000
3000
0002
,
0003
1001
0000
0000
,
1000
1000
0000
0000
0000
0001
0000
0001
,
0000
0100
0000
0000
,
0010
0010
0000
0000
0000
0100
0000
0100
,
0000
1001
1000
0100
,
0100
0010
0010
0001
,
0100
0010
1000
0001
,
0001
0100
0010
1000
,
0001
0100
0100
0100
,
0100
0010
1000
0001
,
0001
0100
0100
0010
,
0010
2000
3000
0002
,
0003
0020
0030
0200
,
0300
2000
3000
0200
,
0300
0020
0030
0002
,
0003
1001
1000
0010
,
0010
0100
0100
0001
,
0010
0100
0100
1000
,
1000
0000
0002
0000
0000
0000
0000
1000
,
1003
0000
0000
0000
;

//---------------dance-single - Blank----------------
#NOTES:
     dance-single:
     Blank:
     Beginner:
     1:
     0.114,0.123,0.025,0.000,0.000,91.000,3.000,0.000,0.000,0.000,0.000,0.114,0.123,0.025,0.000,0.000,91.000,3.000,0.000,0.000,0.000,0.000:
0000
0000
0000
0000
,
0000
0000
0000
0000
,
0000
0000
0000
0000
,
0000
0000
0000
0000
,
0000
0000
0000
0000
,
0000
1000
0000
1000
,
0000
0001
0000
0001
,
0000
0100
0000
0100
,
0000
0010
0000
0000
,
0001
0001
0000
0001
,
0000
0001
0000
0001
,
0000
0001
0000
1000
,
0000
1000
0000
1000
,
0000
1000
0000
1000
,
0000
0010
0000
0010
,
0000
0010
0000
0010
,
0000
0010
0000
0100
,
0000
0100
0000
0100
,
0000
0100
0000
0100
,
0000
0010
0000
0010
,
0000
1000
0000
1000
,
0000
0100
0000
0100
,
0000
0010
0000
0010
,
0000
0001
0000
0001
,
0000
0100
0000
0100
,
0000
0010
0000
0010
,
0000
1000
0000
0001
,
0000
1001
0000
0000
,
0000
1000
0000
0000
,
0000
0010
0000
0000
,
0000
0100
0000
0000
,
0000
0001
0000
0001
,
0000
0100
0000
0100
,
0000
0010
0000
0010
,
0000
1000
0000
0000
,
0001
0001
0000
0000
,
0000
0001
0000
0000
,
0000
0100
0000
0000
,
0000
0100
0000
0000
,
0000
0010
0000
0000
,
1000
0000
0000
0000
,
0000
0010
0000
0000
,
0001
0000
0000
0000
,
0000
1001
0000
1000
,
0000
0010
0000
0010
,
0000
0100
0000
0100
,
0000
0001
0000
0001
,
0000
1000
0000
0001
,
0000
0100
0000
0010
,
0000
1000
1000
1000
,
0000
0001
0000
0000
,
0000
0100
0000
0000
,
0000
0010
0000
0000
,
0000
1000
0000
0000
,
0000
0001
0000
0001
,
0000
0100
0000
0100
,
0000
0010
0000
0010
,
0000
1000
0000
0000
,
1001
0000
0000
0000
;

//---------------pump-single - M. Blancmanche----------------
#NOTES:
     pump-single:
     Hard:
     Medium:
     8:
     0.632,0.737,0.169,0.508,0.385,442.000,20.000,60.000,2.000,0.000,0.000,0.632,0.737,0.169,0.508,0.385,442.000,20.000,60.000,2.000,0.000,0.000:
00000
00000
00000
00000
,
00000
00000
00000
00000
,
00000
00000
00000
00000
,
00000
00000
00000
00000
,
00000
00000
00000
00000
,
00000
00000
10000
00001
00100
00001
01000
00100
,
10000
00001
00100
10000
00100
00001
02000
00010
,
03020
00000
10030
00100
01000
00010
00100
00001
,
10000
01000
00100
01000
10000
00001
00100
00010
,
01010
00000
00000
00000
00000
10000
00100
10000
00000
00010
00100
00010
00000
01000
00001
00100
,
00001
10000
00100
20000
00000
30010
00100
00010
01000
00010
10000
00001
00100
00000
00001
00000
,
10000
00000
00100
00000
01000
00000
00100
00000
10000
00000
00001
00000
00100
00010
00000
01000
,
00000
00001
10000
00100
00000
01000
00001
00100
00000
00010
10000
00200
00000
10300
00010
00100
,
00010
10000
00001
00100
00010
00000
01000
00000
00001
00000
00100
00000
00010
00000
10000
00000
,
00100
00000
01000
00000
00001
10000
10000
10000
00000
00010
00010
00010
00000
01000
01000
01000
,
00000
00001
00001
00001
00100
00010
01000
00100
10000
00001
00100
00010
02000
00000
03200
00000
,
00320
00000
00230
00000
20300
00000
30200
00000
00302
00000
00203
00000
01300
00001
00001
00001
,
00000
10000
10000
10000
00000
00010
00010
00010
01000
00001
01000
00100
10000
00001
01000
00010
,
00100
00001
10000
00100
20000
00000
30200
00000
00320
00000
00230
00000
20300
00000
30002
00000
,
02003
03200
00301
00010
00100
00010
10000
00100
,
01000
00010
00100
00001
00100
00010
10000
00100
,
02000
00000
00000
00000
03001
00000
00100
00000
00010
00000
10000
00000
00001
00100
00001
00100
,
00001
01000
00020
00000
00130
00001
10000
00010
,
00100
00000
00000
00000
10000
00000
00100
00000
10000
00000
00100
00000
10000
00001
10000
00001
,
10000
00000
10000
00000
00001
00000
00100
00000
00001
00000
00200
00000
00000
00000
00301
10000
,
00002
00000
00000
00000
01003
00000
00100
00000
01000
00000
00100
00000
01000
00010
01000
00010
,
01000
00100
10010
00100
01001
00100
02020
00000
,
03030
00000
00000
00000
10000
00000
00010
00100
00010
00000
01000
00000
00100
00000
10000
00000
,
00100
00000
01000
00001
01000
00000
00100
00000
10000
00000
00001
00000
00100
00010
00100
00020
,
00000
00000
00000
00000
01030
00000
00100
10000
00100
00000
01000
00000
00001
00000
01000
00000
,
00100
00000
10000
00000
00001
00100
00001
00100
00001
00000
01000
00000
00100
00000
10000
00000
,
10001
00000
0000M
00000
00001
00000
10000
00100
10000
00000
00001
00000
01000
00000
00100
00000
,
10000
00000
00010
00100
00010
00000
01000
00000
00001
00000
00100
00000
00001
10000
00001
20000
,
00000
00000
00000
00000
30001
00000
01000
00010
01000
00000
00001
00000
00100
00000
00010
00000
,
01000
00000
00010
00000
10000
00100
10000
00100
20000
00000
00000
00000
30000
00000
00110
00000
,
00110
00000
00000
00000
10000
00000
00010
00000
00100
00000
00000
00001
01000
00000
00100
00000
,
10000
00000
00010
00000
01000
00100
01000
00100
01000
00000
00010
00000
10000
00000
00010
00000
,
00120
00000
01030
00100
02100
00000
03001
10000
,
00010
00000
01000
00100
01000
00000
00001
00000
00100
00000
00000
00010
20000
00000
30200
00000
,
02300
00000
03002
00000
00103
00000
00001
00000
10000
00000
00000
00010
00100
00000
00001
00000
,
10001
10001
10000
00100
01000
01100
00001
00101
,
10000
00010
10010
00100
00010
01000
00001
00100
,
01010
01010
00010
10000
00100
01100
00000
00110
,
00010
00000
00000
10000
00000
00001
00100
00000
00000
00010
00000
00000
01000
00000
00000
00100
00000
00000
10000
00000
00000
00010
00000
00000
,
10000
00001
00100
00001
01000
00100
10000
00001
,
00100
00010
00200
00320
02030
03200
20300
30002
,
10003
00100
10000
00100
20000
00000
00000
00000
30001
00100
00001
00100
00002
00000
00000
00000
,
01003
00100
01000
00100
02000
00000
00000
00000
03010
00100
00010
00100
00020
00000
10000
00000
,
10030
00000
00000
00000
00001
00000
01000
00010
01000
00010
01000
00010
01000
00000
00001
00000
,
10000
00100
02000
00000
03002
00000
00203
00320
,
20030
30002
00000
02003
,
00000
03200
00000
20300
,
30000
M0000
20000
00000
00000
00000
30020
00000
,
00000
00230
00000
00302
,
00000
00000
00103
00010
01000
00100
10000
00001
,
01000
00000
00001
00000
00100
00000
00010
00000
10000
00000
00001
00000
10000
00010
10000
00010
,
20000
00000
30010
00100
00001
01000
00100
10000
,
00010
00000
00100
00000
00001
01000
00001
01000
00200
00000
00000
00000
00300
00000
01001
00000
,
10010
00000
00000
00000
;

//---------------pump-single - M. Blancmanche----------------
#NOTES:
     pump-single:
     Normal:
     Easy:
     5:
     0.350,0.491,0.186,0.407,0.119,219.000,22.000,48.000,0.000,0.000,0.000,0.350,0.491,0.186,0.407,0.119,219.000,22.000,48.000,0.000,0.000,0.000:
00000
00000
00000
00000
,
00000
00000
00000
00000
,
00000
00000
00000
00000
,
00000
00000
00000
00000
,
00000
00000
00000
00000
,
00000
01000
00010
00100
,
00001
00000
10000
00000
00010
00000
01000
00100
,
01000
00010
01000
00100
,
10000
00001
00010
00100
,
01000
00000
00000
00000
10000
00020
00000
00030
00000
02000
00000
03000
00000
00200
00000
20300
,
00000
00000
00000
30002
00000
00000
01003
00010
01000
00000
00010
01000
00010
00000
00000
00000
,
10010
00000
00000
00000
00010
00000
00000
00000
10010
00000
00000
00000
00010
00200
00000
00300
,
00000
00002
00000
00003
00000
20000
00000
30200
00000
00000
00000
02300
00000
00000
03010
10000
,
00010
00000
01000
00001
01000
00000
00000
00000
01001
00000
00000
00000
01000
00000
00000
00000
,
01001
00000
00000
00000
10000
00020
00000
00030
00000
02000
00000
03000
00000
00200
00000
20300
,
00000
00000
00000
30001
00100
00002
00000
00000
10003
00100
20000
00000
30010
00000
00000
00000
,
00110
00000
00000
00000
01000
00000
00000
00000
01100
00000
00000
00000
00010
00200
00000
00300
,
00000
00002
00000
00003
00000
20000
00000
30200
00000
00000
00000
01300
00010
20000
00000
00000
,
30010
01000
00002
00000
00103
00000
00000
00000
00010
00000
00000
00000
01000
00000
00000
00000
,
00001
00000
10000
00100
10000
00000
00001
00100
,
00001
00000
01000
00100
01000
00000
00010
00100
,
00010
00000
00010
00100
00010
00000
01000
00100
,
01000
00000
00001
00100
00001
00000
10000
00100
,
10000
00000
00002
00000
00203
00000
00310
01000
,
00010
00000
20000
00000
30200
00000
00000
01300
,
00001
00000
01000
00010
10000
00000
00010
01000
,
00001
20000
30020
00130
,
10001
01000
00010
10000
,
00001
00000
00100
00000
00010
00000
01000
00100
,
10000
00010
00100
00001
,
10000
00000
00100
00000
01000
00000
00001
01000
,
00100
10001
00001
10001
,
10000
00000
00001
00100
00001
00000
10000
00100
,
10000
00000
00010
00000
01000
00000
00001
10000
,
00002
00000
00203
00000
00000
00000
00300
00100
,
00100
20002
00000
00000
,
00000
00000
00000
00000
,
00000
00000
00000
00000
,
00000
00000
00000
00000
,
30003
01010
00000
00000
,
10100
10100
00000
00000
00000
01001
00000
10010
,
00000
10001
00000
00000
,
00110
00110
00000
00000
00000
10010
00000
02002
,
00000
03003
01000
00000
00001
00000
10000
00000
,
00010
00000
01000
00000
00001
00000
10000
00100
,
00100
01000
00001
10000
,
00020
01030
20000
30001
,
00020
00000
10030
00000
00100
00000
10000
00001
,
10000
00000
00020
00000
00230
00000
00301
10000
,
00001
10000
00200
00000
02300
00000
03002
00000
,
10003
02020
00000
00000
,
00000
00000
00000
00000
,
03030
20002
00000
00000
,
00000
00000
00000
30003
,
00100
01000
00010
10000
,
00001
00000
01000
00010
01000
00000
00002
00000
,
01003
00000
00010
00000
10000
00000
00010
00100
,
00010
00100
00020
00000
00000
00000
00000
00000
,
01030
00000
00000
00000
;

//---------------pump-single - M. Blancmanche----------------
#NOTES:
     pump-single:
     Easy:
     Beginner:
     2:
     0.127,0.197,0.051,0.119,0.000,85.000,6.000,14.000,0.000,0.000,0.000,0.127,0.197,0.051,0.119,0.000,85.000,6.000,14.000,0.000,0.000,0.000:
00000
00000
00000
00000
,
00000
00000
00000
00000
,
00000
00000
00000
00000
,
00000
00000
00000
00000
,
00000
00000
00000
00000
,
00000
00001
00000
00100
,
00000
00010
00000
01000
,
00000
00010
00000
00100
,
00000
00001
00000
10000
,
00000
00020
00000
00000
,
00000
00000
00000
10030
,
00000
00001
00000
20000
,
00000
00000
00000
00000
,
00000
30010
00000
01000
,
00000
00002
00000
00000
,
00000
00000
00000
01003
,
00000
00010
00000
02000
,
00000
00000
00000
00000
,
00000
03001
00000
10000
,
00000
00010
00000
01000
,
00000
00001
00000
10000
,
00000
00100
00000
10000
,
00000
00010
00000
00100
,
00000
00002
00000
01003
,
00000
00020
00000
00000
,
10030
00001
00000
01000
,
00000
00001
00000
01000
,
01000
01000
00000
00010
,
00000
00100
00000
00001
,
00000
10000
00000
00100
,
00000
01000
00000
00001
,
00002
00003
10000
00000
,
00010
00000
01000
00000
,
00010
00000
10000
00000
,
00002
00103
00000
00000
,
01010
01010
00000
00000
,
00000
00000
00000
00000
,
00000
00000
00000
00000
,
00000
00000
00000
00000
,
00000
10001
00000
00000
,
00100
00000
00000
00000
,
00000
10001
00000
00000
,
01010
00000
00000
00000
,
00000
00001
00000
01000
,
00000
00001
00000
01000
,
00000
00010
00000
10000
,
00000
00020
00030
20000
,
30000
00002
00003
02000
,
03000
20000
00000
30000
,
00001
00100
00100
00100
,
00100
00200
00000
00000
,
00000
00000
00000
00000
,
00000
00000
00000
00000
,
00000
00000
00000
00000
,
00300
00001
00000
10000
,
00000
00001
00000
10000
,
00000
00010
00000
01000
,
00000
00010
00000
01000
,
01010
00000
00000
00000
;

//---------------pump-single - M. Blancmanche----------------
#NOTES:
     pump-single:
     Crazy:
     Hard:
     12:
     0.818,0.737,0.669,0.610,0.606,518.000,79.000,72.000,5.000,14.000,3.000,0.818,0.737,0.669,0.610,0.606,518.000,79.000,72.000,5.000,14.000,3.000:
00000
00000
00000
00000
,
00000
00000
00000
00000
,
00000
00000
00000
00000
,
00000
00000
00000
00000
,
00000
00000
00000
00000
,
00000
00000
00000
00000
00000
00000
10000
00000
00000
00010
00000
01000
00100
00000
00000
10010
00000
00000
00100
00000
00000
01001
00000
00000
,
00100
00000
10010
00000
00100
01000
00100
01000
00001
00000
10000
00000
00100
01000
00010
00100
,
00001
10000
00100
10000
00010
01000
00001
10000
00100
00000
01010
00000
00100
00000
10001
00000
,
00100
00010
10000
00100
01000
00010
10000
00100
02000
00000
00000
00000
00000
00000
00110
00000
,
03110
00000
00000
00000
10000
01000
00100
00010
00001
00010
00100
01000
10000
01000
00100
00010
,
00001
00010
00100
01000
10000
01000
00100
00010
00001
00010
00100
01000
10000
00000
00001
00000
,
01100
00000
00001
00000
00110
00000
00001
00000
01100
00000
00001
00000
10000
00100
00001
00010
,
00100
01000
10000
00100
00001
00010
00100
01000
10000
00100
00001
00010
00100
01000
10000
00100
,
00001
00010
00100
01000
10000
00000
00100
00000
01001
00000
00100
00000
10010
00000
00100
00000
,
01001
00000
00100
00000
00010
00001
00100
10000
01000
10000
00100
00001
00010
00001
00100
10000
,
01000
10000
00100
00001
00010
00001
00100
10000
01000
10000
00100
00001
00010
00000
10000
00000
,
00110
00000
10000
00000
01100
00000
10000
00000
00110
00000
10000
00000
00010
00100
01000
10000
,
00100
00001
00010
00100
01000
10000
00100
00001
00010
00100
01000
10000
00100
00001
00010
00100
,
01000
10000
00100
00001
00010
00000
00100
00000
01010
00000
00100
00000
10001
00000
00100
00000
,
01010
00000
00000
00000
00000
00000
01000
00000
00100
00000
01000
00000
00200
00000
00000
00000
00000
00000
20000
00000
00000
00300
00000
00000
00020
00000
00000
30000
00000
00000
00200
00000
00000
00030
00000
00000
00002
00000
00000
00300
00000
00000
00020
00000
00000
00003
00000
00000
,
00200
00030
00020
00300
00002
00030
20000
00003
02000
30000
00200
03000
02000
00300
20000
03000
,
00020
30000
00000
00000
00200
00030
00002
00300
20000
00003
00200
30000
01300
00100
00010
00001
,
00010
00000
00200
00000
02300
00000
00020
03000
00200
00030
00002
00300
20000
00003
30010
00000
,
01110
00000
00000
00000
11000
00000
00100
00000
00011
00000
00100
00000
40000
00010
00000
00100
,
30000
00000
00100
00000
01001
00000
00100
00000
10010
00000
00200
00000
00000
00000
00304
10000
,
00003
00000
00200
00000
00020
00300
02000
00030
00002
03000
20000
00003
30010
00100
01000
00100
,
00010
00000
00000
10000
00000
00000
00110
00000
00000
01000
00000
00000
01001
00000
00000
00001
00000
00000
01100
00000
00010
10000
00000
00000
,
00002
00000
01003
00000
00010
00000
10000
00100
01000
00000
00001
00000
01100
00000
00010
00000
,
00101
00000
01000
00010
01000
00000
00101
00000
10100
00000
01100
00000
01000
00100
00010
00002
,
00000
00003
00000
00000
00101
00000
10000
00010
00100
00000
01010
00000
00100
00000
10010
00000
,
00100
00000
01001
00000
10000
00100
00001
00010
00200
00000
00002
00300
20000
00003
00020
30000
,
01130
00000
00000
00000
00000
00000
00001
00000
00000
00000
10000
00000
00010
00000
00000
00000
00000
00000
01000
00000
00000
00001
00000
00000
00100
00000
00000
00000
00000
00000
10010
00000
00000
00000
00000
00000
00200
00000
00000
00000
00000
00000
02000
00000
00000
00300
00000
00000
,
00002
03000
00013
00100
02000
00000
20000
03000
00200
30000
00002
00300
00103
10000
01000
00020
,
00000
00000
00030
00000
00100
00000
00001
01000
00100
00000
10010
00000
01010
00000
01001
00000
,
01010
00000
10010
00000
00004
00100
00000
10000
00003
00000
00100
00000
00100
00000
10101
00000
,
10101
00000
00000
00000
01000
00000
00010
00000
00200
00000
00000
00301
01000
00000
00100
00000
,
10000
00000
00010
01000
00100
01000
00010
00100
00020
00000
02000
00030
00002
03000
20000
00003
,
00200
30000
01300
00001
00010
00000
00100
00000
22000
00000
33000
00100
00001
00000
01000
00000
,
00100
00000
10000
00010
00100
00000
01001
00000
20020
00000
30030
01000
00002
00000
00203
00000
,
01310
00000
00000
00000
00000
00000
10000
00000
00000
00000
00001
00000
00100
00000
00000
00000
00000
00000
00010
00000
00000
00000
00000
00000
01010
00000
00000
00000
00000
00000
00000
00000
00000
00001
00000
00000
00100
00000
00000
00000
00000
00000
00010
00000
00000
00000
00000
00000
,
01100
00000
01100
00010
00100
01000
10000
00100
00001
00000
00011
00000
00100
00000
11000
00000
,
00100
00000
00001
01000
01001
00000
00100
00000
00010
00000
00000
10000
00001
00000
01000
00000
,
00110
00000
00110
01000
00001
00000
10000
00000
00010
00000
01001
00000
01000
00000
01110
00000
,
01000
00000
00000
00000
00000
00000
00001
00000
00000
00000
10000
00000
00100
00000
00000
00000
00000
00000
01000
00000
00000
00000
00001
00000
00100
00000
00000
00000
00000
00000
10010
00000
00000
00000
00000
00000
00100
00000
00000
00001
00000
00000
10000
00000
00000
00010
00000
00000
,
00100
00010
01000
00001
00010
00100
01000
00100
00010
00000
01001
00000
00100
00000
10010
00000
,
00100
00000
00000
00000
00000
00000
00010
00000
01000
00000
00010
00000
01000
00000
00000
00001
00000
00000
00100
00000
00000
00010
00000
00000
01000
00000
00000
00000
00000
00000
00100
00000
00000
00000
00000
00000
10010
00000
00000
00000
00000
00000
01100
00000
00000
00000
00000
00000
,
10000
01000
00100
00010
00002
00000
00000
00000
10003
01000
00100
00010
00002
00000
00000
00000
,
10003
01000
00100
00010
00001
00000
00101
00000
01000
10000
00100
00001
00010
00100
00001
01000
,
00100
10000
00010
10000
00002
00000
01003
00100
00010
00001
00010
00100
01000
00000
00100
00000
,
01110
00000
00100
00000
00001
00010
00100
10000
01000
00100
00001
00010
00100
10000
01000
00100
,
00001
00010
00100
10000
00002
00000
00000
00000
00000
00000
00000
00000
00020
00000
00000
00000
,
00003
02000
00030
20000
,
03000
00200
30000
02000
,
00300
00002
03000
20020
,
30033
00000
00000
00000
10110
00000
01000
00001
00100
00000
10010
00000
00100
00000
01001
00000
,
00100
00000
11000
00000
00100
00000
00011
00000
00100
00000
10010
00000
00100
01000
00001
10000
,
00100
00000
MMMMM
00000
01101
00000
01000
00001
00100
00000
10010
00000
00100
00000
01001
00000
,
00100
00000
10010
00000
00100
00001
00010
00100
02000
00000
03001
00000
20000
00000
00110
00000
,
30110
00000
00000
00000
;

//---------------dance-double - M. Blancmanche----------------
#NOTES:
     dance-double:
     Light Double:
     Easy:
     4:
     0.248,0.246,0.059,0.356,0.000,156.000,7.000,42.000,0.000,0.000,0.000,0.248,0.246,0.059,0.356,0.000,156.000,7.000,42.000,0.000,0.000,0.000:
00000000
00000000
00000000
00000000
,
00000000
00000000
00000000
00000000
,
00000000
00000000
00000000
00000000
,
00000000
00000000
00000000
00000000
,
00000000
00000000
00000000
00000000
,
00000000
10000000
00010000
00100000
,
00010000
10000000
01000000
00200000
,
00310000
01000000
00001000
00010000
,
00000100
00002000
00000000
00003000
,
00001001
00000000
00000100
00000000
00000000
00000001
00000000
00000200
,
00000000
00000000
00000300
00000001
00001000
00000001
00000100
00000000
,
00001000
00010000
00100000
01100000
,
00000000
02000000
00000000
03020000
00000000
00000000
00030000
10000000
,
00100000
01000000
00100000
00000000
10000000
00000000
00100000
00000000
,
01000000
00010000
00100000
00001000
,
00010000
00000100
00001000
00000002
,
00001000
00000000
00000103
00001000
,
00000100
00010000
00001000
00100000
,
00010000
01000000
00010000
00100000
,
00010000
02000000
00000000
03020000
,
00000000
00230000
00000000
00302000
,
00000000
00023000
00000000
00030200
,
00000000
00002300
00000000
00003020
,
00000000
00000230
00000000
00000302
,
00000000
00002003
00000000
00003200
,
00000000
00020300
00000000
00032000
,
00000000
02003000
00000000
03200000
,
20300000
30010000
00000000
10000000
,
00000000
00100000
00000000
01000000
,
00000000
00010000
00000000
10000000
,
00000000
01000000
00000000
01000000
,
00100000
00011000
00000000
00000001
,
00000000
00000100
00000000
00000010
,
00001000
00000001
00000000
00000010
,
00000000
00000200
00000000
00000300
,
00001100
00020000
00030000
00002000
,
00003000
00020000
00030000
00000200
,
00000300
00002000
00003000
00000020
,
00000030
00020000
00030000
00002000
,
00003000
00101000
00000000
00000000
,
00001000
00010000
00000000
00000000
00000000
00010000
00000000
00000100
,
00000000
00010000
00000000
00000000
,
00001000
00100000
00000000
00000000
00000000
00001000
00000000
00010000
,
00000000
00100000
00010000
01000000
,
00100000
10000000
01000000
00100000
,
00010000
00001000
00000100
00000010
,
00000001
00000100
00000010
00001000
,
00010000
01000000
00100000
10000000
,
01000000
00200000
00000000
00301000
,
00011000
00100000
00001000
00010000
,
00000100
00020000
00030000
00000020
,
00000030
00000200
00000300
00000002
,
00000003
00002000
00003000
00000200
,
00000300
00020000
00030000
00002000
,
00003000
00110000
10000000
00100000
,
01000000
00001000
00100000
00000100
,
00010000
00000010
00001000
00000001
,
00001000
00000000
00000200
00000000
00000000
00000000
00000000
00010000
,
00010300
00000000
00000000
00000000
;

//---------------dance-double - M. Blancmanche----------------
#NOTES:
     dance-double:
     Standard Double:
     Medium:
     6:
     0.401,0.393,0.110,0.229,0.021,291.000,13.000,27.000,0.000,0.000,0.000,0.401,0.393,0.110,0.229,0.021,291.000,13.000,27.000,0.000,0.000,0.000:
00000000
00000000
00000000
00000000
,
00000000
00000000
00000000
00000000
,
00000000
00000000
00000000
00000000
,
00000000
00000000
00000000
00000000
,
00000000
00000000
00010000
00000000
10000000
00000000
01000000
00100000
,
00010000
00000000
00011000
00000000
00000100
00000000
00010000
00000100
,
00010000
00000000
00001000
00100000
00001000
00000000
00010000
00001000
,
00100000
00000000
00010000
00000000
01000000
00000000
00001000
00010000
,
00000100
00000000
00010000
00001000
02000000
00000000
00000000
00100000
,
03100000
00000000
10000000
01000000
00100000
00010000
00001000
00000100
,
00000010
00000000
00000001
00000000
00000100
00000000
00000010
00000000
00001000
00000000
00000100
00010000
00001000
00000000
00000000
00000000
,
00100000
00000000
00001000
00010000
00000100
00001000
00000001
00000100
,
00000010
00001000
00010000
01000000
00100000
10000000
00010000
00100000
,
00001000
00000000
00010000
00000100
00001000
00000000
00000000
00000000
00000100
00000000
00000000
00000000
00010000
00000000
00001000
00000000
,
01000000
00010000
10000000
01000000
00100000
00010000
00001000
00000100
,
00000010
00000000
00000001
00000000
00000100
00000000
00000010
00000000
00001000
00000000
00000100
00010000
00001000
00000000
00000000
00000000
,
00100000
00000000
00001000
00010000
00000100
00001000
00000001
00000100
,
00000010
00001000
00010000
01000000
00100000
10000000
00010000
00100000
,
00001000
00010000
00001000
00010000
00000100
00000000
00000000
00000000
00010000
00000000
00000000
00000000
00001000
00000000
00000000
00000000
,
00100000
00010000
00110000
00000000
00000100
00000000
00010000
00001000
,
00100000
00000000
00000100
00010000
00001000
00000000
00100000
00010000
,
01000000
00000000
00100000
10000000
01000000
00000000
00100000
00001000
,
00010000
00000000
00000100
00001000
00000010
00000000
00010000
00010000
,
00010000
00000000
00001000
00001000
00001000
00000000
00100000
00001000
,
00010000
00000000
00000100
00010000
00000010
00002000
00000000
00000001
,
00003001
00000000
00000010
00000001
00002000
00000000
00003100
00010000
,
00001000
00000000
00100000
00010000
10000000
10000000
00200000
00000000
,
01300000
00000000
20010000
00000000
30200000
00000000
01300000
00001000
,
00020000
00000000
00030100
00010000
00002000
00000000
00013000
00000010
,
00000200
00000000
00000301
00000000
00000010
00000000
00000100
00001000
,
00000100
00000000
00010000
00001000
01000000
00100000
10000000
01000000
,
00100000
00000000
00021000
00000000
00030100
00000000
00000010
00001000
,
00000010
00000000
00000100
00000001
00001000
00000000
00000100
00000010
,
00000001
00000010
00000100
00000000
00001000
00000000
00000010
00000100
,
00000001
00000000
00001000
00000010
00002000
00000000
00000000
00000010
,
00003010
00010100
00001000
00100000
,
00010000
01000000
00001000
00010000
,
00000100
00001000
00000001
00000100
,
00000010
00001000
00000100
00010000
,
00001000
00200000
00000000
02300000
,
10000000
13000000
00000000
00000000
00000000
10010000
00000000
00110000
,
00000000
00021000
00000000
00030020
,
00000100
00000130
00000000
00000000
00000000
00001010
00000000
00010100
,
00000000
00000000
10010000
00000000
10000000
00000000
00100000
01000000
,
00010000
00000000
00100000
01000000
10000000
00000000
00010000
01000000
,
00100000
10000000
00010000
00000000
00100000
00000000
00001000
00010000
,
00000100
00002000
00003100
00000200
,
00000310
00000000
00000001
00000010
00000001
00000010
00000100
00001000
,
00000001
00000000
00001000
00000000
00000010
00000000
00000100
00000001
,
00000100
00000001
00001000
00000000
00000011
00000000
00001000
00000100
,
00000010
00000002
00000000
00000203
,
00000000
00000320
00000000
00020030
,
00000000
00032000
00000000
02003000
,
00000000
03200000
00000000
20300000
,
01000000
00000000
30010000
00100000
00010000
00000000
01000000
00001000
,
01000000
00000000
00001000
00100000
00001000
00000000
00010000
00000100
,
00010000
00000000
00000010
00001000
00000010
00000000
00010000
00001000
,
00010000
00000000
00022000
00000000
00000000
00033000
00000000
00100000
,
00001000
00000000
00000000
00000000
;

//---------------dance-double - M. Blancmanche----------------
#NOTES:
     dance-double:
     Heavy Double:
     Hard:
     10:
     0.691,0.712,0.373,0.330,0.445,488.000,44.000,39.000,0.000,0.000,0.000,0.691,0.712,0.373,0.330,0.445,488.000,44.000,39.000,0.000,0.000,0.000: // measure 0
00000000
00000000
00000000
00000000
,  // measure 1
00000000
00000000
00000000
00000000
,  // measure 2
00000000
00000000
00000000
00000000
,  // measure 3
00000000
00000000
00000000
00000000
,  // measure 4
00000000
00000000
00100000
00001000
00010000
00000100
00001000
00000010
,  // measure 5
00000110
00000110
00001000
00000100
00010000
00000010
00000100
00001000
,  // measure 6
00010000
00000000
01000000
00000000
10000000
00000000
00100000
00000000
01000000
00000000
00001000
00000000
00010000
00001000
00000100
00001000
,  // measure 7
00010000
00000100
00001001
00000100
00001000
01000000
00010000
01000000
,  // measure 8
10000000
00000000
01000000
00100000
00010000
01000000
10000000
01000000
00020000
00000000
00100000
00000000
00130000
00000000
01100000
00000000
,  // measure 9
10010000
00000000
00000000
00000000
00110000
01000000
10000000
00100000
00010000
00100000
01000000
00001000
00010000
00000100
00000010
00001000
,  // measure 10
00000001
00000100
00001000
00000010
00000010
00010000
00001000
01000000
10000000
01000000
00010000
00100000
00001000
00000000
00000100
00000000
,  // measure 11
00001001
00000000
00000100
00000000
00000011
00000000
00000100
00000000
00001001
00000000
00000100
00000000
00001100
00000010
00000001
00000100
,  // measure 12
00001000
00000100
00000010
00010000
00001000
00100000
01000000
00010000
10000000
00100000
00010000
01000000
01000000
00001000
00010000
00000010
,  // measure 13
00000001
00000010
00001000
00000100
00010100
00000000
00001000
00000000
00110000
00000000
00001000
00000000
00101000
00000000
00001000
00000000
,  // measure 14
00110000
00000000
00001000
00000000
00010000
00001000
00000100
00001000
00010000
01000000
00010000
00001000
00000010
00001000
00010000
00100000
,  // measure 15
00010000
00001000
01000000
00100000
00010000
00001000
00000010
00000100
00010000
01000000
10000000
01000000
00010000
00000000
00001000
00000000
,  // measure 16
00010100
00000000
00010000
00000000
00101000
00000000
00001000
00000000
00010000
00000000
00001000
00000000
00001000
00010000
00100000
00010000
,  // measure 17
00001000
00000010
00001000
00010000
01000000
00010000
00001000
00000100
00001000
00010000
00000010
00000100
00001000
00010000
01000000
00100000
,  // measure 18
00001000
00000010
00000001
00000010
00001000
00000000
00010000
00000000
00000010
00000000
00000100
00000000
00000001
00000000
00000100
00000000
,  // measure 19
00000010
00000010
00010000
00000100
00010000
00001000
00100000
00001000
,  // measure 20
00010000
00000010
00010000
00001000
01000000
00001000
00010000
00000010
,  // measure 21
00000200
00000000
00000000
00000000
00000310
00000000
00010000
00000000
00001000
00000000
00100000
00000000
00010000
01000000
00100000
01000000
,  // measure 22
00010000
10000000
00100000
01000000
00010000
00100000
00001000
00010000
,  // measure 23
00000200
00000000
00000000
00000000
00001300
00000000
00000010
00000000
00010000
00000000
00001000
00000000
00100000
01000000
00010000
01000000
,  // measure 24
00100000
00000000
00001000
00000000
00100000
00000000
00000100
00000000
00010000
00000000
00000010
00000000
00000000
00000000
00000010
00001000
,  // measure 25
00000100
00000000
00001000
00000000
00000001
00000000
00001000
00000000
00000010
00000000
00001000
00000000
00000100
00010000
00000100
00010000
,  // measure 26
00001000
00100000
00100000
00001000
01000000
00100000
20000000
00000000
,  // measure 27
30010000
00000000
00000000
00000000
01100000
00000000
10000000
00100000
10000000
00000000
00100000
00000000
01000000
00000000
00010000
00000000
,  // measure 28
00100000
00000000
00001000
00010000
00000100
00000000
00001000
00000000
00000010
00000000
00000100
00000000
00000001
00001000
00000010
00002000
,  // measure 29
00000000
00000000
00003000
00000000
00000110
00000000
00000001
00000100
00000001
00000000
00000100
00000000
00000010
00000000
00001000
00000000
,  // measure 30
00000100
00000000
00010000
00000000
00001000
00100000
00010000
01000000
00100000
00000000
10000000
00000000
11000000
00000000
01100000
00000000
,  // measure 31
00110000
00000000
10000000
00000000
01100000
00000000
10000000
00100000
20000000
00000000
30200000
00000000
02300000
00000000
03020000
00000000
,  // measure 32
00230000
00000000
00301000
00010000
00000200
00000000
00002300
00000000
00003020
00000000
00000230
00000000
00000301
00001000
00000010
00002000
,  // measure 33
00000000
00000000
00003000
00000000
00000110
00000000
00000001
00000100
00000002
00000000
00000203
00000000
00000320
00000000
00002030
00000000
,  // measure 34
00003200
00000000
00020300
00000000
00031000
00100000
00010000
01000000
00200000
00000000
00000000
00000000
10300000
00000000
00110000
00000000
,  // measure 35
00110000
00000000
00000000
00000000
00011000
00000000
00010000
00000000
00000100
00000000
00000000
00010000
00001000
00000000
00100000
00000000
,  // measure 36
00010000
00000000
01000000
00001000
00100000
00001000
01000000
00001000
00010000
00000000
00000100
00000000
00010000
00000000
00001000
00000000
,  // measure 37
00100000
00000000
00010000
01000000
00001000
00000000
00100000
00000000
00001000
00000000
00000000
00010000
00000100
00000000
00001000
00000000
,  // measure 38
00000010
00000000
00001000
00000001
00000010
00000000
00000100
00000000
00001000
00000000
00000000
00010000
00000200
00000000
00020300
00000000
,  // measure 39
00032000
00000000
01003000
00000000
00101000
00000000
00001000
00000000
01000000
00000000
00000000
00010000
10000000
00000000
10000000
00000000
,  // measure 40
00120000
00000000
00130000
00010000
10000000
00100000
10000000
00100000
01000000
00000000
01010000
00000000
00100000
00000000
00011000
00000000
,  // measure 41
00000100
00000000
00000010
00000000
00001001
00000000
00000100
00000000
00001000
00000000
00000000
00001000
00000001
00000000
00000100
00000000
,  // measure 42
00001020
00000000
00010030
00001000
00100000
00000000
00010000
00000000
01000000
00000000
01010000
00000000
00010000
00000000
00220000
00000000
,  // measure 43
00000000
00330000
10010000
01000000
00100000
10000000
00010000
00100000
,  // measure 44
00001000
00010000
00000100
00001000
00000001
00000100
00001000
00010000
,  // measure 45
00100000
10000000
01000000
00100000
00010000
00100000
00001000
00010000
,  // measure 46
00000010
00001000
00000010
00001000
00000001
00000000
00000100
00000000
00000010
00010000
00001000
00010000
00001000
00000000
01000000
00000000
,  // measure 47
00100000
10000000
00100000
10000000
01000000
00000000
10000000
00000000
00010000
00100000
00001000
00100000
00001000
00000000
00010000
00000000
,  // measure 48
00000100
00000000
00010000
00000000
00001000
00000000
01000000
00010000
01000000
00010000
01000000
00010000
01000000
00000000
00001000
00000000
,  // measure 49
00010000
00000100
00001100
00000000
00001001
00000000
00011000
00001000
,  // measure 50
01010000
10200000
00000000
00320000
,  // measure 51
00000000
00032000
00000000
00003020
,  // measure 52
00000000
00000032
00000000
00000203
,  // measure 53
00000000
00020300
00000000
20030000
,  // measure 54
00000000
00000000
00000000
00000000
30100000
00000000
01000000
00001000
01000000
00000000
00000100
00000000
00010000
00000000
01000000
00000000
,  // measure 55
10000000
00000000
00100000
00000000
00010000
00000000
00100000
00000000
01000000
00000000
00001000
00000000
00010000
00000100
00001000
00000010
,  // measure 56
00002000
00000000
00000000
00000000
00003001
00000000
00001000
00000100
00010000
00000000
00001000
00000000
00011000
00000000
00100000
00000000
,  // measure 57
00011000
00000000
00000100
00000000
00010000
00001000
00100000
00001000
00020000
00000000
00000000
00000000
00030100
00000000
00011000
00000000
,  // measure 58
01000100
00000000
00000000
00000000
;
