#TITLE:Titanics Maneuver;
#SUBTITLE:;
#ARTIST:DJ SHARPNEL;
#TITLETRANSLIT:;
#SUBTITLETRANSLIT:;
#ARTISTTRANSLIT:;
#GENRE:;
#CREDIT:;
#BANNER:Titanics Maneuver - bn.png;
#BACKGROUND:Titanics Maneuver - bg.png;
#LYRICSPATH:;
#CDTITLE:gpopcdtitle.png;
#MUSIC:Titanics Maneuver.ogg;
#OFFSET:-0.001;
#SAMPLESTART:78.462;
#SAMPLELENGTH:21.273;
#SELECTABLE:YES;
#DISPLAYBPM:180.000;
#BPMS:0.000=180.500,360.500=270.750,361.000=180.500,361.500=270.750,362.000=180.500;
#STOPS:360.500=0.028
,360.750=0.028
,361.500=0.028
,361.750=0.028
;
#BGCHANGES:;
#KEYSOUNDS:;

//---------------dance-single - Gpop----------------
#NOTES:
     dance-single:
     Gpop:
     Challenge:
     13:
     1.000,1.000,0.662,0.628,1.000:
0000
0000
0000
0000
,
0000
0000
0000
0000
,
1001
0000
0000
0001
0000
0000
0100
0000
0010
0000
0000
1000
0000
0000
0001
0010
,
0100
0000
0000
1000
0000
0000
0100
0000
0010
0001
1000
0000
0040
0000
0000
0000
,
0130
0000
0101
0000
1000
0000
1100
0100
,
0010
0000
0000
0000
0011
0000
0001
1000
0010
1000
0001
0000
0010
0100
1000
0000
,
0000
1000
0100
0010
0001
0000
1100
0000
,
0100
0010
0001
1000
0000
1010
0000
0101
,
0000
0001
0010
0001
1000
0000
0010
0100
,
0001
0000
0100
0000
0010
1000
0001
0000
,
0011
0000
0001
1000
0010
0000
0100
0001
0100
0001
0010
0000
0100
1000
0100
1000
,
0001
0000
0100
0010
1000
0000
0001
0010
0200
0000
2300
0000
3001
0100
0001
0100
,
0010
0000
1000
0001
0010
0000
0100
1000
0100
1000
0001
0000
0100
0010
0100
0010
,
1000
0000
0100
1000
0001
0000
0100
0010
2000
0000
3002
0000
0013
0100
0010
0100
,
1000
0000
0001
0010
0100
0000
1000
0010
1000
0010
0100
0000
0001
1000
0001
1000
,
0100
0000
0010
0001
1000
0000
0010
0100
0001
0000
0010
0100
0010
0100
0010
0100
,
2000
0001
0001
0010
0000
0100
0100
0001
,
0000
0010
0010
0001
0000
0100
3000
0000
,
0001
0100
0110
0010
1000
0001
0011
0010
,
0001
1000
1010
0010
0100
0001
0012
0000
,
1003
0100
0110
0010
0001
0202
0303
0220
,
0330
0000
0202
0000
0303
0000
2020
0000
3030
0000
1001
0000
0001
0010
0001
0010
,
0100
1000
1010
0010
0100
0010
1010
1000
,
0100
0010
0011
0001
0010
0100
2100
0000
,
3010
0100
0101
0001
0010
0022
0033
2020
,
3030
0000
0220
0000
0330
0000
0202
0000
0303
0000
1001
0000
1000
0100
1000
0100
,
0010
0001
0101
0100
0010
1000
1100
0100
,
1000
0010
0110
0100
0001
0010
0210
0000
,
1300
0010
0110
0100
0001
0022
0033
2002
,
3003
0000
2020
0000
3030
0000
0220
0000
0330
0000
0101
0000
0001
1000
0001
1000
,
0100
0010
0011
0001
1000
0010
0110
0100
,
0010
1000
1001
0001
0010
0100
2100
0000
,
3010
0100
0110
0010
1000
2200
3300
0220
,
0330
0000
2200
0000
3300
0000
0022
0000
0033
0000
1001
0000
1000
0100
0010
0001
,
1000
0002
1003
0002
1003
0002
1003
0002
0403
0000
0000
0000
0310
0000
1000
0000
,
1001
0000
0001
0000
0010
M00M
0010
0000
1000
0000
0001
0000
1000
0000
0010
0000
,
1000
0100
1000
0001
1000
0020
0000
0030
,
0101
0000
0100
0000
0010
M00M
0010
0000
0001
0000
0010
0000
0001
0000
0100
0000
,
0001
0000
1000
0000
0001
0000
0010
0000
0001
0000
0100
0000
0010
1000
0010
0100
,
0001
0000
1000
0000
0100
M00M
0100
0000
0001
0000
0010
0000
0001
0000
0100
0000
,
0001
1000
0001
0010
0001
0200
0000
0300
,
1010
0000
0010
0000
0100
M00M
0100
0000
1000
0000
0001
0000
1000
0000
0100
0000
,
1000
0000
0001
0100
0001
0000
1000
0100
1000
0000
0020
0000
0130
0001
0100
0001
,
1000
0000
0100
0000
0010
M00M
0010
0000
0100
0000
0001
0000
0100
0000
0010
0000
,
0100
1000
0100
0010
0100
2000
0000
3000
,
0101
0000
0100
0000
0010
M00M
0010
0000
0100
0000
1000
0000
0100
0000
0010
0000
,
0100
0000
0001
0000
0100
0000
1000
0000
0100
0000
0001
0000
0100
0010
0100
0010
,
0001
0000
1000
0000
0100
M00M
0100
0000
0010
0000
1000
0000
0010
0000
0100
0000
,
0010
0001
0010
0100
0010
0002
0000
0003
,
1010
0000
0010
0000
0100
M00M
0100
0000
0010
0000
0001
0000
0010
0000
0100
0000
,
0010
0000
0001
1000
0001
0000
1000
0001
1000
0000
0020
0000
0130
0001
0100
0001
,
0010
0000
0000
0100
0000
0000
1000
0000
1001
0000
0000
0001
0000
0000
0100
0010
,
1000
0000
0000
0000
0000
0000
0000
0000
0000
0001
0000
0000
0000
0000
0000
0000
0000
0000
0100
0000
0000
0000
0000
0000
0001
0000
0000
0010
0000
0000
0100
0000
0000
0000
0000
0000
1000
0000
0000
0000
0000
0000
0000
0000
0001
0000
0000
0000
,
21M0
0000
0000
3001
0000
1000
02M1
0000
0000
0310
0000
0001
,
2M10
0000
0000
0000
0000
0000
3100
0000
0000
0000
1000
0000
0M12
0000
0000
0000
0000
0000
1003
0000
0000
1020
0000
0000
,
0000
0130
0001
1000
1100
0000
0011
0000
,
1001
1000
0010
0110
0000
0101
0000
1001
,
1000
0100
1000
0001
0200
0000
0310
1000
,
0001
0000
1000
0100
1000
0000
0001
0010
0004
0000
0000
0000
4003
0000
0000
0000
,
3010
0100
0001
0100
0010
1000
0010
0100
0001
1000
0001
0100
0001
1000
0010
1000
,
0001
0100
0010
1000
0001
0100
0001
1000
0010
1000
0001
0100
0010
0100
0010
1000
,
0001
0010
0100
0010
0001
1000
0100
0010
0001
1000
0100
1000
0001
0010
0001
1000
,
0001
1000
0001
0010
0100
0010
0100
1000
0100
0010
0001
0010
0001
1000
0100
0010
,
0001
1000
0010
1000
0001
0100
0010
0100
0010
1000
0001
0100
0010
1000
0010
0100
,
0001
0100
0010
1000
0001
0100
0010
0100
0010
1000
0001
1000
0001
0100
0010
1000
,
0001
0010
0100
0010
0001
0010
0100
1000
0100
1000
0001
0010
0100
0010
0001
1000
,
0100
0010
0002
0000
0000
0000
0000
0000
2000
0000
3003
0000
0001
1000
0001
1000
,
0001
0100
0010
1000
0001
0100
0001
1000
0010
1000
0001
0100
0010
1000
0001
1000
,
0001
0100
0001
1000
0010
1000
0001
0100
0010
1000
0010
0100
0001
1000
0010
1000
,
0001
0010
0100
0010
0001
1000
0100
1000
0001
0010
0100
1000
0100
0010
0001
1000
,
0100
1000
0001
0010
0001
0010
0100
1000
0001
0010
0001
1000
0001
0010
0100
1000
,
0001
0100
0001
1000
0001
0100
0001
1000
0010
0100
0001
0100
0010
1000
0001
0100
,
0001
1000
0010
1000
0001
0100
0010
0100
0010
1000
0001
1000
0001
0100
0010
1000
,
0M02
00M0
M000
00M0
0000
0M00
00M0
0M00
,
1003
0000
0100
1000
0100
0000
0010
0001
0010
0001
1000
0000
0010
0100
0010
0100
,
0001
1000
0100
0010
0100
1000
0001
0010
0100
0010
0001
1000
0100
0010
0001
1000
,
0100
1000
0001
0010
0100
1000
0100
1000
0001
0010
0100
0010
0001
1000
0100
0010
,
0001
1000
0010
1000
0001
0100
0010
1000
0010
0100
0001
0100
0001
1000
0001
0100
,
0001
1000
0010
0100
0001
0100
0010
1000
0001
0100
0001
1000
0001
0100
0010
1000
,
0001
0010
0100
1000
0001
0010
0100
1000
0001
0010
0001
1000
0100
0010
0001
1000
,
0100
0010
0001
0010
0001
1000
0100
1000
0001
0010
0100
0010
0001
1000
0100
0010
,
0001
1000
0010
1000
0001
0100
0010
1000
0010
1000
0010
0100
0001
1000
0010
1000
,
0001
0100
0020
0000
0000
0000
0000
0000
0200
0000
0330
0000
1000
0001
1000
0001
,
1000
0100
0010
0100
0010
0001
0010
0100
1000
0001
0010
0001
1000
0100
0010
0001
,
0010
0100
0010
0001
1000
0100
0010
0001
0010
0001
1000
0100
0010
0001
0010
0100
,
1000
0010
1000
0001
0100
0010
1000
0001
0100
0001
1000
0010
1000
0001
0100
0001
,
1000
0010
0100
0010
0100
0001
0100
0010
1000
0001
0100
0001
1000
0010
0100
0001
,
1000
0100
0010
0100
0010
0100
1000
0100
0010
0001
0010
0001
1000
0100
1000
0100
,
0010
0001
0010
0100
0010
0001
0010
0100
1000
0001
0010
0100
1000
0001
0010
0001
,
4000
0400
0000
0000
0000
0000
0000
0000
0000
0000
0000
0000
0000
0000
0000
0000
,
3300
0000
0001
0010
0001
1000
0010
0100
0001
1000
0001
1000
0010
0100
0010
0100
,
0001
0010
0110
0100
1000
0010
0110
0100
,
0001
0010
0011
0001
1000
0010
2010
0000
,
3100
0010
0011
0001
1000
2020
3030
0220
,
0330
0000
2020
0000
3030
0000
0022
0000
0033
0000
1001
0000
0001
0010
0001
0010
,
0100
1000
1010
0010
0100
0001
0011
0010
,
0100
1000
1001
0001
1000
0001
0201
0000
,
0310
1000
1001
0001
0010
0220
0330
2002
,
3003
0000
0202
0000
0303
0000
2020
0000
3030
0000
1001
0000
1000
0100
1000
0100
,
0010
0001
0101
0100
0001
1000
1100
0100
,
0010
0001
1001
1000
0010
1000
1002
0000
,
0013
0100
1100
1000
0001
0202
0303
2020
,
3030
0000
0202
0000
0303
0000
2002
0000
3003
0000
1100
0000
0100
1000
0001
0100
,
0010
1000
0010
1000
0001
0100
0001
1000
,
0100
0010
0001
0010
0100
0010
0001
1000
,
0001
0010
0100
0010
0001
1000
0010
0100
0001
0010
0100
0010
0001
1000
0100
0010
,
0004
0000
0000
0000
MM00
0000
0000
0003
,
2200
0000
0000
0000
,
0000
0000
0000
0000
,
3300
0000
0000
0000
;

//---------------dance-single - Gpop----------------
#NOTES:
     dance-single:
     Gpop:
     Hard:
     9:
     0.795,0.752,0.987,0.448,0.159:
0000
0000
0000
0000
,
0000
0000
0000
0000
,
1100
0000
0000
1000
0000
0000
0001
0000
0100
0000
0000
0010
0000
0000
1000
0000
,
0100
0000
0000
0010
0000
0000
0100
0000
1000
0000
0000
0000
0004
0000
0000
0000
,
0103
0110
0010
1001
,
1000
0000
1100
0000
0001
0000
0101
0100
,
0000
0010
1000
0001
0010
0000
0110
0000
,
0100
1000
0010
0100
0000
0101
0000
0011
,
0000
0010
0100
1000
0001
0000
1000
0010
,
1000
0011
0010
1100
,
1000
0000
0000
0001
0000
0000
0100
0000
0010
0000
0000
1000
0000
0000
0001
0000
,
0010
0000
0000
0100
0000
0000
0010
0000
0001
0000
0000
1000
0000
0000
0010
0000
,
0100
0000
0000
0001
0000
0000
1000
0000
0100
0000
0000
0000
0040
0000
0000
0000
,
0031
0101
1000
1100
,
1001
0000
0101
0000
0010
0000
1001
1000
,
0000
0100
0010
0100
0010
0000
0011
0000
,
2M02
00M0
0M00
00M0
0000
0M00
0M00
00M0
,
0000
00M0
00M0
0M00
0000
00M0
3003
0000
,
0001
1000
1010
0010
0100
0001
0011
0010
,
0001
1000
1010
0010
0100
0001
0021
0000
,
0130
1000
1010
0010
1000
1100
0000
0011
,
0000
1001
0000
1010
0000
2002
0000
3003
,
1000
0100
0110
0010
0100
1000
1010
0010
,
0100
0001
0011
0010
0001
1000
2010
0000
,
3100
0010
0011
0001
1000
1010
0000
0101
,
0000
1001
0000
1100
0000
0022
0000
0033
,
0001
1000
1100
0100
0010
0001
0101
0100
,
0001
1000
1010
0010
0100
0001
2001
0000
,
3100
0010
0011
0001
1000
1010
0000
0101
,
0000
1100
0000
0110
0000
0022
0000
0033
,
0001
1000
1100
0100
1000
0001
0101
0100
,
0010
1000
1010
0010
0100
0001
0021
0000
,
0130
1000
1001
0001
0100
0110
0000
1001
,
0000
1100
0000
0101
0000
0022
0000
0033
,
4000
0000
0000
0000
3004
0000
0103
0010
,
1001
0000
1000
0001
0010
0001
0100
1000
,
0100
0001
0100
1000
0100
0002
0000
0000
,
2003
0000
3100
0001
0100
1000
0100
0001
,
0100
0010
0100
0001
0100
2000
0000
0000
,
3020
0000
1030
0001
0100
0001
0010
1000
,
0010
0001
0010
1000
0010
0002
0000
0000
,
2003
0000
3010
0100
0010
0001
0010
1000
,
0010
0100
0010
0001
0010
2000
0000
0000
,
3100
0010
0100
1000
0001
0100
0001
0010
,
0001
1000
0001
0100
0001
0020
0000
0000
,
0130
1000
0010
0100
0001
1000
0001
1000
,
0001
0010
0001
0100
0001
2000
0000
0000
,
3100
0010
0001
0001
0100
0010
1000
0100
,
1000
0001
1000
0010
1000
0200
0000
0000
,
0310
0001
0100
0010
1000
0001
1000
0100
,
1000
0010
1000
0001
0100
0020
0000
0000
,
2030
0000
0000
3100
0010
0100
0010
0001
,
0100
0000
0000
0010
0000
0000
2000
0000
0000
0000
0000
0000
0000
0000
0000
0000
0000
0000
3001
0000
0000
0000
0100
0000
,
M01M
0000
0000
1000
0000
0100
M01M
0000
0000
0001
0000
0100
,
M01M
0000
0000
0000
0000
0000
1000
0000
0000
0000
0100
0000
M01M
0000
0000
0000
0000
0000
0001
0000
0000
2100
0000
0000
,
0000
3001
0100
0001
1100
0000
0011
0000
,
1001
1000
0010
0100
0000
0101
0000
2100
,
0000
3001
0100
0010
0100
0000
0001
0000
,
1100
0001
0001
1000
1000
0000
0040
0000
,
1030
0100
0010
0011
0000
1001
0000
1020
,
0000
0130
0001
1001
0000
2200
0000
3300
,
1001
0001
0100
0120
0000
1030
0000
2002
,
0000
3000
0013
0011
0000
2200
0000
3300
,
0110
0010
0001
1001
0000
1010
0000
0102
,
0000
0013
0100
1100
0000
0202
0000
0303
,
1001
1000
0100
0110
0000
1100
1000
0101
,
0000
2002
0000
0000
0010
0000
3003
0000
,
1010
0010
0100
0101
0000
0011
0000
1200
,
0000
0310
0001
1001
0000
2020
0000
3030
,
1100
0100
0010
0011
0000
1001
0000
1020
,
0000
0000
0130
0101
0000
2200
0000
3300
,
0011
0001
1000
1010
0000
0110
0000
0102
,
0000
0013
0100
1100
0000
1001
0000
1000
,
2020
0000
0000
3030
,
1001
0000
1000
0100
1000
0000
0001
0100
0001
1000
0100
0000
0040
0000
0000
0000
,
0031
0000
0000
1000
0000
0000
0010
0000
0100
0000
0000
0010
0000
0000
1000
0000
,
0100
0000
0000
1000
0000
0000
0001
0000
0100
0000
0000
0010
0000
0000
1000
0000
,
1100
0000
0000
0100
0000
0000
0010
0000
0001
0000
0000
1000
0000
0000
0010
0000
,
0100
0000
0000
0001
0000
0000
1000
0000
0100
0000
0000
0010
0000
0000
0100
0000
,
0110
0000
0000
0010
0000
0000
0001
0000
1000
0000
0000
0010
0000
0000
1000
0000
,
0001
0000
0000
0010
0000
0000
0100
0000
1000
0000
0000
0001
0000
0000
0100
0000
,
0110
0000
0000
0010
0000
0000
1000
0000
0001
0000
0000
0010
0000
0000
0100
0000
,
1000
2200
0000
0000
0001
0000
3300
0000
,
1001
0000
0000
0001
0000
0000
0100
0000
0010
0000
0000
1000
0000
0000
0100
0000
,
0010
0000
0000
0001
0000
0000
1000
0000
0010
0000
0000
1000
0000
0000
0100
0000
,
0010
0000
0000
0100
0000
0000
1000
0000
0001
0000
0000
0100
0000
0000
0010
0000
,
1000
0000
0000
0001
0000
0000
0010
0000
0100
0000
0000
0010
0000
0000
0001
0000
,
1000
0000
0000
0010
0000
0000
1000
0000
0001
0000
0000
0010
0000
0000
0100
0000
,
1000
0000
0000
0001
0000
0000
0100
0000
0001
0000
0000
0010
0000
0000
0100
0000
,
2000
0000
0000
0001
0000
0000
0001
0000
0001
0000
0000
0001
0000
0000
0001
0000
,
3001
0000
0000
0001
1000
0000
0000
1000
0010
0000
0100
0000
0001
0000
0010
0000
,
0100
1000
1001
0001
0100
0010
1010
1000
,
0001
0010
0110
0100
1000
0001
2001
0000
,
3010
0100
0101
0001
0010
0110
0000
1001
,
0000
0101
0000
1100
0000
2002
0000
3003
,
1000
0100
0110
0010
0001
1000
1010
0010
,
0100
0001
0011
0010
0100
1000
1002
0000
,
0103
0010
0110
0100
0001
0011
0000
1100
,
0000
1001
0000
0101
0000
2200
0000
3300
,
0100
0010
0011
0001
1000
0010
0110
0100
,
0001
1000
1100
0100
0010
0001
2001
0000
,
3010
0100
0101
0001
1000
1100
0000
0110
,
0000
0011
0000
1001
0000
2020
0000
3030
,
1000
0001
0010
0001
0100
0010
1000
0001
,
0010
0100
0010
0001
1000
0010
0100
0001
,
0040
0400
0000
0000
0000
0000
0000
0000
0000
0000
0000
0000
0000
0000
0000
0000
,
0330
0000
1001
0000
,
0220
0000
0000
0000
,
0000
0000
0000
0000
,
0330
0000
0000
0000
;

//---------------dance-single - Gpop----------------
#NOTES:
     dance-single:
     Gpop:
     Medium:
     6:
     0.565,0.564,0.635,0.297,0.000:
0000
0000
0000
0000
,
0000
0000
0000
0000
,
1001
0000
0001
0000
,
0100
0000
0010
1000
,
0001
0010
0100
1000
,
0001
0000
0100
0000
0001
0000
0010
0100
,
0000
1000
0001
0000
0100
0000
0010
0000
,
1000
0000
0100
1000
0000
0001
0000
0100
,
0000
0010
1000
0000
0001
0000
0010
0100
,
1000
0001
0100
0001
,
1100
0000
0000
0100
1000
0000
0000
1000
,
0001
0000
0000
0001
0100
0000
0000
0100
,
0010
0000
0000
0010
1000
0000
0000
0000
,
0001
0010
0001
1000
,
1010
0000
0101
0000
0000
0001
0000
0000
,
0010
0000
0100
0000
1000
0001
0000
0000
,
2002
0000
0000
0000
,
0000
0000
0000
3003
,
1001
0000
0101
0000
0001
0010
0100
0000
,
0010
0001
1000
0000
0010
0100
0002
0000
,
0013
0000
0110
0000
0100
1000
0000
1010
,
0000
0110
0000
1010
0000
1002
0000
0000
,
0013
0000
0110
0000
0100
1000
0001
0000
,
0100
0001
1000
0000
0100
0010
0002
0000
,
1003
0000
1010
0000
0010
0100
0000
0011
,
0000
0110
0000
1100
0000
2001
0000
0000
,
3010
0000
0110
0000
0100
0001
0010
0000
,
0100
1000
0001
0000
0100
0001
0020
0000
,
0130
0000
1100
0000
1000
0001
0000
1001
,
0000
1010
0000
0110
0000
0102
0000
0000
,
0013
0000
0110
0000
0100
1000
0001
0000
,
0100
0001
1000
0000
0010
0100
0002
0000
,
0013
0000
0110
0000
0100
1000
0000
0101
,
0000
1010
0000
0011
0000
2001
0000
0000
,
3004
0000
0203
0300
,
1001
0000
1000
0100
0000
0010
0000
0001
,
0000
0100
0000
0010
0000
1000
0000
0000
,
0012
0000
0013
0100
0000
1000
0000
0010
,
0000
1000
0000
0100
0000
0010
0000
0000
,
0012
0000
0103
0010
0000
1000
0000
0001
,
0000
0100
0000
0010
0000
0100
0000
0000
,
2010
0000
3100
0010
0000
0100
0000
1000
,
0000
0001
0000
0100
0000
0010
0000
0000
,
2010
0000
3001
0010
0000
0100
0000
1000
,
0000
0001
0000
0100
0000
0010
0000
0000
,
1002
0000
0013
0100
0000
0010
0000
0001
,
0000
0100
0000
0010
0000
1000
0000
0000
,
2001
0000
3100
0010
0000
0100
0000
1000
,
0000
0001
0000
0100
0000
0010
0000
0000
,
0210
0000
0301
1000
0000
0100
0000
0010
,
0000
0001
0000
0011
0000
1010
0000
0000
,
2001
0000
0000
3001
0100
0000
0010
0000
,
1000
0100
0020
0000
0000
0000
0031
0000
,
0101
1000
1100
0001
,
0011
0000
1000
0000
1010
0000
0010
0200
,
0000
0301
1000
0000
0100
0000
0010
0000
,
0001
1000
0010
1000
0000
0001
0000
0010
,
0000
0100
0000
1000
0001
0000
0100
0020
,
0000
0000
2000
3030
,
1001
0000
0001
0010
0000
0100
0000
1000
,
0000
0010
0100
0001
0000
1000
0000
0000
,
1100
0000
0100
0010
0000
0001
0000
2001
,
0000
0000
3010
0100
0000
0001
0000
0000
,
0011
0000
0010
0100
0000
1000
0000
0001
,
0000
0100
0010
0100
0000
0001
0000
0000
,
1100
0000
0100
1000
0000
0001
0100
0010
,
0000
2000
0000
0000
0002
0000
3003
0000
,
1100
0000
0100
0010
0000
0001
0000
0100
,
0000
0010
1000
0001
0000
0010
0000
0000
,
0110
0000
0100
1000
0000
0001
0000
0201
,
0000
0000
0310
1000
0000
0001
0000
0000
,
0011
0000
0010
0001
0000
1000
0000
0010
,
0000
0100
0001
0010
0000
0100
0000
1000
,
0001
0000
0001
0100
0000
0010
1000
0002
,
0000
0000
0000
0003
,
1100
0000
0100
0010
0000
0001
0000
1000
,
0000
0010
0100
0001
0000
1000
0000
0000
,
1010
0000
0010
1000
0000
0001
0000
0021
,
0000
0000
0130
1000
0000
0001
0000
0000
,
0101
0000
0100
0010
0000
1000
0000
0001
,
0000
0010
0100
1000
0000
0001
0000
0000
,
1001
0000
0001
0100
0000
0010
1000
0100
,
0000
0120
0000
0000
0002
0000
0033
0000
,
1001
0000
1000
0001
0000
0100
0000
0010
,
0000
1000
0100
1000
0000
0001
0000
0000
,
0101
0000
0100
0010
0000
1000
0000
1002
,
0000
0000
0013
0100
0000
1000
0000
0000
,
1001
0000
0001
0100
0000
0001
0000
0010
,
0000
0100
1000
0010
0000
0100
0000
0010
,
2002
0000
0000
3003
,
1100
0101
0011
1010
,
1001
0000
0101
0000
1000
0100
0010
0000
,
0001
0010
0100
0000
1000
0010
0200
0000
,
0301
0000
0011
0000
0010
0100
0000
1100
,
0000
0101
0000
0011
0000
1020
0000
0000
,
0130
0000
0101
0000
0001
1000
0100
0000
,
0010
0100
1000
0000
0010
0100
0002
0000
,
1003
0000
1100
0000
0100
1000
0000
1010
,
0000
0101
0000
0011
0000
1200
0000
0000
,
0310
0000
0011
0000
0001
1000
0010
0000
,
0100
0001
0010
0000
0100
1000
0020
0000
,
0130
0000
0101
0000
0001
1000
0000
1100
,
0000
0101
0000
0011
0000
2010
0000
0000
,
3001
0000
0011
0000
0010
0100
1000
0000
,
0001
0100
0010
0000
1000
0001
0020
0000
,
0031
0000
0001
0101
0000
1000
1100
0000
,
0000
0000
0010
0000
,
2002
0000
0000
0000
,
0000
0000
0000
0000
,
3003
0000
0000
0000
;

//---------------dance-single - Gpop----------------
#NOTES:
     dance-single:
     Gpop:
     Easy:
     4:
     0.414,0.451,0.414,0.110,0.000:
0000
0000
0000
0000
,
0000
0000
0000
0000
,
1000
0000
0001
0000
,
0100
0000
0010
0000
,
1000
0000
0100
0000
,
0010
0000
0001
0000
,
1000
0000
0001
0000
,
0100
0000
0010
0000
,
1000
0000
0100
0000
,
1000
0000
0010
0000
,
0100
0000
0001
0000
,
0100
0000
0010
0000
,
1000
0000
0001
0000
,
0010
0000
0100
0000
,
1000
0000
0001
0000
,
0100
0000
0001
0000
,
2002
0000
0000
0000
0000
0000
0000
3003
,
0000
0000
0000
0000
,
1000
1100
0001
0101
,
1000
1010
0001
0011
,
0100
0000
1100
0000
0000
0001
0000
1000
,
0000
0001
0000
0100
0000
0010
0000
0000
,
1000
1010
0100
0101
,
0010
0110
1000
1001
,
0100
0000
0101
0000
0000
0001
0000
1000
,
0000
0100
0000
1000
0000
0010
0000
0000
,
0100
0011
1000
0110
,
0001
1100
0010
1001
,
0010
0000
1100
0000
0000
0001
0000
1000
,
0000
0010
0000
0100
0000
0001
0000
0000
,
1000
1100
0001
0101
,
1000
1010
0001
0011
,
1000
0000
1001
0000
0000
0010
0000
0100
,
0000
0010
0000
0100
0000
0010
0000
0000
,
1001
0000
0000
0000
,
1100
0000
0000
0100
0000
0010
0000
0001
,
0000
1000
0000
0010
0000
0100
0000
0000
,
0001
0000
0000
0010
0000
0001
0000
0100
,
0000
0010
0000
1000
0000
0001
0000
0000
,
0010
0000
0000
0100
0000
0010
0000
0100
,
0000
1000
0000
0001
0000
0100
0000
0000
,
0010
0000
0000
1000
0000
0010
0000
0100
,
0000
0001
0000
0010
0000
0100
0000
0000
,
0010
0000
0000
0001
0000
1000
0000
0001
,
0000
0010
0000
0001
0000
0100
0000
0000
,
0010
0000
0000
1000
0000
0100
0000
0010
,
0000
0001
0000
0100
0000
0010
0000
0000
,
1000
0000
0000
0001
0000
0010
0000
0001
,
0000
0100
0000
0010
0000
1000
0000
0000
,
0001
0000
0000
0010
0000
0001
0000
1000
,
0000
0010
0000
1000
0000
1000
0000
0000
,
1002
0000
0010
0000
,
2000
0000
3003
0000
,
1010
0100
0011
0100
,
1010
0000
0100
0000
0011
0000
0000
1001
,
0000
1000
0010
0100
,
0001
0000
0000
0010
0000
0010
0000
0100
,
0000
1000
0000
0000
0001
0000
0000
0200
,
0000
0000
0020
0330
,
1001
1000
0100
1000
,
0001
0100
0010
1000
,
0100
1000
0001
0010
,
0100
1000
0010
0100
,
0101
0001
1000
0100
,
1000
0001
0100
0010
,
1000
0100
0010
0001
,
0000
2000
0000
0000
0002
0000
3003
0000
,
0101
0100
0010
1000
,
0100
0010
0100
1000
,
0001
0100
0010
0100
,
0001
0010
0100
0010
,
0011
0001
1000
0010
,
0100
0001
0010
0100
,
2200
0000
0000
3300
,
0001
1000
0001
1000
,
0110
0001
0100
0010
,
1000
0100
0010
0100
,
1000
0001
0100
0010
,
1000
0001
0010
0100
,
1100
1000
0001
0100
,
0001
0010
0001
0100
,
0010
1000
0001
0100
,
0000
0020
0000
0000
2000
0000
3030
0000
,
1001
0001
0010
0001
,
1000
0010
1000
0001
,
0010
0100
1000
0010
,
0100
0001
1000
0100
,
0110
0010
0001
0100
,
0010
0100
0001
0010
,
2002
0000
0000
3003
,
0100
0010
0100
0010
,
1001
1100
0010
0101
,
1000
0101
0010
1100
,
0010
0000
1001
0000
0000
1000
0000
0010
,
0000
1000
0000
0100
0000
0010
0000
0000
,
0001
0110
1000
0101
,
0010
1001
0100
0011
,
1000
0000
0110
0000
0000
0001
0000
0010
,
0000
0100
0000
1000
0000
0001
0000
0000
,
1000
1010
0001
0011
,
1000
1100
0001
0101
,
1000
0000
0110
0000
0000
0001
0000
0010
,
0000
0100
0000
1000
0000
0001
0000
0000
,
1000
1010
0010
0110
,
0100
0101
0001
1001
,
1000
0000
0000
0001
0000
0000
0100
0000
,
0000
0000
0010
0000
,
2002
0000
0000
0000
,
0000
0000
0000
0000
,
3003
0000
0000
0000
;

//---------------dance-single - Gpop----------------
#NOTES:
     dance-single:
     Gpop:
     Beginner:
     1:
     0.085,0.111,0.034,0.000,0.000:
0000
0000
0000
0000
,
0000
0000
0000
0000
,
1000
0000
0000
0000
,
0000
0000
0000
0000
,
0001
0000
0000
0000
,
0000
0000
0000
0000
,
0100
0000
0000
0000
,
0000
0000
0000
0000
,
0010
0000
0000
0000
,
0000
0000
0000
0000
,
1000
0000
0000
0000
,
0000
0000
0000
0000
,
0100
0000
0000
0000
,
0000
0000
0000
0000
,
0010
0000
0000
0000
,
0000
0000
0000
0000
,
1001
0000
0000
0000
,
0000
0000
0000
0000
,
1000
0000
0000
0000
,
0001
0000
0000
0000
,
0010
0000
0000
0000
,
0000
0000
0000
0000
,
0001
0000
0000
0000
,
0010
0000
0000
0000
,
0100
0000
0000
0000
,
0000
0000
0000
0000
,
1000
0000
0000
0000
,
0010
0000
0000
0000
,
0100
0000
0000
0000
,
0000
0000
0000
0000
,
0001
0000
0000
0000
,
0010
0000
0000
0000
,
0001
0000
0000
0000
,
0000
0000
0000
0000
,
0100
0000
0000
0000
,
1001
0000
0000
0000
,
0000
0000
0000
0000
,
1000
0000
0000
0000
,
0000
0000
0000
0000
,
0001
0000
0000
0000
,
0000
0000
0000
0000
,
0100
0000
0000
0000
,
0000
0000
0000
0000
,
0010
0000
0000
0000
,
0000
0000
0000
0000
,
1000
0000
0000
0000
,
0000
0000
0000
0000
,
0100
0000
0000
0000
,
0000
0000
0000
0000
,
0010
0000
0000
0000
,
0000
0000
0000
0000
,
0001
0000
0000
0000
,
0001
0000
0000
0000
,
1000
0000
1000
0000
,
1000
0000
1000
0000
,
0000
0000
0000
0000
,
0001
0000
0000
0000
,
0100
0000
0000
0000
,
0010
0000
0000
0000
,
1001
0000
0000
0000
,
1000
0000
0000
0000
,
0100
0000
0000
0000
,
0010
0000
0000
0000
,
0001
0000
0000
0000
,
0100
0000
0000
0000
,
0010
0000
0000
0000
,
1000
0000
0000
0000
,
0100
0000
0000
0000
,
0010
0000
0000
0000
,
0001
0000
0000
0000
,
1000
0000
0000
0000
,
0001
0000
0000
0000
,
0100
0000
0000
0000
,
0010
0000
0000
0000
,
0000
0000
0000
0000
,
1000
0000
0000
0000
,
0100
0000
0000
0000
,
1000
0000
0000
0000
,
0010
0000
0000
0000
,
0100
0000
0000
0000
,
0001
0000
0000
0000
,
0010
0000
0000
0000
,
0100
0000
0000
0000
,
1000
0000
0000
0000
,
0001
0000
0000
0000
,
0100
0000
0000
0000
,
0010
0000
0000
0000
,
1000
0000
0000
0000
,
0100
0000
0000
0000
,
0010
0000
0000
0000
,
0000
0000
0000
0000
,
1001
0000
0000
0000
,
0001
0000
0000
0000
,
0100
0000
0000
0000
,
0000
0000
0000
0000
,
0010
0000
0000
0000
,
1000
0000
0000
0000
,
0100
0000
0000
0000
,
0000
0000
0000
0000
,
0010
0000
0000
0000
,
0001
0000
0000
0000
,
1000
0000
0000
0000
,
0000
0000
0000
0000
,
0001
0000
0000
0000
,
1000
0000
0000
0000
,
0010
0000
0000
0000
,
0000
0000
0000
0000
,
1001
0000
0000
0000
;
