#TITLE:The Disappearance of Hatsune Miku;
#SUBTITLE:;
#ARTIST:cosMo@bousouP feat. Hatsune Miku;
#TITLETRANSLIT:;
#SUBTITLETRANSLIT:;
#ARTISTTRANSLIT:;
#CREDIT:;
#BANNER:Disappearance - bn.png;
#BACKGROUND:Disappearance - bg.png;
#LYRICSPATH:;
#CDTITLE:cdtitlegpop.png;
#MUSIC:The Disappearance of Hatsune Miku.ogg;
#OFFSET:1.960;
#SAMPLESTART:64.060;
#SAMPLELENGTH:12.000;
#SELECTABLE:YES;
#BPMS:0.000=240.001;
#STOPS:;
#BGCHANGES:7.750=The Disappearance of Hatsune Miku.avi=1.000=1=0=1,
99999=-nosongbg-=1.000=0=0=0 // don't automatically add -songbackground-
;

//---------------dance-single - ----------------
#NOTES:
     dance-single:
     :
     Challenge:
     13:
     1.000,1.000,0.436,0.493,1.000:
0000
0000
0000
0000
,
0000
0000
0000
0000
,
0000
0000
0000
0000
,
0000
0000
0000
0000
,
0000
0000
0000
0000
,
0000
0000
0000
0000
,
0000
0000
0000
0000
,
0000
0000
0000
0000
,
0000
0000
0000
0000
,
0000
0000
0000
0000
,
1000
0100
0010
0001
0100
0010
1000
0001
0100
0010
1000
0001
,
0100
0000
0001
0010
0100
1000
0100
0010
0100
1000
0001
0100
,
0001
1000
0010
0100
0001
1000
0100
0010
0000
0100
0010
0001
,
1000
0001
0000
1000
0001
0100
0010
1000
0001
0100
0001
1000
,
0100
0010
0001
0100
0010
0100
0001
1000
0100
0010
0001
0010
,
0100
1000
0010
0100
0001
0100
0001
1000
0001
1000
0100
0010
,
0002
0000
0000
2003
0000
3010
0100
0001
0100
0001
1000
0100
,
0010
0001
0010
0100
1000
0100
1000
0001
0100
0010
1000
0001
,
0100
0001
0010
0100
1000
0001
0100
0001
,
0100
0010
1000
0100
1000
0100
0010
0001
,
1000
0100
1000
0001
0100
0001
1000
0100
,
0010
0001
0010
0100
0010
0001
0100
0010
,
1000
0010
1000
0001
0100
0001
1000
0100
,
0010
0002
0000
1000
0000
0103
0010
0000
,
1000
0100
1000
0010
0100
0001
0010
0001
,
2000
0100
0000
0001
0000
3010
0100
0000
,
1001
1000
0100
0010
0001
0010
0100
1000
,
0001
0100
0001
1000
0100
0010
0001
1000
,
0001
0010
0100
1000
0001
0100
0010
1000
,
0001
0100
0010
0100
0001
1000
0100
1000
,
0001
0010
0100
1000
0001
0100
0001
1000
,
0001
0010
0100
1000
0100
1000
0001
0100
,
0101
0001
1000
0100
0110
0010
0001
1000
,
1001
0000
0001
0000
1001
0000
1000
0000
0001
0100
0001
0100
0001
0100
0001
0100
,
0002
1003
0200
0320
0031
0100
0001
1000
,
0100
0010
0001
1000
0020
0100
0230
0001
,
0302
1000
1003
0200
0010
0310
0002
0100
,
0103
0010
1000
0100
0010
0001
2000
3200
,
0320
0032
1003
0010
0100
0001
0020
0230
,
2300
0001
3001
0100
0020
1000
1030
0001
,
0200
0010
0310
2000
0010
3010
0200
0301
,
2000
3001
0010
0100
1000
0100
0010
0001
,
0200
0301
0020
0230
1300
0100
0010
0001
,
0100
0010
1000
0001
0200
0301
2000
3100
,
0020
0001
0031
2000
0100
3100
0020
0031
,
0200
0001
0301
1000
0002
0013
0002
0103
,
0020
1030
0001
0010
0100
1000
0002
0203
,
0320
1000
1030
0001
0020
0100
0130
1000
,
0002
0100
0103
0010
2000
0100
3100
0010
,
0002
1000
1003
0010
0200
0001
0301
0000
,
MMMM
0000
1001
0000
0110
0000
0001
0101
,
0000
1100
0000
1001
0000
0201
0000
0310
,
1000
0000
0011
0000
1100
0000
0001
1001
,
0000
1010
0000
1001
0000
0201
0000
0301
,
1000
0000
0011
0000
1100
0000
0002
0100
,
0000
1000
0003
0000
1100
0000
0011
0000
,
2000
0010
3010
0100
0002
1000
1003
0100
,
0020
0001
0031
1000
0200
1000
1300
0001
,
1001
0000
0100
0101
0000
0010
1010
0000
,
1000
1100
0000
0010
0011
0001
0011
0000
,
10M1
0000
100M
0100
M010
0001
M100
0010
,
1M00
0010
M100
0001
10M0
0001
0M10
0000
,
1MM1
1000
0001
0100
0000
0110
0000
1010
,
0000
1001
0000
0101
0000
0200
0320
2030
,
3002
0000
1000
0000
0003
0000
1000
0000
0004
4000
0000
0000
0000
0000
0000
0000
,
0000
3003
0001
1000
0010
0100
0001
0000
,
1001
0000
1000
0010
0000
0010
0100
0001
,
1000
0000
1100
0000
0011
0000
0001
1000
,
0002
0000
0203
0010
0000
0320
1000
0000
,
1030
1100
0011
1001
,
0110
0000
0010
1000
1100
0000
0110
0000
,
0011
0000
0001
0100
0000
0100
0001
0000
,
1001
0000
1100
0000
1001
0000
0001
2100
,
0000
3001
0101
1100
,
1001
0000
1000
0100
0000
0100
0001
0100
,
2100
0000
3001
0000
0102
0000
0013
0100
,
1000
0000
0200
0010
0000
0320
0001
0000
,
0032
0203
2300
3020
,
0031
0000
1000
0100
0110
0000
0011
0000
,
1001
0000
1000
0001
0000
0001
0100
0000
,
0110
0100
0010
0100
0001
1000
0001
1000
,
0100
0110
0011
1001
,
1000
0100
0010
0001
0100
0001
1000
0100
1000
0010
0100
0001
,
1000
0100
0000
0010
0001
1000
0001
0100
0001
1000
0100
0010
,
0001
0000
1000
0100
0000
1000
0001
0100
0010
0100
0001
1000
,
0001
0100
0010
1000
0100
0010
0001
0000
0010
0100
0010
0001
,
1000
0100
1000
0001
0100
0001
1000
0001
0100
0010
1000
0100
,
0010
0001
0010
0100
1000
0100
0010
0100
1000
0010
0100
0001
,
0100
0000
0010
1000
0001
0100
0001
1000
0100
0010
0100
1000
,
0001
0100
0001
1000
0100
0010
0001
0010
0100
1000
0100
1000
,
0001
0010
0100
1000
0100
0001
0100
1000
0010
0100
0000
0001
,
1000
0100
0010
0001
0100
1000
0100
0001
0010
0100
0000
1000
,
0100
0010
0001
0010
1000
0010
0001
0010
0100
1000
0010
0100
,
0001
0100
0010
1000
0000
0001
0100
0001
1000
0100
0000
1000
,
0001
0100
1000
0100
0010
1000
0100
0010
0001
1000
0100
0010
,
1000
0010
0100
1000
0010
0100
0001
0000
1000
0100
1000
0001
,
0100
0001
0100
0001
1000
0001
0100
0010
1000
0000
0001
1000
,
0100
0010
0001
0010
0100
0000
1000
0100
0010
0001
0000
1000
,
00M1
0100
0010
1000
0100
0001
01M0
1000
0010
0000
0100
0001
,
1M00
0010
0100
0001
0000
0010
010M
1000
0000
0001
0100
0001
,
10M0
0000
0001
0100
0010
1000
00M1
0100
0001
1000
0100
0010
,
010M
1000
0001
0100
0001
1000
010M
0010
0001
1000
0100
0001
,
01M0
1000
0010
0100
0001
0010
M100
0001
0100
1000
0010
0100
,
00M1
1000
0100
1000
0010
0100
M001
0100
0001
1000
0100
0010
,
M001
0100
0001
1000
0100
0010
0M01
0000
1000
0100
0001
0100
,
100M
0010
0100
0001
0010
0100
M001
0100
0010
0001
1000
0100
,
100M
0010
0001
0M10
1000
0100
001M
0100
1000
00M1
0100
0001
,
10M0
0M00
1000
010M
1000
0001
M100
00M0
0100
001M
1000
0001
,
M100
0010
1000
01M0
0001
0100
100M
0010
0100
M001
0100
1000
,
01M0
0001
1000
010M
0010
0001
M010
0100
1000
0M01
0010
1000
,
001M
0100
1000
00M1
0100
0010
M100
0001
1000
01M0
1000
0010
,
M100
0001
0010
010M
1000
0001
01M0
0001
1000
010M
00M0
0100
,
10M0
0001
0100
M001
00M0
0001
M100
0010
1000
00M1
0100
0010
,
100M
0100
0001
01M0
1000
0010
M100
0001
0010
010M
1000
0001
,
10M0
0100
0010
0001
0100
0010
1000
0010
,
0100
0001
0010
0100
1000
0100
0010
0001
,
0100
0010
1000
0010
0100
0001
1000
0001
,
0100
0010
1000
0100
0010
0001
0010
0100
,
1000
0100
1000
0010
0100
0001
1000
0001
,
0100
0001
1000
0100
0010
0001
0010
0100
,
1000
0010
0100
0001
1000
0100
0010
0001
,
1000
0100
1000
0100
0010
0001
1000
1000
,
00M1
1000
0M01
1000
00M1
1000
0M01
1000
00M1
1000
0M01
1000
00M1
1000
0M01
1000
,
00M1
1000
0M01
1000
00M1
1000
0M01
1000
00M1
1000
0M01
1000
00M1
1000
0M01
1000
,
00M1
1000
0M01
1000
00M1
1000
0M01
1000
00M1
1000
0M01
1000
00M1
1000
0M01
1000
,
00M1
1000
0M01
1000
00M1
1000
0M01
1000
00M1
1000
0M01
1000
00M1
1000
0M01
1000
,
00M1
1000
0M01
1000
00M1
1000
0M01
1000
00M1
1000
0M01
1000
00M1
1000
0M01
1000
,
00M1
1000
0M01
1000
00M1
1000
0M01
1000
00M1
1000
0M01
1000
00M1
1000
0M01
1000
,
00M1
1000
0M01
1000
00M1
1000
0M01
1000
00M1
1000
0M01
1000
00M1
1000
0M01
1000
,
00M1
1000
0M01
1000
00M1
1000
0M01
1000
00M1
1000
0M01
1000
00M1
0000
0MM0
0000
,
2002
0000
0000
0000
,
0000
0000
0000
0000
,
0000
0000
0000
0000
,
0000
0000
0000
0000
,
3003
0000
MMMM
0000
,
0000
0000
0000
0M00
,
0000
00M0
0000
0000
0000
0000
0000
M000
,
0000
0000
0000
0000
0000
0000
0000
0000
0000
0000
0000
0000
000M
0000
0000
0000
0000
0000
0M00
0000
0000
000M
0000
0000
0000
0000
0000
0000
M000
0000
0000
0000
0000
0000
000M
0000
0000
0000
0000
0000
0M00
0000
0000
0000
0000
M000
0000
0000
,
0000
0000
00M0
0000
;

//---------------dance-single - ----------------
#NOTES:
     dance-single:
     :
     Hard:
     10:
     0.913,1.000,0.386,0.307,0.536: // measure 1
0000
0000
0000
0000
,  // measure 2
0000
0000
0000
0000
,  // measure 3
0000
0000
0000
0000
,  // measure 4
0000
0000
0000
0000
,  // measure 5
0000
0000
0000
0000
,  // measure 6
0000
0000
0000
0000
,  // measure 7
0000
0000
0000
0000
,  // measure 8
0000
0000
0000
0000
,  // measure 9
0000
0000
0000
0000
,  // measure 10
0000
0000
0000
0000
,  // measure 11
1000
0100
1000
0010
0100
0001
0100
0001
,  // measure 12
1000
0100
0010
0001
0010
0100
1000
0010
,  // measure 13
0100
0001
0100
0001
0100
0001
1000
0100
,  // measure 14
0010
0001
0010
0100
1000
0100
1000
0001
,  // measure 15
0100
0010
1000
0010
0100
0001
0100
0001
,  // measure 16
1000
0100
0010
0001
0010
0100
0010
0001
,  // measure 17
0200
0000
0320
0000
1030
0100
1000
0100
,  // measure 18
0010
0001
0010
0100
1000
0010
0100
0001
,  // measure 19
1000
0100
0010
0100
1000
0000
0001
0100
,  // measure 20
0020
0000
2030
0000
3200
0000
0310
0001
,  // measure 21
1000
0000
0001
0100
0000
0100
0010
0000
,  // measure 22
1010
0110
0101
1001
,  // measure 23
1100
0000
0100
0010
0000
0010
0001
0000
,  // measure 24
1000
0001
0000
0100
0000
0010
1000
0000
,  // measure 25
0102
0103
2100
3100
,  // measure 26
0010
0001
0000
0100
0000
0010
1000
0001
,  // measure 27
0101
0100
0000
0020
0000
0000
1030
0000
,  // measure 28
0002
0003
1000
0100
,  // measure 29
0020
0001
0230
1000
,  // measure 30
0320
0100
0032
0100
,  // measure 31
2003
3020
0230
0302
,  // measure 32
1003
0010
0200
0000
0320
0000
1030
0000
,  // measure 33
0102
1003
2100
3001
,  // measure 34
1001
0001
0000
0100
0000
0010
1010
0000
,  // measure 35
1010
0000
1000
0002
0100
0000
0103
0000
,  // measure 36
0010
1000
0200
0010
,  // measure 37
0310
0000
0001
0100
0000
0100
0010
0000
,  // measure 38
1000
0000
0001
0000
0100
0000
0010
1000
,  // measure 39
0001
0001
0100
0000
0010
0000
1000
1000
,  // measure 40
0200
0010
0320
0001
,  // measure 41
0031
0000
1000
0100
0000
0100
0010
0000
,  // measure 42
0011
0001
0100
0010
,  // measure 43
1001
0000
0001
0200
0010
0000
0310
0000
,  // measure 44
1000
0001
2100
0010
,  // measure 45
3001
0000
0100
0010
0000
0010
1000
0000
,  // measure 46
1001
0001
0200
0010
,  // measure 47
0301
0000
1000
0000
0100
0000
0010
0001
,  // measure 48
1000
0000
0100
0010
0001
0000
1000
0000
,  // measure 49
1001
0000
0001
1000
0010
0000
1000
0100
,  // measure 50
1000
0000
0001
0100
0010
0000
1000
0000
,  // measure 51
0000
0000
1001
0000
0001
0000
0100
0010
,  // measure 52
0000
1000
0000
0001
0000
0200
0000
0000
,  // measure 53
0301
0000
1100
0000
1001
0000
0001
0100
,  // measure 54
0000
0010
0000
1000
0000
0002
0000
0000
,  // measure 55
0003
0000
1100
0000
0011
0000
1000
0001
,  // measure 56
0000
0001
0000
0000
0100
0000
0010
0000
,  // measure 57
2010
3010
0120
0130
,  // measure 58
0201
0301
1002
1003
,  // measure 59
1001
0000
0001
0010
0000
0100
1000
0000
,  // measure 60
0001
0100
0000
0010
1000
0000
0011
0000
,  // measure 61
1100
0000
1000
0001
0100
0001
0100
0001
,  // measure 62
1000
0100
0010
0001
1000
0010
0100
0000
,  // measure 63
1001
0000
0001
0101
0000
1001
0000
1100
,  // measure 64
0000
0110
0000
0011
0000
1001
1000
0100
,  // measure 65
0020
0000
0000
0002
0000
0000
0033
0000
,  // measure 66
1001
1001
0001
1000
0010
0100
0001
0000
,  // measure 67
1001
0000
1000
0010
0000
0100
0001
1000
,  // measure 68
0100
0000
0110
0000
0011
0000
0001
1000
,  // measure 69
0100
0000
1000
0100
0000
0100
1000
0000
,  // measure 70
1002
0100
0010
0100
,  // measure 71
1003
0000
0001
0100
0020
0000
1000
0000
,  // measure 72
0130
0000
0001
0010
0000
0010
0100
0000
,  // measure 73
1100
0000
1001
0000
0101
0000
0100
0010
,  // measure 74
0000
0010
2000
0000
0100
0000
3100
0000
,  // measure 75
1001
0000
0001
1000
0000
1000
0100
0010
,  // measure 76
0002
0000
0100
0000
0010
0000
1003
0100
,  // measure 77
0010
0000
0001
0100
0000
1000
0100
0000
,  // measure 78
1002
0100
0010
0100
,  // measure 79
1003
0000
0010
0100
0001
0000
1000
0000
,  // measure 80
0100
0000
0010
0001
0000
0001
1000
0000
,  // measure 81
1001
0000
0101
0000
0110
0000
1000
0001
,  // measure 82
0000
1001
0100
1001
,  // measure 83
1000
0000
0100
0000
1000
0000
0100
0000
0000
0010
0000
0000
0001
0000
0000
0100
0000
0000
0010
0000
0000
1000
0000
0000
,  // measure 84
0001
0000
0100
0000
0001
0000
1000
0000
0000
0010
0000
0000
0100
0000
0000
0001
0000
0000
0010
0000
0000
0100
0000
0000
,  // measure 85
1000
0000
0000
0000
0001
0000
0100
0000
0000
0010
0000
0000
1000
0000
0000
0001
0000
0000
0100
0000
0000
0001
0000
0000
,  // measure 86
1000
0000
0100
0000
0010
0000
0100
0000
0000
1000
0000
0000
0100
0000
0000
1000
0000
0000
0010
0000
0000
0100
0000
0000
,  // measure 87
0001
0000
0010
0000
0100
0000
1000
0000
0000
0010
0000
0000
0100
0000
0000
0001
0000
0000
0010
0000
0000
0100
0000
0000
,  // measure 88
1000
0000
0001
0000
0100
0000
0001
0000
0000
0100
0000
0000
0010
0000
0000
1000
0000
0000
0001
0000
0000
0100
0000
0000
,  // measure 89
0001
0000
0000
0000
1000
0000
0100
0000
0000
1000
0000
0000
0010
0000
0000
0100
0000
0000
0001
0000
0000
1000
0000
0000
,  // measure 90
0001
0000
0010
0000
0100
0000
0010
0000
0000
0001
0000
0000
1000
0000
0000
0100
0000
0000
1000
0000
0000
0001
0000
0000
,  // measure 91
0100
0000
0010
0000
1000
0000
0001
0000
0000
0100
0000
0000
0010
0000
1000
0000
0100
0000
1000
0000
0000
0001
0000
0000
,  // measure 92
0010
0000
0100
0000
1000
0000
0001
0000
0000
0100
0000
0000
0010
0000
1000
0000
0001
0000
0100
0000
0000
0001
0000
0000
,  // measure 93
0010
0000
0100
0000
1000
0000
0001
0000
0000
0100
0000
0000
0010
0000
1000
0000
0100
0000
1000
0000
0000
0010
0000
0000
,  // measure 94
0100
0000
0001
0000
0100
0000
0001
0000
0000
1000
0000
0000
0100
0000
0010
0000
0100
0000
0010
0000
0000
0001
0000
0000
,  // measure 95
1000
0000
0100
0000
1000
0000
0001
0000
0000
0100
0000
0000
0010
0000
1000
0000
0001
0000
0100
0000
0000
0010
0000
0000
,  // measure 96
1000
0000
0100
0000
1000
0000
0100
0000
0000
0010
0000
0000
0001
0000
0100
0000
0001
0000
0100
0000
0000
0010
0000
0000
,  // measure 97
1000
0000
0001
0000
1000
0000
0001
0000
0000
0100
0000
0000
0001
0000
1000
0000
0001
0000
1000
0000
0000
0001
0000
0000
,  // measure 98
0100
0000
0010
0000
0100
0000
0010
0000
0000
1000
0000
0000
0010
0000
0100
0000
0010
0000
0100
0000
0000
0001
0000
0000
,  // measure 99
1000
0000
0100
0000
0010
0000
0100
0000
1000
0000
0001
0000
0100
0000
0000
0010
0000
0000
1000
0000
0000
0010
0000
0000
,  // measure 100
0100
0000
0001
0000
0100
0000
0001
0000
1000
0000
0100
0000
0010
0000
0000
0001
0000
0000
1000
0000
0000
0100
0000
0000
,  // measure 101
1000
0000
0010
0000
0100
0000
0001
0000
0100
0000
0001
0000
1000
0000
0000
0010
0000
0000
0100
0000
0000
0001
0000
0000
,  // measure 102
1000
0000
0100
0000
0010
0000
0001
0000
0010
0000
0100
0000
1000
0000
0000
0010
0000
0000
0100
0000
0000
0001
0000
0000
,  // measure 103
1000
0000
0010
0000
0100
0000
0001
0000
0100
0000
0010
0000
1000
0000
0000
0001
0000
0000
0010
0000
0000
0100
0000
0000
,  // measure 104
1000
0000
0001
0000
0100
0000
0001
0000
1000
0000
0100
0000
0010
0000
0000
0001
0000
0000
0100
0000
0000
0001
0000
0000
,  // measure 105
1000
0000
0100
0000
0010
0000
0001
0000
0100
0000
0010
0000
1000
0000
0000
0010
0000
0000
0100
0000
0000
0001
0000
0000
,  // measure 106
1000
0000
0100
0000
1000
0000
0010
0000
0100
0000
0001
0000
0100
0000
0000
0001
0000
0000
1000
0000
0000
0001
0000
0000
,  // measure 107
1000
0000
0100
0000
1000
0000
0010
0000
0100
0000
0001
0000
1000
0000
0001
0000
0100
0000
0010
0000
0000
1000
0000
0000
,  // measure 108
0001
0000
0010
0000
0100
0000
0010
0000
0001
0000
0100
0000
0010
0000
1000
0000
0001
0000
0100
0000
0000
0001
0000
0000
,  // measure 109
1000
0000
0100
0000
0010
0000
0100
0000
1000
0000
0010
0000
0100
0000
0001
0000
0100
0000
0001
0000
0000
1000
0000
0000
,  // measure 110
0100
0000
0010
0000
0001
0000
0010
0000
0100
0000
1000
0000
0010
0000
0100
0000
0001
0000
1000
0000
0000
0100
0000
0000
,  // measure 111
1000
0100
1000
0100
0010
0001
0010
0100
0010
0001
0100
0010
,  // measure 112
0100
0001
0100
0001
1000
0010
0100
0001
0100
0001
1000
0010
,  // measure 113
0100
0001
1000
0100
1000
0001
0100
0001
0100
0010
1000
0010
,  // measure 114
0100
0001
0010
0100
1000
0001
0100
0010
1000
0001
0100
0001
,  // measure 115
1000
0010
0100
0001
,  // measure 116
0010
0100
1000
0100
,  // measure 117
0010
0001
0100
0010
,  // measure 118
1000
0001
0100
0001
,  // measure 119
1000
0100
0010
0001
,  // measure 120
0100
0010
1000
0001
,  // measure 121
0100
0001
1000
0100
,  // measure 122
0010
0001
0100
0010
,  // measure 123
1000
0001
1000
0000
0001
0000
1000
0000
0001
0000
1000
0000
0001
0000
1000
0000
,  // measure 124
0001
1000
0001
0000
1000
0000
0001
0000
1000
0000
0001
0000
1000
0000
0001
0000
,  // measure 125
1000
0001
1000
0000
0001
0000
1000
0000
0001
0000
1000
0000
0001
0000
1000
0000
,  // measure 126
0001
1000
0001
0000
1000
0000
0001
0000
1000
0000
0001
0000
1000
0000
0001
0000
,  // measure 127
1000
0001
1000
0001
1000
0000
0001
0000
1000
0000
0001
0000
1000
0000
0001
0000
,  // measure 128
1000
0001
1000
0001
1000
0000
0001
0000
1000
0000
0001
0000
1000
0000
0001
0000
,  // measure 129
1000
0001
1000
0001
1000
0000
0001
0000
1000
0001
1000
0001
1000
0000
0001
0000
,  // measure 130
1000
0001
1000
0000
0001
1000
0001
0000
1000
0001
1000
0000
0001
1000
0001
0000
,  // measure 131
2002
0000
0000
0000
,  // measure 132
0000
0000
0000
0000
,  // measure 133
0000
0000
0000
0000
,  // measure 134
0000
0000
0000
0000
,  // measure 135
3003
0000
0000
0000
;

//---------------dance-single - ----------------
#NOTES:
     dance-single:
     :
     Medium:
     7:
     0.598,0.861,0.243,0.150,0.000:
0000
0000
0000
0000
,
0000
0000
0000
0000
,
0000
0000
0000
0000
,
0000
0000
0000
0000
,
0000
0000
0000
0000
,
0000
0000
0000
0000
,
0000
0000
0000
0000
,
0000
0000
0000
0000
,
0000
0000
0000
0000
,
0000
0000
0000
0000
,
1000
0100
0010
0000
0001
0000
0100
0000
,
0010
1000
0001
0000
0010
0000
0100
0000
,
1000
0100
1000
0000
0010
0000
0100
0000
,
0001
1000
0001
0000
0100
0000
0010
0000
,
1000
0100
0010
0000
0001
0000
0010
0000
,
0100
0010
0001
0000
0100
0000
0010
0000
,
1000
0001
0100
0000
0010
0000
1000
0000
,
0001
0010
0100
0000
0010
0000
0001
0000
,
1000
0000
0100
0000
0010
0000
0001
1000
,
0001
0000
0100
0000
0010
0000
1000
0100
,
0010
0000
0000
0001
0000
1000
0100
0000
,
1000
0001
0100
0010
,
1000
0000
0000
1000
0000
0000
0001
0100
,
0001
0000
0000
1000
0000
0001
0100
0000
,
1010
0000
0101
0000
,
1000
0001
0000
0001
0000
0001
1000
0000
,
1001
0001
0100
0010
,
0010
1000
0100
0100
,
0110
0000
0011
0000
,
1001
0000
1100
0000
,
1001
0001
0100
0020
,
0000
1030
0100
0010
,
0011
0000
1100
0000
,
0110
1001
1000
0010
,
0110
0000
0100
0001
0000
0000
1000
0000
,
0001
0010
0100
0100
,
2000
0000
0000
3020
0000
0000
0100
0000
,
0130
0001
0010
0100
,
0010
0010
0000
0000
0001
0000
0100
0010
,
2000
0000
3002
0000
,
0103
0000
0000
0010
0000
0000
1000
0000
,
1001
0001
0100
0010
,
1100
0000
1000
0100
0000
0000
0010
0000
,
0001
0100
0010
0010
,
1000
0000
0000
1000
0000
0000
1000
0000
,
0002
0003
0100
0010
,
2000
0000
0000
0000
3000
0000
0001
1000
,
0002
0000
0203
0000
,
0310
0000
1010
0000
,
0101
0000
1001
0000
,
0000
0000
1100
0000
1000
0000
0001
0100
,
0000
0100
0000
0010
0000
0010
0000
0000
,
0000
0000
1001
0000
0001
0000
0100
0001
,
0000
0001
0000
1000
0000
1000
0000
0000
,
0000
0000
0011
0000
0010
0000
0100
1000
,
0000
1000
0000
0000
0001
0000
0100
0000
,
0020
1000
2030
0001
,
3002
0100
0203
0010
,
0320
0000
0000
2030
0000
0000
3002
0000
,
0000
0203
0000
0000
0310
0000
1000
0000
,
0110
0000
0000
0110
0000
0000
1001
0000
,
0000
1100
0110
0011
,
1001
0000
1000
0010
0000
0100
0000
0001
,
0000
1000
0000
0001
0000
0010
0100
1000
,
2002
0000
0000
0000
,
0000
0000
3003
0000
,
1001
0000
0000
1000
0000
0000
0010
0100
,
0001
0000
0001
0000
1000
0000
0100
1000
,
0100
0000
0000
0100
0000
0100
0010
0000
,
0001
0100
0010
1000
,
0001
0000
0100
0010
,
1000
0000
0000
1000
0000
0000
0100
0000
,
0010
0000
0001
0000
0100
0000
0010
1000
,
0000
0001
0100
0010
,
1001
0000
0000
1000
0000
0000
0001
0010
,
0001
0000
0010
0000
0100
0000
1000
0100
,
0010
0000
0000
0010
0000
0000
0001
0000
,
0100
0100
0010
0010
,
1010
0000
0100
0001
,
1000
0000
0000
1000
0000
0000
0100
0000
,
0010
0000
0001
0000
0100
0000
0010
1000
,
0000
0001
0100
0010
,
1000
0100
0010
0000
0001
0000
0100
0000
,
0010
1000
0001
0000
0100
0000
0001
0000
,
1000
0100
0010
0000
0001
0000
0010
0000
,
0100
1000
0001
0000
0100
0000
0010
0000
,
1000
0001
0100
0000
0001
0000
1000
0000
,
0100
0010
0001
0000
0100
0000
0010
0000
,
1000
0001
1000
0000
0010
0000
0100
0000
,
0001
0010
0100
0000
1000
0000
0100
0000
,
0010
0001
0010
0000
0100
0000
1000
0000
,
0010
0100
0001
0000
1000
0000
0100
0000
,
1000
0010
0100
0000
0001
0000
0010
0000
,
0100
1000
0001
0000
0100
0000
0010
0000
,
1000
0100
0001
0000
0100
0000
1000
0000
,
0001
0010
1000
0000
0010
0000
0001
0000
,
1000
0010
0001
0000
0010
0000
1000
0000
,
0001
0100
1000
0000
0100
0000
0001
0000
,
1000
0100
1000
0000
0001
0100
0001
0000
,
1000
0010
1000
0000
0001
0010
0001
0000
,
1000
0100
0010
0000
0001
0010
0100
0000
,
1000
0010
0100
0000
0001
0100
0010
0000
,
1000
0100
0010
0000
0001
0010
0100
0000
,
1000
0100
1000
0000
0001
0100
0001
0000
,
0100
0010
1000
0000
0001
0010
0100
0000
,
1000
0100
1000
0000
0001
0100
0001
0000
,
1000
0100
0010
0001
1000
0001
0100
0000
,
0001
0010
0100
0010
0001
0100
0010
0000
,
1000
0100
0010
0100
0010
0001
1000
0000
,
0001
0100
0010
1000
0001
0100
0001
0000
,
1000
0100
0010
0100
1000
0010
0100
0001
,
0100
0001
1000
0100
0010
0001
0010
0100
,
1000
0100
0010
0001
0100
0010
1000
0010
,
0100
0001
1000
0100
1000
0001
0100
0010
,
1001
0000
1000
0000
,
0010
0000
0100
0000
,
0001
0000
0010
0000
,
0100
0000
1000
0000
,
0100
0000
0010
0000
,
0001
0000
0100
0000
,
0010
0000
1000
0000
,
0001
0000
0100
0000
,
0001
1000
0001
1000
0001
1000
0001
1000
,
0001
1000
0001
1000
0001
1000
0001
1000
,
0001
1000
0001
1000
0001
1000
0001
1000
,
0001
1000
0001
1000
0001
1000
0001
1000
,
0001
1000
0001
1000
0001
1000
0001
1000
,
0001
1000
0001
1000
0001
1000
0001
1000
,
0001
1000
0001
1000
0001
1000
0001
1000
,
0001
1000
0001
1000
0001
1000
0001
0000
,
2002
0000
0000
0000
,
0000
0000
0000
0000
,
0000
0000
0000
0000
,
0000
0000
0000
0000
,
3003
0000
0000
0000
;

//---------------dance-single - ----------------
#NOTES:
     dance-single:
     :
     Easy:
     5:
     0.445,0.861,0.457,0.043,0.000:
0000
0000
0000
0000
,
0000
0000
0000
0000
,
0000
0000
0000
0000
,
0000
0000
0000
0000
,
0000
0000
0000
0000
,
0000
0000
0000
0000
,
0000
0000
0000
0000
,
0000
0000
0000
0000
,
0000
0000
0000
0000
,
0000
0000
0000
0000
,
1001
1000
0010
0100
,
0001
0100
0001
1000
,
0100
0010
0001
0010
,
0100
1000
0010
0100
,
0001
1000
0001
0100
,
0010
1000
0010
0100
,
0001
0010
0100
1000
,
0001
0100
0010
1000
,
0001
0000
0100
0000
,
0010
1000
0001
0000
,
0010
0000
0010
0000
,
0100
1000
0001
0100
,
0010
0000
1000
0000
,
0001
0010
0100
0000
,
1000
0000
0001
0000
,
0100
0010
1000
0000
,
0001
0000
0010
0100
,
0100
0000
1000
0001
,
0100
0000
0100
0000
,
0001
0000
0001
0000
,
1000
0100
0010
0001
,
0000
1000
0010
0100
,
0011
0000
1100
0000
,
0110
0110
1001
0000
,
1000
0000
1000
0000
,
0001
0000
0100
0010
,
1000
0000
0000
1000
0000
0000
2000
0000
,
0000
3000
0000
0001
,
0100
0000
0010
1000
,
1000
0000
0001
0000
,
0100
0000
0000
0100
0000
0000
0100
0000
,
0002
0000
0003
0000
,
1001
0000
0001
0000
,
0100
0000
0010
1000
,
0001
0000
0001
0000
,
1000
0000
0010
0010
,
0100
0000
0001
0010
,
0100
0000
0100
0000
,
1000
0000
1000
0000
,
0001
0000
0100
0000
,
0000
0000
1001
0000
1000
0000
0000
0001
,
0000
0001
0000
1000
0000
1000
0000
0000
,
0000
0000
0010
0000
0100
0000
0000
0010
,
0000
0010
0000
1000
0000
1000
0000
0000
,
0000
0000
0001
0000
0010
0000
0000
0100
,
0000
0100
0000
0000
1000
0000
0001
0000
,
0100
0000
0100
0000
,
0010
0000
0010
0000
,
1000
0000
0001
0000
,
0100
0000
0010
0000
,
1001
0001
0010
0100
,
1000
0010
0100
0001
,
1001
0000
0000
0000
1000
0000
0000
0010
,
0000
0010
0000
0100
0000
0100
0000
0000
,
2002
0000
0000
0000
,
3003
0000
0000
0000
,
1001
0000
1000
0000
,
0010
0100
0001
0000
,
1000
0000
1000
0000
,
0100
0010
0001
0000
,
0100
0000
0010
1000
,
0001
0000
0010
0000
,
0100
1000
0001
0000
,
0100
0000
0010
1000
,
0001
0000
0100
0000
,
0010
1000
0001
0000
,
0010
0000
0010
0000
,
0100
1000
0100
0010
,
0001
0000
0100
0010
,
1000
0000
0001
0000
,
0100
0000
0010
0000
1000
0000
0000
1000
,
0000
0001
0100
0010
,
1001
0100
0010
1000
,
0100
0010
0001
0010
,
0100
1000
0100
1000
,
0010
0100
0001
0100
,
0001
1000
0100
1000
,
0010
0100
0001
0100
,
0001
1000
0100
0010
,
0001
0010
0100
1000
,
0010
0100
0010
0100
,
0001
0010
0100
0010
,
0001
0100
0010
1000
,
0100
0010
0001
0100
,
0010
1000
0010
0100
,
0001
0010
0100
1000
,
0100
0010
0001
0100
,
0010
1000
0001
0100
,
1001
1000
0100
0010
,
0001
0100
0010
1000
,
0010
0100
0001
0010
,
0001
0100
0010
1000
,
0100
1000
0010
0100
,
0001
0010
0100
1000
,
0100
0010
0001
0100
,
0010
1000
0001
0100
,
0101
0001
0010
0100
,
1100
1000
0010
0100
,
1001
0001
0010
0100
,
1100
0100
0010
0001
,
1001
1000
0101
0100
,
1010
0010
1001
1000
,
0101
1001
1100
0110
,
0011
1001
1100
0110
,
1001
0000
0000
0000
,
1000
0000
0000
0000
,
0010
0000
0000
0000
,
0100
0000
0000
0000
,
0001
0000
0000
0000
,
0010
0000
0000
0000
,
0100
0000
0000
0000
,
1000
0000
0000
0000
,
0101
0110
1010
1001
,
0101
1001
1100
0110
,
0011
1001
1100
1001
,
0101
0110
1010
1001
,
0101
1001
1100
1001
,
0011
0110
1100
1001
,
1100
0011
0101
1010
,
0110
1001
1100
0011
,
2002
0000
0000
0000
,
0000
0000
0000
0000
,
0000
0000
0000
0000
,
0000
0000
0000
0000
,
3003
0000
0000
0000
;

//---------------dance-single - ----------------
#NOTES:
     dance-single:
     :
     Beginner:
     3:
     0.196,0.418,0.057,0.000,0.000:
0000
0000
0000
0000
,
0000
0000
0000
0000
,
0000
0000
0000
0000
,
0000
0000
0000
0000
,
0000
0000
0000
0000
,
0000
0000
0000
0000
,
0000
0000
0000
0000
,
0000
0000
0000
0000
,
0000
0000
0000
0000
,
0000
0000
0000
0000
,
1000
0000
1000
0000
,
0001
0000
0001
0000
,
0100
0000
0100
0000
,
0010
0000
0010
0000
,
1000
0000
1000
0000
,
0010
0000
0010
0000
,
0100
0000
0100
0000
,
0001
0000
0001
0000
,
1000
0000
0000
0000
,
0100
0000
0000
0000
,
0010
0000
0000
0000
,
0001
0000
0000
0000
,
0100
0000
0000
0000
,
0010
0000
0000
0000
,
1000
0000
0000
0000
,
0100
0000
0000
0000
,
0010
0000
0000
0000
,
0010
0000
0000
0000
,
0001
0000
0000
0000
,
0100
0000
0000
0000
,
0010
0000
0000
0000
,
1000
0000
0000
0000
,
0001
0000
0001
0000
,
1000
0000
1000
0000
,
1001
0000
0000
0000
,
0001
0000
0000
0000
,
0100
0000
0000
0000
,
0100
0000
0000
0000
,
0010
0000
0000
0000
,
0010
0000
0000
0000
,
1000
0000
0000
0000
,
1000
0000
0000
0000
,
0100
0000
0000
0000
,
0010
0000
0000
0000
,
0001
0000
0000
0000
,
1000
0000
0000
0000
,
0100
0000
0000
0000
,
0010
0000
0000
0000
,
0001
0000
0000
0000
,
0100
0000
0000
0000
,
0000
1001
0000
0000
,
0000
0000
0000
0000
,
0000
1000
0000
0000
,
0000
0000
0000
0000
,
0000
0001
0000
0000
,
0000
0000
0000
0000
,
0010
0000
0010
0000
,
0100
0000
0100
0000
,
1000
0000
0000
0000
,
0000
0000
0000
0000
,
1001
0000
1000
0000
,
0001
0000
1000
0000
,
1001
0000
0000
0000
,
0000
0000
0000
0000
,
0110
0000
0000
0000
,
0000
0000
0000
0000
,
1001
0000
0000
0000
,
1000
0000
0000
0000
,
0100
0000
0100
0000
,
0010
0000
0000
0000
,
0001
0000
0000
0000
,
0100
0000
0000
0000
,
0010
0000
0010
0000
,
1000
0000
1000
0000
,
0001
0000
0000
0000
,
0100
0000
0000
0000
,
0010
0000
0010
0000
,
1000
0000
0000
0000
,
0001
0000
0000
0000
,
0010
0000
0000
0000
,
0100
0000
0100
0000
,
1000
0000
0000
0000
,
1001
0000
0001
0000
,
0100
0000
0100
0000
,
0010
0000
0010
0000
,
1000
0000
1000
0000
,
0100
0000
0100
0000
,
0010
0000
0010
0000
,
0001
0000
0001
0000
,
0100
0000
0100
0000
,
0010
0000
0010
0000
,
1000
0000
1000
0000
,
0100
0000
0100
0000
,
0010
0000
0010
0000
,
0001
0000
0001
0000
,
0100
0000
0100
0000
,
0010
0000
0010
0000
,
1000
0000
1000
0000
,
0001
0000
1000
0000
,
0001
0000
1000
0000
,
0010
0000
0100
0000
,
0010
0000
0100
0000
,
0001
0000
0100
0000
,
0001
0000
0100
0000
,
0010
0000
1000
0000
,
0010
0000
1000
0000
,
0001
0000
0010
0000
,
0100
0000
1000
0000
,
0010
0000
0100
0000
,
0001
0000
0010
0000
,
0100
0000
1000
0000
,
0100
0000
0010
0000
,
0001
0000
0100
0000
,
0010
0000
1000
0000
,
0001
0000
0000
0000
,
0000
0000
0000
0000
,
0100
0000
0000
0000
,
0000
0000
0000
0000
,
0010
0000
0000
0000
,
0000
0000
0000
0000
,
1000
0000
0000
0000
,
0000
0000
0000
0000
,
0001
0001
0001
0001
,
0001
0001
0001
0001
,
0001
0001
0001
0001
,
0001
0001
0001
0000
,
1000
1000
1000
1000
,
1000
1000
1000
1000
,
1000
1000
1000
1000
,
1000
1000
1000
0000
,
1001
0000
0000
0000
;
