#TITLE:Telephone;
#SUBTITLE:;
#ARTIST:Lady Gaga feat. Beyonce;
#TITLETRANSLIT:;
#SUBTITLETRANSLIT:;
#ARTISTTRANSLIT:;
#CREDIT:;
#BANNER:;
#BACKGROUND:;
#LYRICSPATH:;
#CDTITLE:;
#MUSIC:Telephone.ogg;
#OFFSET:-0.290;
#SAMPLESTART:47.500;
#SAMPLELENGTH:12.000;
#SELECTABLE:YES;
#BPMS:0.000=61.000,16.500=122.000,16.750=61.000,24.000=122.000;
#STOPS:16.500=0.031
,16.563=0.031
,16.625=0.031
,16.688=0.031
;
#BGCHANGES:;

//---------------dance-single - ----------------
#NOTES:
     dance-single:
     :
     Challenge:
     9:
     0.606,0.795,0.125,0.192,0.327:
0000
0000
0000
0000
,
0000
0000
0000
0000
,
1000
1000
0001
0001
0100
0010
1000
0001
0100
0100
0010
1000
0020
0000
1000
1000
,
1030
0100
1000
0010
0100
0100
0001
0010
0001
0100
0020
0000
2030
0000
3001
0100
,
0001
0001
0002
1003
0100
1000
0010
0100
0001
0001
0010
0100
2000
0000
0001
0001
,
3001
0000
0100
0000
0010
0000
1000
0000
0010
0000
0100
0000
0001
0000
0010
0000
0001
0000
0001
0000
2000
0000
0000
0000
3001
0000
1000
0001
1000
0000
0001
0000
,
1001
1000
0010
0100
0001
0100
0010
1000
,
1000
0001
0010
0100
1000
1001
1001
0001
,
0100
0100
0010
1000
0010
0010
0100
0001
,
0010
0010
0200
1000
2300
0001
3001
0000
,
1000
1000
0010
0100
0001
0001
0010
0100
,
0010
0010
0001
0100
0020
1000
1030
0001
,
1000
0010
0100
0001
0100
0010
1000
0001
,
0010
0100
2000
0000
3002
0100
0103
0000
,
0100
0010
1000
0010
0100
0001
0100
0001
,
0010
0100
1000
0001
2000
0001
3001
1000
,
0010
0100
1000
0100
0001
0010
0100
1000
,
0100
0100
0100
0000
0200
1000
1300
0000
,
1001
0001
0100
0100
0110
0010
1000
1000
,
1001
0000
0001
0000
0010
0000
0100
0000
1000
0000
1000
0100
1000
0100
1000
0100
,
1000
0000
0010
0000
0010
0000
0100
0000
0100
0000
0001
1000
0001
1000
0001
0000
,
0010
0100
1000
0020
0100
0230
0001
0300
,
1001
0001
0100
0100
0011
0001
0010
0010
,
1100
0000
1000
0000
0010
0000
0100
0000
0001
0000
0001
0100
0001
0100
0001
0100
,
0001
0000
1000
0000
0100
0000
0010
0000
0001
0000
0100
0010
0100
0010
0100
0000
,
0001
0001
1000
2000
0010
3020
0100
0030
,
1M01
10M0
100M
10M0
1M00
10M0
100M
10M0
,
1M00
00M1
M001
0100
0010
1000
0100
0010
,
M100
01M0
010M
01M0
M100
01M0
010M
01M0
,
M100
001M
M020
0001
0031
0100
0010
1000
,
10M1
0M01
M001
00M1
0M01
M001
00M1
0M01
,
M001
1M00
10M0
0010
0100
0010
1000
0001
,
M010
0M10
001M
M010
0M10
001M
M010
0M10
,
001M
M100
01M0
2000
0001
0001
3001
1000
,
1001
0000
0001
0100
0001
0000
1000
0100
1000
0000
0010
0000
0100
0000
0001
0010
,
0001
0000
1000
0010
1000
0000
0010
0000
0100
0000
0100
0000
0100
0000
0001
0010
,
0100
0000
1000
0100
1000
0000
0001
0100
0010
0100
0001
0000
1000
0000
0001
0100
,
0010
0000
1000
0010
0100
0000
0001
0000
1000
0000
1000
0000
1000
0000
0000
0000
,
1001
0000
0001
0010
1000
0000
0010
0001
0100
0000
0010
0000
1000
0000
0010
0100
,
0001
0000
1000
0100
0001
0000
0100
0000
0010
0000
0010
0000
0010
0000
0001
1000
,
0001
0000
1000
0001
1000
0000
0001
1000
0001
1000
0001
0000
1000
0000
0001
0100
,
0001
0000
0100
0010
0100
0010
0000
0100
0000
0010
0100
0000
0001
0100
0001
0000
,
1000
0100
0010
0001
0100
0100
0100
0010
,
1000
0000
0010
0000
1000
0000
0010
0000
0100
0000
0100
0000
0100
0000
0001
0100
,
0001
0000
1000
0100
1000
0000
0001
1000
0001
1000
0001
0000
1000
0000
0001
0010
,
0100
0000
1000
0100
0010
0000
0001
0000
1000
0000
1000
0000
2000
0000
0000
0000
,
3000
0000
0000
0000
;

//---------------dance-single - ----------------
#NOTES:
     dance-single:
     :
     Hard:
     7:
     0.392,0.395,0.115,0.010,0.014: // measure 1
0000
0000
0000
0000
,  // measure 2
0000
0000
0000
0000
,  // measure 3
1000
0000
0100
0000
0010
0000
0001
0000
0100
0000
0001
0100
0001
0000
0000
0000
,  // measure 4
1000
0100
1000
0010
0100
0001
0001
0000
,  // measure 5
1000
0000
0020
0000
0130
0000
0001
0000
0010
0000
0001
0100
0001
0000
0000
0000
,  // measure 6
1000
0000
0100
0000
0010
0000
0001
0000
0100
0000
0010
0000
0010
0000
0000
0001
,  // measure 7
0001
0100
0010
0000
1000
0000
0011
0010
,  // measure 8
0100
1000
0001
0000
0001
0101
0101
0000
,  // measure 9
0100
0010
0100
0000
0001
0010
1000
0000
,  // measure 10
0001
0100
0010
0000
1000
1001
1001
0000
,  // measure 11
1000
0100
0010
0000
0001
0100
0010
0000
,  // measure 12
1000
0010
0100
0001
1000
0000
0000
0000
,  // measure 13
0001
0100
0010
0000
0100
0010
1000
0000
,  // measure 14
0001
0010
0100
0000
1100
1000
1000
0000
,  // measure 15
0001
0100
0010
0000
1000
0010
0100
0000
,  // measure 16
0001
0010
0100
1000
0001
0000
0000
0000
,  // measure 17
0100
0010
1000
0000
0001
0100
0001
0000
,  // measure 18
1000
0000
1000
0000
1000
0001
1001
0000
,  // measure 19
1001
0000
0001
0100
1010
0000
0001
0010
,  // measure 20
0100
1000
0100
0010
0001
0100
0010
1000
,  // measure 21
0000
0001
0100
0001
0100
0000
0010
1000
,  // measure 22
0010
0100
0001
1000
0000
0001
0001
0000
,  // measure 23
1001
0000
1000
0100
0011
0000
0100
0010
,  // measure 24
1000
0010
0100
0001
0010
0100
1000
0001
,  // measure 25
0000
1000
0100
1000
0010
0000
0100
0001
,  // measure 26
0100
0001
0100
0010
0000
1000
1000
0000
,  // measure 27
0001
0100
0001
0100
0001
0100
0001
0100
,  // measure 28
0001
0100
0001
0100
0010
1000
0010
0000
,  // measure 29
1000
0100
1000
0100
1000
0100
1000
0100
,  // measure 30
1000
0100
1000
0000
0001
0100
0100
0000
,  // measure 31
0010
0100
0010
0100
0010
0100
0010
0100
,  // measure 32
0010
0100
0010
1000
0001
1000
0100
0000
,  // measure 33
1000
0001
1000
0001
1000
0001
1000
0001
,  // measure 34
1000
0001
1000
0000
0001
0100
0100
0000
,  // measure 35
0001
0000
0100
0000
0010
1000
0010
0000
,  // measure 36
0100
0000
0001
0000
0010
0100
1000
0000
,  // measure 37
0001
0000
0100
0000
0001
0100
0001
0000
,  // measure 38
0100
0000
0010
0000
1000
0010
0100
0000
,  // measure 39
0001
0000
0010
0000
0100
1000
0010
0000
,  // measure 40
0100
0000
0001
0000
1000
0001
1000
0000
,  // measure 41
0001
0000
0100
0000
0010
1000
0010
0000
,  // measure 42
0100
0000
0001
0010
0100
1000
0001
0000
,  // measure 43
1001
0000
0001
0001
0100
0010
1000
0000
,  // measure 44
0001
0001
0000
0010
0100
1000
0010
0000
,  // measure 45
0100
0000
0001
0000
1000
0100
1000
0000
,  // measure 46
0010
0000
0100
0000
0001
1000
0001
0000
;

//---------------dance-single - ----------------
#NOTES:
     dance-single:
     :
     Medium:
     5:
     0.291,0.286,0.019,0.010,0.000:
0000
0000
0000
0000
,
0000
0000
0000
0000
,
1000
0000
0100
0000
0010
0100
0100
0000
,
1000
0000
0010
0000
0100
0001
0001
0000
,
0010
0000
0001
0000
0100
0010
0010
0000
,
0100
0000
0001
0000
1000
1000
1000
0000
,
0001
0100
0010
0000
0010
0000
0000
1000
,
0100
1000
0010
0000
0100
0000
0000
0000
,
0001
0001
1000
1000
,
0001
0010
0100
0000
1000
0000
0000
0000
,
1000
0010
0100
0001
,
0010
0100
0010
0100
1000
0000
0000
0000
,
0001
0100
0010
0100
,
0001
1000
0001
0000
0001
0000
0000
0000
,
0100
0010
1000
0010
,
0100
0001
1000
0001
1000
0000
0000
0000
,
0001
0010
0100
1000
,
0010
0010
0010
0010
,
1001
0000
1000
0100
1000
0000
0001
0100
,
0001
0000
0100
0000
0010
1000
0010
0100
,
0000
0001
0001
0000
0010
0000
0100
0000
,
1000
0100
0010
0001
0000
1000
0000
0000
,
1001
0000
0001
0100
0001
0000
1000
0100
,
1000
0000
0010
0000
0100
0001
0100
0010
,
0000
1000
0001
0010
,
0100
0000
1000
0100
0000
1000
0000
0000
,
0001
0100
0001
0000
0001
0100
0001
0000
,
0001
0100
0001
0000
0100
0000
0010
0000
,
1000
0100
1000
0000
1000
0100
1000
0000
,
1000
0100
1000
0000
0010
0000
0100
0000
,
0010
0100
0010
0000
0010
0100
0010
0000
,
0010
0100
0010
0000
0100
0000
0001
0000
,
1000
0001
1000
0000
1000
0001
1000
0000
,
1000
0001
1000
0000
0002
0000
0000
0000
,
1003
1000
0010
0010
,
0100
0000
0001
0000
1000
0100
0010
0000
,
0001
0100
0010
1000
,
0010
0000
0100
0000
0001
0010
0001
0000
,
1000
0100
1000
0010
,
0100
0000
0001
0000
0100
0010
0010
0000
,
1000
0010
0100
0001
,
0010
0000
1000
0000
0001
0100
0100
0000
,
0010
0000
1000
0000
0001
0010
0010
0000
,
0100
0000
1000
0000
0010
0100
0100
0000
,
0001
0001
1000
1000
,
0010
0000
0100
0000
0001
0100
1000
0000
;

//---------------dance-single - ----------------
#NOTES:
     dance-single:
     :
     Easy:
     3:
     0.185,0.220,0.106,0.010,0.000:
0000
0000
0000
0000
,
0000
0000
0000
0000
,
1000
0000
0001
0000
,
0100
0000
0010
0000
,
1000
0000
0001
0000
,
0010
0000
0100
0000
,
1000
0100
0010
0000
,
0001
0100
0010
0000
,
1000
1000
0001
0001
,
0100
0010
1000
0000
,
0001
0000
0010
0000
,
0100
1000
0010
0000
,
0100
0000
0001
0000
,
1000
0100
1000
0000
,
0010
0000
0100
0000
,
0001
0010
0001
0000
,
0100
0000
0010
0000
,
2000
0000
3000
0000
,
1001
0000
0101
0000
,
0110
0000
0010
1000
,
0001
0000
1100
0000
,
1001
0000
0001
0100
,
0110
0000
1010
0000
,
1001
0001
0010
0000
,
1100
0000
1010
0000
,
0110
0000
0100
0001
,
1000
1000
1000
1000
,
1000
1000
1000
0000
,
0001
0001
0001
0001
,
0001
0001
0001
0000
,
0100
0100
0100
0100
,
0100
0100
0100
0000
,
0010
0010
0010
0010
,
0010
0010
0010
0000
,
1000
0000
0001
0000
,
0100
0010
1000
1000
,
0001
0000
0010
0000
,
0100
1000
0010
0100
,
0001
0000
0010
0000
,
0100
1000
0010
0100
,
0010
0000
1000
0000
,
0010
0001
0100
1000
,
0001
0000
0100
0000
,
0010
0000
1000
0000
,
0001
0001
1000
1000
,
0001
0010
0100
1000
;

//---------------dance-single - ----------------
#NOTES:
     dance-single:
     :
     Beginner:
     1:
     0.099,0.132,0.038,0.000,0.000:
0000
0000
0000
0000
,
0000
0000
0000
0000
,
1000
0000
0000
0000
,
0001
0000
0000
0000
,
0100
0000
0000
0000
,
0010
0000
0000
0000
,
1000
0000
1000
0000
,
0001
0000
0001
0000
,
0100
0000
0010
0000
,
1000
0000
0000
0000
,
0001
0000
0000
0000
,
0010
0000
0000
0000
,
0001
0000
0000
0000
,
0100
0000
0000
0000
,
0010
0000
0000
0000
,
1000
0000
0000
0000
,
0010
0000
0000
0000
,
0100
0000
0000
0000
,
1001
0000
0001
0000
,
0001
0000
0000
0000
,
1001
0000
1000
0000
,
1000
0000
0000
0000
,
0110
0000
0010
0000
,
0010
0000
0000
0000
,
0110
0000
0100
0000
,
0100
0000
0000
0000
,
0001
0000
0001
0000
,
0001
0000
1000
1000
,
1000
0000
1000
0000
,
1000
0000
0010
0010
,
0010
0000
0010
0000
,
0010
0000
0100
0100
,
0100
0000
0100
0000
,
0100
0000
0000
0000
,
1000
0000
1000
0000
,
1000
0000
0000
0000
,
0010
0000
0010
0000
,
0010
0000
0000
0000
,
0100
0000
0100
0000
,
0001
0000
0000
0000
,
1000
0000
1000
0000
,
0010
0000
0000
0000
,
1000
0000
0000
0000
,
0001
0000
0000
0000
,
0010
0000
0010
0000
,
0100
0000
1000
1000
;
