#VERSION:0.83;
#TITLE:TWO-TORIAL;
#SUBTITLE:;
#ARTIST:BEMANI Sound Team "PHQUASE vs DJ TOTTO";
#TITLETRANSLIT:;
#SUBTITLETRANSLIT:;
#ARTISTTRANSLIT:;
#GENRE:;
#CREDIT:;
#MUSIC:TWO-TORIAL.ogg;
#BANNER:TWO-TORIAL - bn.png;
#BACKGROUND:TWO-TORIAL - bg wide.png;
#CDTITLE:;
#SAMPLESTART:88.508;
#SAMPLELENGTH:18.028;
#SELECTABLE:YES;
#OFFSET:0.930;
#BPMS:0.000=213.000
,32.000=426.000
,32.500=213.000
,32.750=106.500
,33.000=213.000
,64.000=426.000
,64.500=213.000
,64.750=106.500
,65.000=213.000
,484.000=106.500
,484.125=213.000
,484.250=426.000
,485.000=213.000
;
#STOPS:484.500=0.035
,484.750=0.035
;
#DELAYS:191.000=0.282,
238.000=0.282,
285.000=0.282,
348.000=0.282,
534.000=0.564
;
#WARPS:175.000=16.000,
198.000=16.000,
222.000=16.000,
245.000=16.000,
269.000=16.000,
300.000=16.000,
332.000=16.000,
363.000=16.000,
518.000=16.000,
549.000=16.000
;
#FAKES:191.000=7.000,
238.000=7.000,
285.000=15.000,
348.000=15.000,
534.000=15.000
;
#DISPLAYBPM:213.000;
#BGCHANGES:4.000=TWO-TORIAL.avi=1.000=1=0=0=StretchNoLoop==CrossFade==,
99999.000=-nosongbg-=1.000=0=0=0=StretchNoLoop====
;
#FGCHANGES:0.000=lua=1.000=0=0=1;

//--------------- dance-single - Gpop ----------------
#NOTEDATA:;
#STEPSTYPE:dance-single;
#DESCRIPTION:Gpop;
#DIFFICULTY:Beginner;
#METER:3;
#RADARVALUES:0,0,0,0,0;
#NOTES:
0000
0000
0000
0000
,
0000
0000
0000
0000
,
0000
0000
0000
0000
,
1000
0000
0000
0000
,
0000
0000
0001
0000
,
0000
1001
0000
0000
,
0000
0000
0000
0000
,
0000
0000
0000
0000
,
1000
0000
1000
0000
,
0001
0000
0100
0000
,
0010
0000
0010
0000
,
1000
0000
0100
0000
,
0010
0000
0010
0000
,
0001
0000
1000
0000
,
0010
0000
0010
0000
,
1000
0000
0001
0000
,
0000
0000
1000
0000
,
0100
0000
0010
0000
,
0001
0000
0010
0000
,
0001
0000
0001
0000
,
1000
0000
1000
0000
,
0001
0000
0001
0000
,
0100
0000
0100
0000
,
0100
0000
0000
0000
,
0001
0000
1000
0000
,
0001
0000
0000
0000
,
1000
0000
0100
0000
,
1000
0000
0000
0000
,
0001
0000
0100
0000
,
0001
0000
0000
0000
,
1000
0000
0010
0000
,
1000
0000
0000
0000
,
0001
0000
0000
1000
,
0000
0000
0010
0000
,
0000
0100
0000
0000
,
0001
0000
0000
0000
,
0010
0000
0000
0100
,
0000
0000
1000
0000
,
0000
0001
0000
0000
,
1000
0000
0000
0000
,
1001
0000
0000
0000
,
0000
0000
0000
0000
,
0000
0000
0000
0000
,
0000
0000
0000
0000
,
0000
0000
0000
0000
,
0000
0000
0000
0000
,
0000
0000
0000
0000
,
0000
0000
0000
1000
,
0000
1000
0000
1000
,
0000
1000
0000
0000
,
0000
0000
0000
0000
,
0000
0000
0000
0000
,
0000
0000
0000
0000
,
0000
0000
0000
1000
,
0000
1000
0000
1000
,
0000
1000
0000
0000
,
0000
0000
0000
0000
,
0000
0000
0000
0000
,
0000
0000
0000
0000
,
0000
0000
0001
0000
,
0001
0000
0001
0000
,
0001
0000
0000
0000
,
0000
0000
0000
0000
,
0000
0000
0000
0000
,
0000
0000
0000
0000
,
0000
0000
0001
0000
,
0001
0000
0001
0000
,
0001
0000
0000
0000
,
0000
0000
0000
0000
,
0000
0000
0000
0000
,
0000
0000
0000
0000
,
0000
0100
0000
0100
,
0000
0100
0000
0100
,
0000
0010
0000
0010
,
0000
0010
0000
0010
,
0000
0000
0000
0000
,
0000
0000
0000
0000
,
0000
0000
0000
0000
,
0000
0000
0000
0000
,
0000
0100
0000
0100
,
0000
0100
0000
0100
,
0000
0010
0000
0010
,
0000
0010
0000
0010
,
0000
0000
0000
0000
,
0000
0000
0000
0000
,
0000
0000
0000
0000
,
0000
0000
0000
0000
,
1000
0000
0001
0000
,
1000
0000
0001
0000
,
1000
0000
0001
0000
,
1000
0000
1000
0000
,
0000
0000
0000
0000
,
0000
0000
0000
0000
,
0000
0000
0000
0000
,
0000
0000
0000
0000
,
1000
0000
0001
0000
,
1000
0000
0001
0000
,
1000
0000
0001
0000
,
1000
0000
1000
0000
,
0001
0000
0100
0000
,
0010
0000
1000
0000
,
0100
0000
0010
0000
,
0001
0000
0100
0000
,
0010
0000
1000
0000
,
0100
0000
1000
0000
,
0001
0000
0100
0000
,
0010
0000
1000
0000
,
1001
0000
0000
0000
,
0000
0000
0000
0000
,
0000
0000
0000
0000
,
0000
0000
0000
0000
,
1000
0000
1000
0000
,
0001
0000
0001
0000
,
0010
0000
0100
0000
,
1000
0000
0010
0000
,
0100
0000
0100
0000
,
0001
0000
0001
0000
,
1000
0000
1000
0000
,
0001
0000
0000
0000
,
0010
0000
0010
0000
,
0001
0000
0001
0000
,
1000
0000
1000
0000
,
0010
0000
0010
0000
,
0100
0000
0001
0000
,
0100
0000
0010
0000
,
1000
0000
1000
0000
,
1000
0000
0001
0000
,
1000
0000
1000
0000
,
0001
0000
0001
0000
,
0000
0000
0000
0000
,
0000
0000
0000
0000
,
0000
0000
0000
0000
,
0000
0000
0000
0000
,
0000
0000
1000
0000
,
1000
0000
0001
0000
,
0001
0000
0100
0000
,
0100
0000
0010
0000
,
0010
0000
0000
0000
,
0000
0000
0000
0000
,
0000
0000
0000
0000
,
0000
0000
0000
0000
,
0000
0000
1000
0000
,
1000
0000
0001
0000
,
0001
0000
0100
0000
,
0100
0000
0010
0000
,
0010
0000
1000
0000
,
0000
0001
0000
1001
;

//--------------- dance-single - Gpop ----------------
#NOTEDATA:;
#STEPSTYPE:dance-single;
#DESCRIPTION:Gpop;
#DIFFICULTY:Easy;
#METER:7;
#RADARVALUES:0,0,0,0,0;
#NOTES:
0000
0000
0000
0000
,
0000
0000
0000
0000
,
0000
0000
0000
0000
,
1000
0000
0000
0001
0000
1000
0000
0001
,
0000
0000
0200
0000
,
0300
0220
0000
0000
,
0000
0000
0000
0000
,
0330
0000
0000
1001
,
2000
3001
0100
0010
,
1000
0000
0100
0000
0010
0000
0001
1000
,
0010
0100
0001
1000
,
0100
0000
0010
0000
0100
1000
0100
1000
,
0001
0100
0010
1000
,
0001
0000
0010
0000
0100
0000
1000
0001
,
0100
0010
1000
0100
,
0010
0000
0100
0000
1000
0000
0001
0100
,
0020
1030
0100
0010
,
0100
0000
1000
0000
0001
0000
0100
0010
,
1000
0001
0010
0100
,
1000
0000
0010
0000
0100
0001
0100
0001
,
2000
3100
0010
0001
,
2000
3100
0010
0001
,
2000
3000
0002
0003
,
0200
0300
0000
0101
,
1000
1000
0100
0100
,
0010
0001
1000
0001
,
0100
0100
0010
0010
,
0100
0001
1000
0100
,
0010
0010
0100
0100
,
1000
0010
0100
0001
,
0010
0010
0001
0001
,
0100
0010
1010
0000
,
1100
0000
0000
1100
0000
0000
0101
0000
,
0000
0101
0000
0000
1001
0000
0000
1001
,
0000
0000
1010
0000
0000
1010
0000
0000
,
0110
0000
0000
0110
0000
0000
0101
0000
,
0011
0000
0000
0011
0000
0000
0110
0000
,
0000
0110
0000
0000
1100
0000
0000
1100
,
0000
0000
1001
0000
0000
0101
0000
0000
,
0001
0000
1000
0000
0001
1000
0001
0000
,
2002
0000
0000
0000
,
0000
0000
0000
0000
,
3003
0000
0000
0000
,
0000
0000
0000
0000
,
0000
0000
0000
0000
,
0000
0000
0000
0000
,
0000
0000
0000
0000
,
0000
0000
0000
1000
,
0001
1000
0001
1000
,
0001
1000
0000
0000
,
0000
0000
0000
0000
,
0000
0000
0000
0000
,
0000
0000
0000
0000
,
0000
0000
0000
1000
,
0001
1000
0001
1000
,
0001
1000
0000
0000
,
0000
0000
0000
0000
,
0000
0000
0000
0000
,
0000
0000
0000
0000
,
0000
0000
0100
0010
,
0100
0010
0100
0010
,
0100
0000
0000
0000
,
0000
0000
0000
0000
,
0000
0000
0000
0000
,
0000
0000
0000
0000
,
0000
0000
0100
0010
,
0100
0010
0100
0010
,
0100
0000
0000
0000
,
0000
0000
0000
0000
,
0000
0000
0000
0000
,
0000
0000
0000
0000
,
0000
1000
0000
1000
,
0000
0100
0000
0100
,
0000
0010
0000
0010
,
0000
0001
1000
0001
,
0000
0000
0000
0000
,
0000
0000
0000
0000
,
0000
0000
0000
0000
,
0000
0000
0000
0000
,
0000
1000
0000
1000
,
0000
0100
0000
0100
,
0000
0010
0000
0010
,
0000
0001
1000
0001
,
0000
0000
0000
0000
,
0000
0000
0000
0000
,
0000
0000
0000
0000
,
0000
0000
0000
0000
,
0001
0000
0100
0000
,
0010
0000
1000
0000
,
0001
0000
0010
0000
,
0100
0000
1000
0000
,
0000
0000
0000
0000
,
0000
0000
0000
0000
,
0000
0000
0000
0000
,
0000
0000
0000
0000
,
0001
0000
0100
0000
,
0010
0000
1000
0000
,
0001
0000
0010
0000
,
0100
0000
1000
0000
,
0001
0100
0001
1000
,
0100
0010
0001
1000
,
0010
0100
0001
0010
,
0100
1000
0010
0100
,
0001
0010
0001
1000
,
0010
0100
0001
1000
,
0100
1000
0001
0100
,
0010
1000
0100
0010
,
0022
0000
0000
0000
,
0033
0000
0000
0000
,
2020
0000
0000
0000
,
3030
0000
0000
0000
,
1000
0001
1000
0000
0010
0000
0100
0000
,
0001
0010
0001
0000
1000
0000
0100
0000
,
0010
0010
0001
0001
,
1000
0010
0100
0001
,
1000
0100
1000
0000
0001
0000
0100
0000
,
0010
1000
0010
0000
0100
0000
0001
0000
,
1000
1000
0001
0001
,
0100
0000
0010
0000
1000
0010
1000
0000
,
0001
0010
0001
0000
0100
0000
0010
0000
,
1000
0100
1000
0000
0001
0000
0010
0000
,
0001
0001
1000
1000
,
0010
0100
0001
1000
,
0100
0010
0100
0000
1000
0000
0001
0000
,
0100
0010
0100
0000
0001
0000
1000
0000
,
0100
0100
1000
1000
,
0001
0000
0100
0000
0010
1000
0001
0000
,
1000
1100
0001
0101
,
1000
0100
0010
0001
,
0000
0000
0000
0000
,
0000
0000
0000
0000
,
0000
0000
0000
0000
,
0000
0000
0000
0000
,
0000
0000
1000
0000
,
0100
0000
0010
0000
,
0001
0000
1000
0100
,
0010
0001
1000
0001
,
1000
0000
0000
0000
,
0000
0000
0000
0000
,
0000
0000
0000
0000
,
0000
0000
0000
0000
,
0000
0000
1000
0000
,
0100
0000
0010
0000
,
0001
0000
1000
0100
,
0010
0001
1000
0001
,
1000
0000
0000
0000
1000
0001
0000
1000
,
0001
0000
1000
0001
0000
2000
0002
0000
,
0000
0000
0000
0000
,
0000
0000
0000
0000
,
0000
0000
3003
0000
;

//--------------- dance-single - Gpop SJ DT+ FS+ XO ----------------
#NOTEDATA:;
#STEPSTYPE:dance-single;
#DESCRIPTION:Gpop SJ DT+ FS+ XO;
#DIFFICULTY:Medium;
#METER:9;
#RADARVALUES:0,0,0,0,0;
#NOTES:
0000
0000
0000
0000
,
0000
0000
0000
0000
,
0000
0000
0000
0000
,
1000
0100
0010
0001
0000
1000
0000
0010
,
0100
0001
0100
0001
2000
0000
0000
0000
,
3000
2002
0000
0000
,
0000
0000
0000
0000
,
3003
0000
0000
0000
0000
0001
1001
0000
,
2000
0000
3100
0010
0001
1000
0001
0000
,
1000
0010
1000
0000
0001
0010
0100
1000
,
0001
0000
1000
0010
0100
0010
1000
0000
,
0001
0010
0100
0010
0001
1000
0001
1000
,
0010
0000
0100
0010
0100
0010
1000
0000
,
0001
0000
0000
0000
1000
0000
0000
0000
0100
0000
0000
1000
0000
0000
0001
0000
,
0100
0000
0000
0000
0010
0000
1000
0000
0001
0000
0000
1000
0000
0000
1000
0000
,
0001
0000
0010
0100
1000
0000
0010
0100
,
0002
0000
1003
0100
0010
0001
1000
0000
,
0001
0100
0010
0000
1000
0100
0010
0100
,
1000
0000
0001
0000
0100
0001
1000
0000
,
0001
0010
0100
1000
0010
0100
0010
0100
,
0002
0000
1003
0100
0010
0001
1000
0000
,
0002
0000
1003
0010
0100
0001
1000
0000
,
0001
0001
1000
1000
,
0010
0000
0010
0000
0000
1000
1001
0000
,
0001
0000
0010
0001
0000
0000
1000
0000
0010
1000
0000
0000
,
0001
0000
0010
0001
0000
0001
1000
0000
0000
0010
0000
0000
,
0100
0000
0001
0100
0000
0000
0010
0000
1000
0010
0000
0000
,
1000
0000
0001
1000
0000
1000
0100
0000
0000
0010
0000
0000
,
0001
0000
0100
0001
0000
0000
1000
0000
0100
1000
0000
0000
,
0010
0000
0100
0010
0000
0010
1000
0000
0000
0001
0000
0000
,
0010
0000
0100
0010
0000
0000
0001
0000
0100
0001
0000
0000
,
1000
0000
0010
0100
0000
0100
0001
0000
0000
0000
0000
0000
,
1000
0000
0001
0001
0000
0010
0010
0000
,
0100
0100
0000
1000
1000
0000
0001
0001
,
0000
1000
1000
0000
0010
0010
0000
0100
,
0100
0000
0001
0001
0000
1000
0001
1000
,
0001
0000
1000
1000
0000
0100
0100
0000
,
0010
0010
0000
0001
0001
0000
0100
0100
,
0000
0010
0010
0000
1000
1000
0000
0001
,
0001
0000
1000
0000
0001
1000
0001
0000
,
2002
0000
0000
0000
,
0000
0000
0000
0000
,
3003
0000
0000
0000
,
0000
0000
0000
0000
,
0000
0000
0000
0000
,
0000
0000
0000
0000
,
0000
0000
0000
0000
,
0000
0000
0000
0000
0000
0000
1000
0100
,
1000
0100
1000
0100
1000
0100
0010
0001
,
0010
0001
0010
0001
0000
0000
0000
0000
,
0000
0000
0000
0000
,
0000
0000
0000
0000
,
0000
0000
0000
0000
,
0000
0000
0000
0000
0000
0000
1000
0100
,
1000
0100
1000
0100
1000
0100
0010
0001
,
0010
0001
0010
0001
0000
0000
0000
0000
,
0000
0000
0000
0000
,
0000
0000
0000
0000
,
0000
0000
0000
0000
,
0000
0000
0000
0000
1000
0001
1000
0001
,
1000
0001
1000
0001
0100
0010
0100
0010
,
0100
0010
0000
0000
0000
0000
0000
0000
,
0000
0000
0000
0000
,
0000
0000
0000
0000
,
0000
0000
0000
0000
,
0000
0000
0000
0000
1000
0001
1000
0001
,
1000
0001
1000
0001
0100
0010
0100
0010
,
0100
0010
0000
0000
0000
0000
0000
0000
,
0000
0000
0000
0000
,
0000
0000
0000
0000
,
0000
0000
0000
0000
,
0000
0000
1000
0000
0000
1000
0000
0000
,
1000
0000
0000
0001
0000
0000
0001
0000
,
0001
0100
0100
0100
,
0000
0100
0010
0000
0000
0010
0000
0000
,
0000
0000
0000
0000
,
0000
0000
0000
0000
,
0000
0000
0000
0000
,
0000
0000
0000
0000
,
0000
0000
1000
0000
0000
1000
0000
0000
,
1000
0000
0000
0001
0000
0000
0001
0000
,
0001
0100
0100
0100
,
0000
0100
0010
0000
0000
0010
0000
0000
,
0000
0000
0000
0000
,
0000
0000
0000
0000
,
0000
0000
0000
0000
,
0000
0000
0000
0000
,
1000
0000
0001
1000
0000
0001
1000
0000
,
0001
1000
0000
0001
1000
0000
0001
1000
,
0010
0100
0010
0000
0100
0010
0000
0100
,
0010
0000
0100
0010
0000
0100
0000
0000
,
0000
0000
0000
0000
,
0000
0000
0000
0000
,
0000
0000
0000
0000
,
0000
0000
0000
0000
,
1000
0000
0001
1000
0000
0001
1000
0000
,
0001
1000
0000
0001
1000
0000
0001
1000
,
0010
0100
0010
0000
0100
0010
0000
0100
,
0010
0000
0100
0010
0000
0100
0010
0000
,
1000
0100
0010
0001
1000
0001
0100
0010
,
0M00
0010
0001
1000
0100
1000
0001
0000
,
1000
0100
1000
0001
0100
0010
1000
0100
,
00M0
0100
0001
0010
0100
1000
0010
0000
,
1000
0010
1000
0001
0010
0100
1000
0010
,
0M00
0010
0001
1000
0100
1000
0010
0000
,
0100
0001
0010
0100
1000
0001
1000
0100
,
00M0
0100
0010
1000
0001
0100
0001
0000
,
2002
0000
0000
0000
,
3003
0000
0000
0000
,
0220
0000
0000
0000
,
0330
0000
0000
0000
1000
0001
1000
0000
,
0001
0010
1000
0000
0010
0001
1000
0000
,
0001
0100
1000
0000
0100
0010
1000
0000
,
0001
0011
1000
1010
,
0001
0010
0001
1000
0010
0100
0001
0000
,
1000
0100
0001
0000
0100
0010
0001
0000
,
1000
0010
0001
0000
0010
0100
0001
0000
,
1000
0100
1000
0000
0001
0100
0001
0000
,
1000
0000
0001
0000
1000
0100
0010
0001
,
0100
00M0
0100
0000
1000
0000
0000
0000
0001
0000
1000
0000
0010
0000
0000
0000
,
0100
00M0
0100
0000
1000
0000
0000
0000
0001
0000
0010
0000
0100
0000
0000
0000
,
1000
1010
0001
0011
,
1000
0100
1000
0010
0100
0001
1000
0000
,
0010
0M00
0010
0000
0001
0000
0000
0000
1000
0000
0010
0000
0100
0000
0000
0000
,
0010
0M00
0010
0000
0001
0000
0000
0000
0010
0000
0100
0000
1000
0000
0000
0000
,
0001
0010
0001
0000
1000
0010
1000
0000
,
0001
0010
0100
1000
0010
0100
0010
0100
,
0001
0101
1001
1100
,
1000
0100
0010
0100
1000
0010
0100
0001
,
0000
0000
0000
0000
,
0000
0000
0000
0000
,
0000
0000
0000
0000
,
0000
0000
0000
0000
,
0000
0000
0000
0000
1000
0000
0100
1000
,
0000
0100
1000
0000
0001
1000
0000
0001
,
1000
0000
0001
0100
0001
0100
0001
0000
,
0100
0001
0000
0100
0001
0000
1000
0001
,
0000
1000
0000
0000
0000
0000
0000
0000
,
0000
0000
0000
0000
,
0000
0000
0000
0000
,
0000
0000
0000
0000
,
0000
0000
0000
0000
1000
0000
0100
1000
,
0000
0100
1000
0000
0001
1000
0000
0001
,
1000
0000
0001
0100
0001
0100
0001
0000
,
0100
0001
0000
0100
0001
0000
1000
0001
,
0000
1000
0000
0000
0001
0101
0000
1000
,
1100
0000
0001
0011
0000
1000
2002
0000
,
0000
0000
0000
0000
,
0000
0000
0000
0000
,
0000
0000
3003
0000
;

//--------------- dance-single - Gpop XO+ FS SS ----------------
#NOTEDATA:;
#STEPSTYPE:dance-single;
#DESCRIPTION:Gpop XO+ FS SS;
#DIFFICULTY:Hard;
#METER:11;
#RADARVALUES:0,0,0,0,0;
#NOTES:
0000
0000
0000
0000
,
0000
0000
0000
0000
,
0000
0000
0000
0000
,
1000
0100
0010
0004
1003
0040
0130
0001
,
0100
0000
0010
0000
0100
0000
0001
0000
1000
0001
1000
0001
1000
0001
1000
0000
,
0000
2002
0000
0000
,
0000
0000
0000
0000
,
0000
0000
0000
0000
3003
0100
0110
0000
,
0002
0000
0000
0000
1003
0000
0100
0000
0010
0001
1000
0000
0001
0000
1000
0000
,
0010
0000
0100
0010
0100
0000
0001
0000
1000
0100
0010
0000
0001
0000
0100
0000
,
0010
0M00
0010
0000
0001
0000
1000
0100
0010
0001
1000
0000
0001
0000
0100
0000
,
0010
1000
0010
0000
0100
0001
0100
0000
0010
0000
0100
0000
1000
0000
0100
0000
,
0002
0000
0000
0000
1003
0000
0100
0000
0010
0100
1000
0000
0010
0000
0100
0000
,
0001
0000
0000
1000
0100
0000
0010
0000
0001
1000
0010
0100
0000
0001
1000
0000
,
0100
0010
0001
0000
1000
0000
0001
0100
0010
0000
1000
0100
0000
0010
0001
0000
,
1000
0010
1000
0010
0100
0000
0001
0000
1000
0100
0010
0001
1000
0000
0001
0000
,
0200
0000
0000
0000
0310
0000
1000
0000
0001
0010
0100
0000
1000
0000
0001
0000
,
0100
0010
1000
0000
0001
0000
1000
0000
0100
1000
0001
0000
0010
0000
0001
0000
,
0100
00M0
0100
0000
1000
0000
0001
0000
0100
0010
1000
0000
0001
0000
0010
0000
,
0100
1000
0100
0000
0010
0001
0010
0000
0001
0000
0100
0000
1000
0000
0100
0000
,
0020
0000
0000
1030
0001
0000
1000
0000
0100
0010
0100
0000
1000
0000
0001
0000
,
0020
0000
0000
0000
0031
0000
1000
0000
0010
0100
0010
0000
1000
0000
0001
0000
,
1000
0000
0100
1000
0000
1000
0001
0000
0100
0001
0000
0001
,
0010
0000
0000
0000
0100
0000
0010
0000
0000
0000
0001
0000
0000
0000
0000
0100
0000
0000
1001
0000
0000
0000
0000
0000
,
1000
0100
0010
0002
0000
0013
0100
1000
0010
2000
0000
3100
,
0010
0001
1000
0200
0000
0310
1000
000M
1000
0100
0010
0001
,
0100
0010
1000
0020
0000
0130
0001
1000
0100
0020
0000
0130
,
1000
0001
0100
0020
0000
0130
1000
00M0
1000
0010
0100
0001
,
1000
0001
0010
0200
0000
0310
0001
1000
0010
0200
0000
0310
,
1000
0001
0010
0200
0000
0310
1000
000M
1000
0100
0010
0001
,
0100
0010
1000
0002
0000
1003
0100
0010
0100
2000
0000
3010
,
0100
0001
1000
0020
0000
0130
0001
0000
0000
0000
0000
0000
,
1001
0000
0001
0100
00M0
0100
1000
0000
,
1000
0010
0M00
0010
0001
0000
1000
0001
,
0000
1000
0010
0M00
0010
0001
0000
0001
,
0100
00M0
0100
1000
0000
1000
0001
0100
,
0010
0000
0010
0100
00M0
0100
1000
0000
,
1000
0010
0M00
0010
0001
0000
0001
1000
,
0001
0010
0001
0000
1000
0000
0001
0100
0001
0000
0100
0000
0010
0100
0010
0000
,
1000
0100
1000
0100
0010
0001
0010
0001
1000
0000
0001
0000
1000
0000
0000
0000
,
2002
0000
0000
0000
,
0000
0000
0000
0000
,
3003
0000
0000
0000
,
0001
0000
0010
0000
0100
0000
1000
0000
0001
1000
0001
0000
0000
0000
0000
0000
,
0000
0000
0000
0000
,
0000
0000
0000
0000
,
0000
0000
0000
0000
,
0000
0000
0000
0000
0000
0000
1000
0100
,
0010
0001
1000
0100
0010
0001
1000
0010
,
0100
0001
1000
0010
0000
0000
0000
0000
,
0000
0000
0000
0000
,
0000
0000
0000
0000
,
0000
0000
0000
0000
,
0000
0000
0000
0000
0000
0000
1000
0100
,
0010
0001
1000
0100
0010
0001
1000
0010
,
0100
0001
1000
0010
0000
0000
0000
0000
,
0000
0000
0000
0000
,
0000
0000
0000
0000
,
0000
0000
0000
0000
,
0000
0000
0000
0000
1000
0100
0010
0100
,
1000
0010
0100
0010
1000
0001
0010
0001
,
1000
0001
0000
0000
0000
0000
0000
0000
,
0000
0000
0000
0000
,
0000
0000
0000
0000
,
0000
0000
0000
0000
,
0000
0000
0000
0000
1000
0100
0010
0100
,
1000
0010
0100
0010
1000
0001
0010
0001
,
1000
0001
0000
0000
0000
0000
0000
0000
,
0000
0000
0000
0000
,
0000
0000
0000
0000
,
0000
0000
0000
0000
,
0000
0000
1000
0000
0100
1000
0000
0100
,
1000
0000
0001
0100
0000
0001
0100
0000
,
0001
0100
0010
1000
0010
0000
1000
0010
,
0000
1000
0001
0000
0010
0001
0000
0010
,
0000
0000
0000
0000
,
0000
0000
0000
0000
,
0000
0000
0000
0000
,
0000
0000
0000
0000
,
0000
0000
1000
0000
0100
1000
0000
0100
,
1000
0000
0001
0100
0000
0001
0100
0000
,
0001
0100
0010
1000
0010
0000
1000
0010
,
0000
1000
0001
0000
0010
0001
0000
0010
,
0000
0000
0000
0000
,
0000
0000
0000
0000
,
0000
0000
0000
0000
,
0000
0000
0000
0000
,
0001
0000
1000
0001
0000
0001
1000
0000
,
0010
0100
0000
0100
0010
0000
1000
0001
,
1000
0001
1000
0000
0100
0010
0000
0010
,
0001
0000
1000
0001
0000
1000
0000
0000
,
0000
0000
0000
0000
,
0000
0000
0000
0000
,
0000
0000
0000
0000
,
0000
0000
0000
0000
,
0001
0000
1000
0001
0000
0001
1000
0000
,
0010
0100
0000
0100
0010
0000
1000
0001
,
1000
0001
1000
0000
0100
0010
0000
0010
,
0001
0000
1000
0001
0000
1000
0001
0000
,
1000
0000
0100
0001
0000
0100
1000
0000
0001
0000
0100
0000
0010
0000
1000
0001
,
0000
0000
0100
0000
0010
0000
1000
0100
0000
0010
0000
1000
0000
0010
0100
0000
,
1000
0000
0001
0100
0000
1000
0100
0000
0010
0000
1000
0000
0001
0000
0010
0100
,
0000
0000
0010
0000
0001
0000
1000
0001
0000
0100
0000
1000
0000
0100
0001
0000
,
1000
0000
0100
0001
0000
0100
0010
0000
0001
0000
1000
0000
0010
0000
0100
1000
,
0000
0000
0100
0000
0001
0000
1000
0100
0000
0010
0000
1000
0000
0010
0001
0000
,
0100
0000
0010
0001
0000
0010
0100
0000
0001
0000
1000
0000
0100
0000
0010
0001
,
0000
0000
0100
0000
0001
0000
0010
0100
0000
0010
0000
1000
0000
0010
0001
0000
,
2002
0000
0000
0000
,
0000
0000
3003
0000
,
0220
0000
0000
0000
,
0330
0000
0000
0000
0001
0000
1000
0100
0010
0000
0001
0000
0100
0000
0010
0000
,
1000
0000
0001
0100
0001
0000
1000
0000
0100
0000
0010
0000
0001
0000
0100
0000
,
0010
0000
1000
0001
1000
0000
0100
0000
0010
0000
0100
0000
1000
0000
0010
1000
,
0001
0000
0000
0001
0010
0000
0000
0010
1000
0000
0000
1000
0010
0000
0000
0010
,
0001
0100
0010
0100
0001
0010
0100
1000
,
0010
0000
1000
0001
1000
0000
0100
0000
0010
0000
0001
0000
0100
0000
0010
0000
,
1000
0000
0001
0010
0001
0000
1000
0000
0100
0000
1000
0000
0010
0000
0100
0001
,
1000
0000
0000
1100
0000
0000
0100
0000
0010
0000
0000
0011
0000
0000
0001
0000
,
1000
0010
0100
0001
1000
1000
0001
0001
,
0100
0000
0010
1000
0001
0000
0010
0000
0100
0000
0010
0000
0001
0000
0100
0000
,
0010
0000
1000
0100
0010
0000
0001
0000
0100
0000
0001
0000
0010
0000
0100
1000
,
0001
0000
0000
0001
0100
0000
0000
0100
1000
0000
0000
1000
0100
0000
0000
0100
,
0010
1000
0100
0010
0001
0100
0001
1000
,
0100
0000
0010
0100
1000
0000
0010
0000
0100
0000
0001
0000
0100
0000
0010
0000
,
1000
0000
0010
0100
0001
0000
1000
0000
0100
0000
0010
0000
0001
0000
1000
0001
,
1000
0000
0100
00M0
0100
0000
0001
0000
1000
0000
0010
0M00
0010
0000
0001
0000
,
1000
0000
0100
0000
0010
0000
0001
0000
0100
0000
0000
0110
0000
0000
1001
0000
,
1000
1000
0100
0100
0010
0010
0001
0001
,
4000
0004
0000
0000
0000
0000
0000
0000
0000
0000
0000
0000
0000
0000
0000
0000
,
3003
0000
0000
0000
,
0000
0000
0000
0000
,
0000
0000
0000
0000
,
0000
0000
0000
0000
,
0000
0000
0000
0000
1001
0000
0001
0100
,
0000
1000
0100
0000
0001
0010
0000
1000
,
0010
0000
0001
1000
0001
1000
0001
0000
,
1000
0100
0000
0010
0001
0000
1000
0001
,
0000
1000
0000
0000
0000
0000
0000
0000
,
0000
0000
0000
0000
,
0000
0000
0000
0000
,
0000
0000
0000
0000
,
0000
0000
0000
0000
1001
0000
0001
0100
,
0000
1000
0100
0000
0001
0010
0000
1000
,
0010
0000
0001
1000
0001
1000
0001
0000
,
1000
0100
0000
0010
0001
0000
1000
0001
,
0000
1000
0001
0000
0101
0101
0000
1001
,
1001
0000
1100
1100
0000
0001
2002
0000
,
0000
0000
0000
0000
,
0000
0000
0000
0000
,
0000
0000
3003
0000
;

//--------------- dance-single - Gpop XO BR+ FS+ SJ- ----------------
#NOTEDATA:;
#STEPSTYPE:dance-single;
#DESCRIPTION:Gpop XO BR+ FS+ SJ-;
#DIFFICULTY:Challenge;
#METER:14;
#RADARVALUES:0,0,0,0,0;
#NOTES:
0000
0000
0000
0000
,
0000
0000
0000
0000
,
0000
0000
0000
0000
,
1000
0000
0100
0000
0010
0000
0001
0000
1000
0000
0001
0000
0100
00M0
0100
0000
1000
0000
0001
0000
0040
0000
0000
0000
0031
0000
1000
0000
0100
0000
0010
0000
,
0001
0010
0100
1000
0010
0100
0001
1000
0011
1100
0011
1100
0011
1100
0011
1100
,
0000
2002
0000
0000
,
0000
0000
0000
0000
0000
0000
0000
0000
3003
0000
0000
0000
1000
0001
1000
0001
,
1000
0001
1000
0001
1000
0001
1000
0001
1000
0001
1000
0000
0110
0000
0000
0000
,
2000
0000
0000
0000
3001
0000
1000
0001
0100
0010
2000
0000
3200
0000
0310
0000
,
0001
0010
0001
1000
0010
0000
0100
0000
0001
0010
0100
1000
0010
0000
0100
0000
,
0001
0000
0000
0000
0100
00M0
0100
0000
1000
0000
0000
0000
0001
0000
1000
0000
0010
0000
1000
0000
0002
0000
0000
0000
2003
0000
0000
0000
3100
0000
0000
0000
,
1000
0100
0010
0001
1000
0010
0100
0001
1000
0000
0100
0000
0001
0000
0100
0000
,
0020
0000
0000
0000
0000
0000
0000
0000
0031
0000
0000
0000
1000
0000
0100
0000
1000
0000
0001
0000
0200
0000
0000
0000
0320
0000
0000
0000
0130
000M
0100
0000
,
1000
0000
0000
0000
0100
00M0
0100
0000
0001
0000
0000
0000
1000
0000
0000
0000
0001
0000
0010
0M00
0010
0000
2000
0000
0000
0000
3001
0000
0100
0000
0001
0000
,
1000
0000
0100
0000
0010
0000
0001
0000
1000
0000
0000
0000
0010
0000
1000
0000
0001
0000
0000
0000
0100
0000
0001
0000
0100
00M0
0100
0000
1000
0000
0000
0000
,
0001
0010
0100
0010
0002
0000
1003
0000
0011
1000
0011
1000
0011
0000
1000
0000
,
1002
0000
0000
0000
0103
0000
0001
0010
0100
1000
0002
0000
0023
0000
0031
0000
,
0100
0010
1000
0010
0100
0000
0001
1000
0100
0010
0001
0000
0200
0000
0320
0000
,
2030
0000
0000
0000
3100
00M0
0100
0000
0001
0000
0000
0000
1000
0000
0100
0000
0010
0000
0100
0000
1000
0000
0000
0000
0002
0000
0000
0000
0203
0000
0000
0000
,
0301
0010
0100
1000
0001
0100
0010
1000
0001
0000
0010
0000
1000
0000
0010
0000
,
0210
0000
0000
1300
0001
0000
1000
0010
0100
0010
1000
0000
0002
0000
0013
0000
,
0210
0000
0000
1300
0001
0000
1000
0100
0010
0001
0100
0000
0020
0000
1030
0000
,
0001
0010
0100
0004
0003
0100
1000
0010
0100
4000
3000
0100
,
0001
0000
0010
0000
0100
0000
0004
0000
0003
0000
0100
0000
0000
0000
0000
0010
0000
0000
0101
0000
0000
0000
0000
0000
,
1001
1000
0100
0002
0000
0103
0010
0001
0100
2000
0000
3100
,
0010
1000
0100
0002
0000
0103
1020
0000
0031
1000
0010
0100
,
0001
0010
0100
0002
0000
0103
0010
0001
0100
2000
0000
3100
,
0001
0010
0100
0002
0000
0103
2010
0000
3001
0010
0001
0100
,
0010
1000
0010
0002
0000
0013
0100
0001
0010
2000
0000
3010
,
0100
1000
0010
0002
0000
0013
2100
0000
3001
0010
0100
1000
,
0001
0100
0010
0002
0000
0013
1000
0100
0010
2000
0000
3010
,
0001
0100
0010
0002
0000
0013
1100
0000
0000
0000
0000
0000
,
1002
0000
1003
0011
0000
1000
0011
0000
,
0100
0011
0000
0100
0011
0000
0100
0011
,
0000
0100
1010
0000
0100
1010
0000
0100
,
1010
0000
0100
0011
0000
0100
0011
1000
,
0101
0000
1000
0101
0000
1000
0101
0000
,
0010
0101
0000
0010
0101
0000
0010
0101
,
1000
0001
1000
0000
0101
0000
1000
0100
1000
0000
0011
0000
0100
0010
0100
0000
,
0001
0000
0010
0000
0100
0000
1000
0000
0010
0000
0100
0000
0010
0000
1000
0000
0100
00M0
0100
0000
0001
0000
1000
0000
0020
0000
0000
0000
0000
0000
0030
0000
,
2002
0000
0000
0000
,
0000
0000
0000
0000
,
3003
0000
0000
0000
,
1000
0000
0001
0000
1000
0100
0010
0001
1000
0010
1000
0001
0000
0000
0000
0000
,
0000
0000
0000
0000
,
0000
0000
0000
0000
,
0000
0000
0000
0000
,
0000
0000
0000
0000
0000
0000
1000
0100
,
0010
0001
1000
0010
0100
0001
1000
0100
,
0010
0100
1000
0001
0000
0000
0000
0000
,
0000
0000
0000
0000
,
0000
0000
0000
0000
,
0000
0000
0000
0000
,
0000
0000
0000
0000
0000
0000
1000
0100
,
0010
0001
1000
0010
0100
0001
1000
0100
,
0010
0100
1000
0001
0000
0000
0000
0000
,
0000
0000
0000
0000
,
0000
0000
0000
0000
,
0000
0000
0000
0000
,
0000
0000
0000
0000
0001
0010
0100
1000
,
0001
1000
0001
0000
1000
0000
0001
1000
0001
0000
0100
0000
0010
0000
1000
0000
,
0001
1000
0001
0000
0000
0000
0000
0000
0000
0000
0000
0000
0000
0000
0000
0000
,
0000
0000
0000
0000
,
0000
0000
0000
0000
,
0000
0000
0000
0000
,
0000
0000
0000
0000
0001
0010
0100
1000
,
0001
1000
0001
0000
1000
0000
0001
1000
0001
0000
0100
0000
0010
0000
1000
0000
,
0001
1000
0001
0000
0000
0000
0000
0000
0000
0000
0000
0000
0000
0000
0000
0000
,
0000
0000
0000
0000
,
0000
0000
0000
0000
,
0000
0000
0000
0000
,
0000
0000
2000
0000
3100
0002
0000
0103
,
0020
0000
0130
2000
0000
3100
0020
0000
,
0031
0100
0010
1000
0002
0000
0103
2000
,
0000
3100
0020
0000
0130
0002
0000
1003
,
0000
0000
0000
0000
,
0000
0000
0000
0000
,
0000
0000
0000
0000
,
0000
0000
0000
0000
,
0000
0000
2000
0000
3100
0002
0000
0103
,
0020
0000
0130
2000
0000
3100
0020
0000
,
0031
0100
0010
1000
0002
0000
0103
2000
,
0000
3100
0020
0000
0130
0002
0000
1003
,
0000
0000
0000
0000
,
0000
0000
0000
0000
,
0000
0000
0000
0000
,
0000
0000
0000
0000
,
0002
0000
0000
0000
1003
0000
0001
0000
1000
0010
1000
0000
0001
0000
0100
0000
,
0010
0000
2000
0000
0000
0000
3001
0000
0010
0001
0010
0000
0100
0000
1000
0000
,
0001
0000
0100
0000
0020
0000
0000
0000
0130
0001
0100
0000
0001
0000
1000
0000
,
0100
1000
0100
0000
1000
0000
0001
0000
1000
0001
1000
0000
0000
0000
0000
0000
,
0000
0000
0000
0000
,
0000
0000
0000
0000
,
0000
0000
0000
0000
,
0000
0000
0000
0000
,
0002
0000
0000
0000
1003
0000
0001
0000
1000
0010
1000
0000
0001
0000
0100
0000
,
0010
0000
2000
0000
0000
0000
3001
0000
0010
0001
0010
0000
0100
0000
1000
0000
,
0001
0000
0100
0000
0020
0000
0000
0000
0130
0001
0100
0000
0001
0000
1000
0000
,
0100
1000
0100
0000
1000
0000
0001
0000
1000
0001
1000
0000
0004
0000
0000
0000
,
1003
0000
0011
1000
0000
0011
0100
0000
0001
0000
1000
0000
0010
0000
1100
0001
,
0000
0000
1000
0000
0100
0000
1010
0001
0000
1100
0000
0011
0000
1100
0001
0000
,
1000
0000
0101
1000
0000
0101
0010
0000
0001
0000
0100
0000
0010
0000
1100
0001
,
0000
0000
1000
0000
0010
0000
1100
0001
0000
1010
0000
0101
0000
1010
0100
0000
,
1000
0000
0101
1010
0000
0101
1010
0000
0001
0000
1100
0000
0011
0000
1100
0011
,
0000
0000
1000
0000
0100
0000
1010
0101
0000
1010
0000
0001
0000
1100
0011
0000
,
1000
0000
0011
1100
0000
0011
1100
0000
0001
0000
1010
0000
0101
0000
1010
0101
,
0000
0000
1000
0000
0001
0000
1100
0011
0000
1100
0000
0001
0000
1010
0101
0000
,
2002
0M00
00M0
0M00
,
00M0
0M00
0M00
30M3
,
0220
M000
000M
M000
,
033M
0000
0000
0000
1000
0000
0001
0010
0100
0000
1000
0000
0010
0000
0100
0000
,
0001
0000
1000
0000
0100
0000
1000
0000
0001
0000
0000
0000
0100
00M0
0100
0000
1000
0000
0000
0000
0001
0000
0000
0000
0010
0000
0000
0000
0001
0000
0000
0000
,
0100
0000
0010
0000
1000
0000
0001
0000
1000
0000
0000
0000
0100
00M0
0100
0000
0001
0000
0000
0000
0100
0000
0000
0000
0010
0000
1000
0000
0001
0000
0010
0000
,
0100
0000
1000
0100
0010
0000
0100
0010
100M
0000
0010
0100
1000
0000
0010
0100
,
0001
0000
0100
0000
0010
0000
1000
0000
0001
1000
0100
0010
0100
1000
0001
0000
,
1000
0000
0100
0000
0010
0000
0001
0000
1000
0000
0000
0000
0100
00M0
0100
0000
0001
0000
0000
0000
0100
0000
0000
0000
0010
0000
0000
0000
1000
0000
0000
0000
,
0001
0000
0010
0000
0100
0000
1000
0000
0001
0000
0000
0000
0100
00M0
0100
0000
1000
0000
0000
0000
0010
0000
0000
0000
0100
0000
0001
0000
1000
0000
0001
0000
,
1100
0000
0001
1100
0001
0000
1100
0000
0011
0000
1000
0011
1000
0000
0001
0000
,
1100
0001
1000
0010
0100
0001
1000
0100
1000
0000
0010
0000
0100
0000
0001
0000
,
1000
0000
0100
0000
0010
0000
0100
0000
1000
0000
0000
0000
0100
00M0
0100
0000
0001
0000
0000
0000
0100
0000
0000
0000
0010
0000
0000
0000
1000
0000
0000
0000
,
0001
0000
0010
0000
0100
0000
0010
0000
0001
0000
0000
0000
0010
0M00
0010
0000
1000
0000
0000
0000
0001
0000
0000
0000
1000
0000
0010
0000
1000
0000
0001
0000
,
0100
0000
0010
1000
0001
0000
0010
0100
M001
0000
0100
0010
0001
0000
1000
0001
,
0100
0000
0001
0000
1000
0000
0100
0000
0010
0100
0010
0001
1000
0010
1000
0000
,
0001
0000
1000
0000
0100
0000
1000
0000
0001
0000
0000
0000
0100
00M0
0100
0000
1000
0000
0000
0000
0001
0000
0000
0000
0100
0000
0000
0000
0001
0000
0000
0000
,
1000
0000
0100
0000
0010
0000
0100
0000
1000
0000
0000
0000
0100
00M0
0100
0000
0001
0000
0000
0000
1000
0000
0000
0000
0010
0000
1000
0000
0001
0000
0100
0000
,
0011
1000
0001
0100
0011
0100
0010
1000
,
0001
1000
0100
0010
0100
1000
0001
0100
0011
0000
0000
1100
0000
0000
0011
0000
,
1000
0100
0010
0100
1000
0001
0100
0001
1000
0010
0100
0010
1000
0001
0010
0001
,
1000
0100
1000
0010
0100
0001
0010
0001
0100
0010
1000
0100
1000
0010
0100
0001
,
0000
0000
0000
0000
,
0000
0000
0000
0000
,
0000
0000
0000
0000
,
0000
0000
0000
0000
,
0000
0000
0000
0000
0000
0000
0000
0000
0000
0000
0000
0000
0000
0000
0000
0000
1000
0000
0000
0000
0100
00M0
0100
0000
0001
0000
0000
0000
1000
0000
0000
0000
,
0010
0M00
0010
0000
0001
0000
0000
0000
1000
0000
0000
0000
0100
00M0
0100
0000
0001
0000
0000
0000
1000
0000
0000
0000
0010
0000
0000
0000
0100
0000
0000
0000
,
0001
1000
0001
0000
1000
0000
0100
0010
0001
0000
1000
0000
0020
0000
0000
0000
,
1030
0001
1000
0000
0100
0000
0010
0001
2000
0000
0000
0000
3100
0000
0002
0000
,
0000
0103
0000
0000
0000
0000
0000
0000
,
0000
0000
0000
0000
,
0000
0000
0000
0000
,
0000
0000
0000
0000
,
0000
0000
0000
0000
0000
0000
0000
0000
0000
0000
0000
0000
0000
0000
0000
0000
1000
0000
0000
0000
0100
00M0
0100
0000
0001
0000
0000
0000
1000
0000
0000
0000
,
0010
0M00
0010
0000
0001
0000
0000
0000
1000
0000
0000
0000
0100
00M0
0100
0000
0001
0000
0000
0000
1000
0000
0000
0000
0010
0000
0000
0000
0100
0000
0000
0000
,
0001
1000
0001
0000
1000
0000
0100
0010
0001
0000
1000
0000
0020
0000
0000
0000
,
1030
0001
1000
0000
0100
0000
0010
0001
2000
0000
0000
0000
3100
0000
0002
0000
,
0000
0103
1000
0000
1001
1001
0000
0101
,
0101
0000
1100
1100
0000
0001
2002
0000
,
0000
0000
0000
0000
,
0000
0000
0000
0000
,
0000
0000
3003
0000
;
