#TITLE:TRIGGER★HAPPY;
#SUBTITLE:(Hommarju Remix);
#ARTIST:P*Light;
#TITLETRANSLIT:;
#SUBTITLETRANSLIT:;
#ARTISTTRANSLIT:;
#GENRE:;
#CREDIT:;
#BANNER:Trigger Happy (Hommarju Remix) - bn.png;
#BACKGROUND:Trigger Happy (Hommarju Remix) - bg.png;
#LYRICSPATH:;
#CDTITLE:gpopcdtitle.png;
#MUSIC:TRIGGER HAPPY (Hommarju Remix).ogg;
#OFFSET:0.009;
#SAMPLESTART:28.803;
#SAMPLELENGTH:19.199;
#SELECTABLE:YES;
#DISPLAYBPM:100.000:200.000;
#BPMS:0.000=200.000,60.000=-200.003,64.000=200.000,68.000=-200.002,72.000=200.000,76.000=-200.003,80.000=200.000,84.000=-200.003,88.000=200.000,156.000=-200.001,160.000=200.000,341.000=100.000,361.000=200.000,392.000=-200.003,396.000=200.000,456.000=-200.002,460.000=200.000,493.000=-200.002,497.000=200.000,505.000=100.000;
#STOPS:68.000=0.300
,76.000=0.300
,84.000=0.300
;
#BGCHANGES:;
#KEYSOUNDS:;

//---------------dance-single - Gpop----------------
#NOTES:
     dance-single:
     Gpop:
     Hard:
     9:
     0.740,1.000,0.240,0.364,0.497:
0000
0000
0000
0000
,
0000
0000
0000
0000
,
0000
0000
0000
0000
,
0000
0000
0000
0000
,
0000
0000
0000
0000
,
0000
0000
0000
0000
,
0000
0000
0000
0000
,
0000
0000
0000
0000
,
1200
0000
0000
0000
0310
0000
0012
0000
0000
0000
0000
0000
0103
0000
0010
1000
,
0002
0000
0000
0013
0100
1000
0100
1000
,
0020
0000
0000
0000
0130
0000
0102
0000
0000
0000
0000
0000
1003
0000
0100
0010
,
0001
1000
0001
1000
0040
0000
0000
0000
,
0230
0000
0000
0000
0310
0000
2010
0000
0000
0000
0000
0000
3001
0000
0010
0001
,
1000
0000
0010
0000
0100
0000
0001
1000
0100
0000
0010
0000
0002
0000
0000
0000
,
2003
0000
0000
0000
3020
0000
0000
0000
0430
0004
0000
0000
0000
0000
0000
0303
,
0M0M
0000
0000
0000
M00M
0000
M000
0000
0M00
0000
0000
0M00
0000
0000
00M0
0000
,
000M
M000
00M0
0M00
000M
0000
0000
0000
,
MMM0
000M
0MM0
000M
MMM0
0000
0000
0000
,
0000
0000
0000
0000
,
MMM0
000M
0MM0
M000
MMMM
0000
0000
0000
,
0000
0000
0000
0000
,
00M0
0MM0
00M0
00M0
0MMM
0000
0000
0000
,
0000
0000
0000
0000
,
0000
0000
0000
0000
1001
0000
1000
0000
0100
0000
0000
0100
0000
0000
0010
0000
,
0001
0000
1000
0000
001M
0000
0100
0000
0001
0000
0000
0001
0000
0000
0010
0000
,
0100
0000
1000
0000
00M1
0000
1000
0000
0010
0000
0000
0010
0000
0000
0100
0000
,
0001
0010
0100
0000
1100
0000
1000
0001
,
0400
0000
0310
1000
0001
0100
0001
1000
,
0100
0010
0100
0010
0001
0010
0100
1000
,
0001
0000
0100
0000
0040
0400
0000
0000
0000
0000
0000
0000
0000
0000
0000
0000
,
0000
0000
0330
1000
0000
0001
0011
0000
,
1100
0000
0000
0000
1001
0000
0001
0000
1000
0100
0000
1000
0000
0000
0010
0000
,
0100
0000
0001
0000
0010
0000
0100
0000
1000
0001
0000
1000
0000
0000
0010
0000
,
0100
0000
0010
0000
1000
0000
0100
0000
0010
0001
0000
0010
0000
0000
0001
0000
,
1000
0010
1000
0100
0001
0100
1000
0010
,
0200
0000
0000
0000
0301
0000
0010
0000
0001
1000
0000
0010
0000
0000
0100
0000
,
0001
0000
0010
0000
0100
0000
1000
0000
0001
1000
0000
0001
0000
0000
0100
0000
,
0010
1000
0010
0000
0100
0000
0001
0000
0010
0001
0000
0010
0000
0000
0001
0000
,
1000
0010
0100
0001
0100
0001
0200
0000
,
03M0
0000
00M0
0000
00M0
0000
00M0
0000
00M0
0000
00M0
0000
00MM
0000
0000
0000
0000
0000
M000
0000
0000
0000
0000
0000
000M
0000
0000
0M00
0000
0000
0000
0000
0000
00M0
0000
0000
0000
0000
0000
0000
0000
0000
0M00
0000
0000
0000
0000
0000
,
000M
M000
0M00
00M0
000M
0000
0000
0000
,
00M0
0000
00M0
0000
00M0
0000
00M0
0000
00M0
0000
00M0
0000
00M1
0000
0000
0000
0000
0000
1000
0000
0000
0000
0000
0000
0001
0000
0000
0100
0000
0000
0000
0000
0000
0010
0000
0000
0000
0000
0000
0000
0000
0000
0100
0000
0000
0000
0000
0000
,
0001
0000
1000
0000
0100
0000
0010
0000
0001
1000
0000
0010
0000
0000
0100
0000
,
0001
0000
0010
0000
0100
0000
1000
0000
0001
1000
0000
0010
0000
0000
0100
0000
,
0001
1000
0001
0100
1000
0100
0001
1000
,
0200
0000
0000
0000
0310
0000
0001
0000
1000
0001
0000
1000
0000
0000
0010
0000
,
0100
0001
0011
0000
0010
0100
1100
0000
,
0010
0000
1001
0000
0101
0000
0100
0010
,
1000
0000
0001
0000
0010
0000
0001
1000
0001
0000
0100
0000
0010
0000
1000
0001
,
0400
0000
0310
0000
1000
1001
0000
0011
,
0000
2200
0000
0000
0000
0000
0000
0000
,
3300
0000
0000
0000
0001
0000
1000
0000
0004
0040
0000
0000
0000
0000
0000
0000
,
0033
M000
000M
M000
,
0110
0000
1001
1000
0010
0100
0004
0000
,
0013
0100
0010
0001
4000
0000
3010
0100
,
0010
0000
1000
0000
0001
0010
0001
0000
1000
0000
0010
0000
0400
0000
0000
0000
,
0301
0000
1000
0000
0100
0000
0100
0000
0100
0000
0100
0000
0010
0001
0000
0000
,
2000
0000
3001
0100
0001
1000
0400
0000
,
0310
0000
0001
1000
0000
0000
0010
0100
0004
0000
0000
0000
1003
0000
0100
0000
,
0010
0002
2003
3040
,
0130
0000
0000
0000
0001
0000
1000
0000
0001
0000
1000
0000
0001
0010
0000
0000
,
0002
0000
2003
0000
3010
0100
0004
0000
,
4003
3200
0340
0032
,
2003
0000
3010
0100
0020
0000
4030
0000
,
3200
0000
0310
0001
0010
0100
2000
0000
,
3004
0000
0103
0000
0010
1010
0000
1000
,
0001
0010
0100
0100
1000
0001
0100
0010
,
2000
0000
3001
0000
0010
0001
0001
0100
,
0040
0000
1030
0001
1000
0001
0020
0000
,
0230
0000
2300
0000
0000
3001
0400
0000
,
0320
0000
1030
0001
0001
0010
0100
1000
,
0100
0010
0020
0000
0000
0031
4000
0000
,
3200
0000
0310
0001
0001
1000
0010
0100
,
0010
1000
2000
0000
0000
3001
0040
0000
,
0032
0000
1003
0010
0010
0100
0001
1000
,
0001
0010
0020
0000
0000
0130
4000
0000
,
3002
0000
0000
0000
0103
0000
0010
0000
0010
0000
1000
0000
0001
1000
0001
0000
,
0100
0010
0020
0000
0000
1030
0004
0000
,
0023
0000
0130
1000
0100
0010
0004
0000
,
0003
1000
0020
0000
0000
0130
0004
0000
,
0023
0000
0130
1000
0100
0010
0001
0100
,
0010
0000
1010
0000
1000
0001
0000
0001
,
0010
0000
0100
0000
1000
0100
0000
0100
,
0010
0000
0001
0000
0000
0000
0011
0000
0000
0001
0000
0000
1001
0000
0000
1000
,
0000
0000
1010
0000
0000
0000
0101
0000
0000
0100
0000
0000
0110
0000
0000
0010
,
0000
1010
2002
0000
0000
0000
0000
0000
,
3003
0000
0000
0000
0000
0000
0000
0000
1000
0000
0100
0000
1000
0000
0100
0000
0010
0000
0000
0010
0000
0000
0010
0000
0001
0000
1000
0000
1000
0000
0010
0000
,
0100
0000
0000
0100
0000
0000
0100
0000
0001
0000
1000
0000
0001
0000
1000
0000
0100
0000
0000
0100
0000
0000
0100
0000
0010
0000
0001
0000
1000
0000
0001
0000
,
0100
0000
0000
0100
0000
0000
0100
0000
0010
0000
1000
0000
0010
0000
1000
0000
0001
0000
0000
0001
0000
0000
0001
0000
0010
0000
0100
0000
0100
0000
1000
0000
,
0010
0000
0000
0010
0000
0000
0010
0000
1000
0000
0001
0000
0100
0000
0001
0000
1000
0000
0000
1000
0000
0000
1000
0000
0100
0000
0010
0000
0001
0000
1000
0000
,
0010
0100
000M
0000
1M1M
0000
0000
0000
1000
0000
0000
0000
0001
0000
0000
0000
,
0010
0100
1000
0001
,
0001
0010
0001
0100
,
0010
1000
1000
0001
,
0010
0000
0100
1000
0100
0010
0001
1000
,
0010
1000
0001
0100
0001
0010
0100
1000
,
0001
0000
0100
0000
0002
0000
0000
0000
2003
0000
0000
0000
3100
0010
0100
0010
,
0100
0010
0100
0010
0001
0000
0001
0000
1000
0000
0010
0000
0100
0000
0001
0000
,
M000
M000
M000
M000
M000
M000
MM0M
0000
0000
0000
0000
0000
0000
0000
0000
0000
0000
0000
M000
0000
0000
0M00
0000
0000
,
00M0
000M
0000
00M0
0M00
0000
0000
0000
0000
0000
0000
0000
0000
0000
0000
0000
,
M000
M000
M000
M000
M000
M000
M102
0000
0000
0000
0000
0000
0000
0000
0000
0000
0000
0000
1003
0000
0000
0100
0000
0000
,
0010
0001
0000
0010
0200
0000
0000
0000
0000
0000
0000
0000
1300
0000
0001
0000
,
0100
0010
0000
0100
0001
0000
1000
0000
0001
0000
1000
0000
0010
0000
0100
0000
,
0010
0100
0001
0100
0001
0100
0010
1000
,
0010
0000
1000
0000
0001
0000
0010
0000
0100
0000
1000
0000
0400
0040
0000
0000
,
0000
0000
0000
0330
0000
0000
1001
0000
0000
0000
1100
0000
1100
0000
0000
0000
,
0011
0000
0000
0000
1001
0000
1000
0000
0010
0100
0000
0001
0000
0000
1000
0000
,
0100
0000
0010
0000
0001
0000
1000
0000
0010
1000
0000
0001
0000
0000
0010
0000
,
0100
0000
1000
0000
0001
0000
0100
0000
0001
0010
0000
0100
0000
0000
0010
0000
,
0001
1000
0001
0010
1000
0010
0001
0100
,
0020
0000
0000
0000
1030
0000
0100
0000
0010
0100
0000
0010
0000
0000
0001
0000
,
1000
0000
0010
0000
0100
0000
0001
0000
1000
0100
0000
1000
0000
0000
0001
0000
,
0100
0000
0010
0000
1000
0000
0001
0000
0010
0001
0000
0100
0000
0000
0010
0000
,
1000
0001
0100
0010
0100
0010
2000
0000
,
3M00
0000
0M00
0000
0M00
0000
0M00
0000
0M00
0000
0M00
0000
0M0M
0000
0000
0000
0000
0000
M000
0000
0000
0000
0000
0000
00M0
0000
0000
M000
0000
0000
0000
0000
0000
000M
0000
0000
0000
0000
0000
0000
0000
0000
00M0
0000
0000
0000
0000
0000
,
0M00
0000
M000
0000
00M0
M000
0000
000M
0000
0000
0000
0000
0000
0000
0000
0000
,
0M00
0000
0M00
0000
0M00
0000
0M00
0000
0M00
0000
0M00
0000
0M01
0000
0000
0000
0000
0000
1000
0000
0000
0000
0000
0000
0010
0000
0000
1000
0000
0000
0000
0000
0000
0001
0000
0000
0000
0000
0000
0000
0000
0000
0010
0000
0000
0000
0000
0000
,
0100
0000
1000
0000
0010
0000
0100
0000
0010
1000
0000
0001
0000
0000
0010
0000
,
0100
0000
1000
0000
0001
0000
1000
0000
0010
1000
0000
0001
0000
0000
0010
0000
,
0001
0100
0001
0010
1000
0001
0100
1000
,
0020
0000
1030
0001
0100
0001
1000
0100
,
0010
0000
0001
0000
0010
0000
0100
0010
0100
0000
0010
0000
0001
0000
1000
0001
,
1000
0000
0001
0000
0400
0040
0000
0000
0000
0000
0000
0000
0000
0000
0000
0000
,
0000
0000
0000
0000
0000
0000
M330
M000
M000
M000
M000
M000
M00M
0000
0000
000M
0000
0000
M000
0000
0000
0000
0000
0000
,
0M00
M00M
0000
0000
,
0000
0000
0000
0000
0000
0000
M000
M000
M000
M000
M000
M000
M001
0000
0000
0001
0000
0000
2000
0000
0000
0000
0000
0000
,
3010
2002
0000
0000
,
0000
0000
0000
0000
,
0000
3003
0000
0000
;

//---------------dance-single - Gpop----------------
#NOTES:
     dance-single:
     Gpop:
     Challenge:
     12:
     1.000,1.000,0.302,0.480,1.000:
0000
0000
0000
0000
,
0000
0000
0000
0000
,
0000
0000
0000
0000
,
0000
0000
0000
0000
,
0000
0000
0000
0000
,
0000
0000
0000
0000
,
0000
0000
0000
0000
,
0000
0000
0000
0000
,
1100
0000
1000
0000
0001
0000
0101
0000
0000
0000
0000
0000
0100
0000
0010
1000
,
0001
0010
0100
1100
4000
0000
3004
0000
,
0103
0000
0010
0000
1000
0000
1001
0000
0000
0000
0000
0000
0001
0000
0010
0001
,
4000
0000
3040
0000
0130
0100
0100
0100
,
0001
0000
1000
0000
0100
0000
0110
0000
0000
0000
0010
0000
0001
0000
1000
0010
,
0100
0000
0010
0000
1000
0000
0100
0010
0001
0000
0000
1000
0000
0000
0010
0000
,
0400
0000
0000
0000
0304
0000
0000
0000
1003
0100
0010
0100
0010
0001
1000
0001
,
M000
0000
0000
0000
0M0M
0000
0M00
0000
00M0
M000
0000
00M0
0000
0000
M000
0000
,
000M
00M0
0MM0
0M00
M000
0000
0000
0000
,
MMM0
000M
0MM0
000M
MMM0
0000
0000
0000
,
0000
0000
0000
0000
,
MMM0
000M
0MM0
M000
MMMM
0000
0000
0000
,
0000
0000
0000
0000
,
00M0
0MM0
00M0
00M0
00M0
0000
0000
0000
,
0000
0000
0000
0000
,
0000
0000
0000
0000
0101
0000
0100
0000
0010
1000
0000
0010
0000
0000
1000
0000
,
0001
0000
0010
0000
0110
0000
0100
0000
1000
0001
0000
1000
0000
0000
0010
0100
,
0010
1000
0001
0000
0011
0000
0010
0000
0100
1000
0000
0100
0000
0000
0010
0000
,
0001
0000
1000
0000
0010
0100
0010
1000
0001
0010
0100
1000
0001
0100
0010
1000
,
0004
0000
0013
0100
0010
0100
1000
0001
,
1000
0001
0100
0010
0100
0001
1000
0100
,
0010
0000
0001
0000
0010
0100
0010
0100
1000
0100
0010
0001
1000
0010
1000
0010
,
0100
0010
1000
0001
1000
0100
1000
0100
1000
0100
1000
0100
0010
0001
1000
0010
,
0100
0000
0000
0000
1001
0000
0001
0000
1000
0010
0000
0200
0000
0000
0301
0000
,
0010
0000
0001
0000
1000
0000
0100
0000
0010
0001
0000
2000
0000
0000
3010
0100
,
0001
1000
0001
0000
0010
0000
0001
0000
1000
0010
0000
0200
0000
0000
0301
0000
,
0010
0000
0100
0000
0010
0001
0010
0100
1000
0001
0100
0010
0100
0001
1000
0001
,
0020
0000
0000
0000
0031
0000
1000
0000
0010
0100
0000
0002
0000
0000
0013
0000
,
0100
0000
0010
0000
0001
0000
1000
0000
0010
1000
0000
0002
0000
0000
0013
0100
,
0010
0001
1000
0000
0010
0000
1000
0000
0001
0010
0000
0002
1000
0000
1003
0000
,
0010
0000
0010
0000
0100
0000
0100
0001
0100
0000
0100
0000
0002
0000
0000
0000
,
M003
0000
M000
0000
M000
0000
M000
0000
M000
0000
M000
0000
M0MM
0000
0000
0000
0000
0000
00M0
0000
0000
0000
0000
0000
0M00
0000
0000
M000
0000
0000
0000
0000
0000
000M
0000
0000
0000
0000
0000
0000
0000
0000
00M0
0000
0000
0000
0000
0000
,
000M
0000
M000
00M0
0M00
0000
00M0
0000
M000
0000
0000
0000
0000
0000
0000
0000
,
M000
0000
M000
0000
M000
0000
M000
0000
M000
0000
M000
0000
MM11
0000
0000
0000
0000
0000
0010
0000
0000
0000
0000
0000
0100
0000
0000
1000
0000
0000
0M00
0000
0000
0002
0000
0000
0000
0000
0000
0000
0000
0000
0013
0000
0000
0000
0000
0000
,
0001
0000
1000
0010
010M
0000
0010
0000
1000
0010
000M
0200
M000
0000
0301
0010
,
M100
0010
0001
0000
10M0
0000
0001
0000
0100
0001
00M0
2000
0000
0000
3001
0000
,
0010
0000
0100
1000
0001
0100
0001
0100
0010
1000
0010
1000
0001
0010
0100
1000
,
0004
0000
0000
0000
M103
0000
0010
0000
0100
0001
M000
0020
0000
0000
0130
0000
,
1000
0000
0001
0000
0101
0000
0100
0010
1000
0000
0001
1000
0100
0000
0010
0000
,
0002
0000
0000
0000
1003
0000
0010
0000
0100
0001
0000
1000
0100
0010
0100
0010
,
0001
1000
0010
1000
0001
0000
0100
0010
1000
0000
0001
0000
1000
0000
0100
0010
,
0004
0000
1003
0000
1010
1001
0000
0011
,
0000
0220
0000
0000
0000
0000
0000
0000
,
0330
0000
0000
0000
1000
0000
1000
0000
0001
0100
0001
0010
0100
1000
0001
1000
,
0010
0100
0100
0100
,
0110
0000
0000
0000
1001
0000
1000
0000
0100
0000
0010
0000
0001
0100
0001
1000
,
0100
0000
0010
0001
1000
0010
1000
0001
0010
0100
0010
0100
1000
0000
0001
0000
,
0100
0000
0010
0000
1000
0001
1000
0000
0001
0000
0010
0000
0100
1000
0100
0010
,
0001
0000
1000
0010
0100
0000
0100
0000
0100
0000
0100
0000
0001
2000
0000
0000
,
3002
0000
0000
0000
0013
0100
0000
1000
0001
0100
0001
1000
0100
0010
0100
0010
,
0001
1000
0000
0010
0000
0000
0100
0001
1000
0100
1000
0100
0010
0001
1000
0000
,
0010
0000
0100
0001
0000
1000
0000
0100
0010
0001
0000
1000
0010
0100
0010
0100
,
0001
0000
1000
0000
0001
0000
0001
0000
0001
0000
0001
0000
1000
0020
0000
0000
,
0430
0000
0000
0000
0302
0000
0000
0000
0013
0000
0010
0000
0100
1000
0001
0100
,
0040
0000
0000
0000
2030
0000
0000
0000
3100
0010
0001
1000
0002
0000
0000
0000
,
0203
0000
0000
0000
0310
0000
1000
0000
0002
0000
0000
0000
1003
0100
0010
0100
,
2000
0000
3001
0100
0010
1000
0002
0000
,
0043
0000
0130
0000
1000
1001
0000
0001
,
0100
0010
1010
1010
1000
0001
0010
0100
,
4000
0000
3001
0000
0100
0110
0010
0000
,
4000
0000
3010
0010
0010
0010
2000
0000
,
3002
0000
0000
0000
0023
0000
0000
0000
0000
0000
0130
0000
1000
0001
1000
0001
,
0200
0000
0320
0000
0100
0000
1030
0001
,
0000
0000
0001
0000
0020
0000
0000
0000
0000
0000
0031
0000
1000
0010
1000
0001
,
0020
0000
0000
0000
0230
0000
0300
0000
0200
0000
1300
0000
0001
0100
0010
0100
,
0002
0000
1000
0000
2003
0000
0000
0000
0000
0000
3010
0000
0100
0001
0100
0001
,
0020
0000
0230
0000
1000
0000
1300
0010
,
0000
0000
0010
0000
0200
0000
0000
0000
0000
0000
0310
0000
1000
0001
1000
0001
,
0020
0000
0000
0000
0130
1000
0100
0010
0002
0000
0000
0000
1003
0010
1000
0000
,
0004
0000
0003
0000
2000
0000
0000
0000
0000
0000
3100
0000
0010
0001
0010
0100
,
0020
0000
0034
0403
0340
4030
3004
0000
,
0203
0000
0000
0000
0320
0000
0000
0000
1000
0000
1030
0000
0001
0010
0100
1000
,
0002
0000
4003
3040
0430
0304
0043
0430
,
1300
0000
0004
0000
0103
0040
0000
1030
,
0004
0000
4003
0000
3100
0040
0000
0034
,
4003
0000
3040
0000
0030
0000
1010
0000
0000
0110
0000
0000
0101
0000
0000
1001
,
0000
0000
1100
0000
0000
0000
0110
0000
0000
0011
0000
0000
1001
0000
0000
1010
,
0000
0101
2002
0000
0000
0000
0000
0000
,
3M03
00M0
0M00
00M0
0M00
00M0
0000
0000
0000
0000
0000
0000
0000
0000
0000
0000
1000
0000
0000
0000
0001
0000
0000
0000
0100
0000
0000
0000
0001
0000
0000
0000
0010
0000
0000
0000
0100
0000
1000
0000
0000
0000
0001
0000
0100
0000
0000
0000
0010
0000
0000
0000
1000
0000
0001
0000
1000
0000
0000
0000
0100
0000
0000
0000
,
0010
0000
0001
1000
0001
0000
0100
0001
0100
0000
0010
0000
1000
0000
0001
0000
0010
0000
0100
0010
0000
0001
0010
0000
0100
0000
1000
0000
0001
0000
0100
0000
,
0010
0000
1000
0001
1000
0000
0001
0100
0001
0000
0010
0000
0001
0000
0100
0000
0010
0000
1000
0010
0000
0100
0001
0000
1000
0000
0100
0010
0100
0000
0010
0000
,
0001
0000
1000
0001
0010
0000
0001
1000
0010
0000
0100
0000
0010
0000
1000
0000
0001
0000
0010
0100
0000
0010
0001
0000
M100
0000
0010
0000
M100
0000
0001
0000
,
M010
0000
0100
0010
000M
0000
0000
0000
2MM1
0000
0000
0000
0000
0000
0000
0000
3010
0000
0000
0000
2000
0000
0000
0000
0000
0000
0000
0000
3001
0000
0000
0000
,
0010
0000
0100
1000
0002
0000
0000
0000
0003
0000
1000
0000
0001
0000
0001
0000
,
1000
1000
0020
0000
0130
0020
0000
1030
,
0001
0000
0010
0100
1000
0000
1000
0000
0001
0000
0001
0000
0100
0000
0010
0000
,
0010
0010
1000
0001
1000
0001
0010
0100
,
0010
0100
1000
0100
0010
0001
1000
0010
,
1000
0000
0001
0000
0100
0010
0100
0010
1000
0001
0010
0100
1000
0100
0010
0001
,
1000
0001
0100
0001
0010
0000
0010
0000
0100
0000
1000
0000
0002
0000
0100
0000
,
M003
0000
M000
0000
M000
0000
M000
0000
M000
0000
M000
0000
M0MM
0000
0000
0000
0000
0000
00M0
0000
0000
0000
0000
0000
0M00
0000
0000
M000
0000
0000
0000
0000
0000
0M00
0000
0000
00M0
0000
0000
0000
0000
0000
0000
0000
0000
0000
0000
0000
,
0000
0000
000M
M000
000M
0000
0000
0000
,
M000
0000
M000
0000
M000
0000
M000
0000
M000
0000
M000
0000
M011
0000
0000
0000
0000
0000
0010
0000
0000
0000
0000
0000
0100
0000
0000
1000
0000
0000
0000
0000
0000
0100
0000
0000
0020
0000
0000
0000
0000
0000
000M
0000
0000
0000
0000
0000
,
M000
000M
0000
M000
0031
0000
1000
0000
0001
0010
0000
0001
2000
0000
0M00
0000
,
00M0
000M
0000
00M0
3100
0000
1000
0001
1000
0000
0001
0100
0001
0000
0100
0010
,
0100
0001
1000
0001
0010
0000
0100
0000
1000
0000
0001
0000
0100
0010
1000
0001
,
0040
0000
0000
0000
0130
1000
0100
0010
0001
1000
0010
1000
0001
0100
0001
0100
,
0010
1000
0001
1000
0000
0000
1100
0000
0000
0000
0110
0000
0110
0000
0000
0000
,
1001
0000
0000
0000
0101
0000
0100
0000
0010
1000
0000
0002
0000
0000
0013
0000
,
0100
0000
0010
0000
0001
0000
1000
0000
0010
1000
0000
0002
0000
0000
0013
0100
,
0010
0100
1000
0000
0001
0000
0100
0000
0001
1000
0000
0200
0000
0000
0310
0000
,
0001
0000
1000
0000
0010
1000
0010
0100
0001
1000
0100
0010
0001
0010
0100
1000
,
0002
0000
0000
0000
0013
0000
0100
0000
0010
0001
0000
2000
0000
0000
3010
0000
,
0100
0000
0001
0000
1000
0000
0100
0000
0010
0001
0000
0200
0000
0000
0310
1000
,
0001
0010
0100
0000
1000
0000
0010
0000
0100
0001
0000
2000
0100
0000
3100
0000
,
0100
0000
0100
0000
1000
0000
1000
0010
1000
0000
1000
0000
0002
0000
0000
0000
,
00M3
0000
00M0
0000
00M0
0000
00M0
0000
00M0
0000
00M0
0000
M0MM
0000
0000
0000
0000
0000
M000
0000
0000
0000
0000
0000
000M
0000
0000
00M0
0000
0000
0000
0000
0000
000M
0000
0000
0000
0000
0000
0000
0000
0000
M000
0000
0000
0000
0000
0000
,
00M0
0000
0M00
000M
M000
0000
0M00
0000
M000
0000
0000
0000
0000
0000
0000
0000
,
00M0
0000
00M0
0000
00M0
0000
00M0
0000
00M0
0000
00M0
0000
1MM1
0000
0000
0000
0000
0000
1000
0000
0000
0000
0000
0000
0001
0000
0000
0010
0000
0000
0M00
0000
0000
0002
0000
0000
0000
0000
0000
0000
0000
0000
1003
0000
0000
0000
0000
0000
,
0010
0000
0100
0001
10M0
0000
0100
0000
1000
0001
00M0
2000
0M00
0000
3001
0010
,
0M01
1000
0010
0100
M001
0000
0010
0000
0001
0100
M000
0020
0000
0000
0130
0000
,
0001
0000
1000
0000
0100
0010
0100
0010
0001
1000
0010
0100
0001
1000
0100
1000
,
0002
0000
0103
0010
1000
0001
1000
0100
,
0010
0000
0001
0000
0011
0000
0010
0100
1000
0000
0001
0000
0101
0000
0100
0010
,
1000
0000
0001
0000
1000
0100
0010
0100
0010
0001
1000
0010
0100
0001
0100
0001
,
1000
0000
0000
0100
0000
0000
0010
0000
0000
0001
0000
0000
M000
0000
M000
0000
M000
0000
M000
0000
M000
0000
M000
0000
MM0M
0000
0000
0000
0000
0000
000M
0000
0000
0000
0000
0000
00M0
0000
0000
0000
0000
0000
0000
0000
0000
0000
0000
0000
,
0M00
0000
0000
0000
0000
0000
0000
0000
M00M
0000
000M
0000
M000
0000
00M0
0000
M000
0000
000M
00M0
0000
000M
M000
0000
00M0
0000
0000
0000
0000
0000
0000
0000
,
0000
0000
0000
0000
0000
0000
M000
M000
M000
M000
M000
M000
M101
0000
0000
0001
0000
0000
0020
0000
0000
0000
0000
0000
,
0430
0000
0000
0000
0000
0000
0300
0000
10M1
0000
0001
0000
1000
0000
0010
0000
1000
0000
0001
0010
0000
0001
1000
0000
0010
0000
0100
0001
0100
0000
0010
0000
,
1000
0000
0001
0010
0001
0000
1000
0010
1000
0000
0001
0000
0010
0000
0001
0000
0100
0000
0010
1000
0000
0010
0100
0000
0001
0000
1000
0000
0100
0000
0010
0000
,
0001
0000
1000
0010
1000
0000
0001
0010
0002
0000
0000
0000
0000
0000
0000
0000
0000
0000
0000
0000
0000
0000
0000
0000
0000
0000
0000
0000
0000
0000
0000
0000
,
0003
0000
0000
0000
;

//---------------dance-single - Gpop----------------
#NOTES:
     dance-single:
     Gpop:
     Medium:
     7:
     0.506,0.618,0.261,0.117,0.055:
0000
0000
0000
0000
,
0000
0000
0000
0000
,
0000
0000
0000
0000
,
0000
0000
0000
0000
,
0000
0000
0000
0000
,
0000
0000
0000
0000
,
0000
0000
0000
0000
,
0000
0000
0000
0000
,
1100
0000
0000
0100
0000
0000
1000
0010
,
0100
0000
0000
0010
1000
0000
1000
0000
,
0011
0000
0000
0001
0000
0000
0010
0100
,
1000
0000
1000
0000
0001
1000
0001
1000
,
0010
0000
0000
0010
0000
0000
0100
0001
,
1000
0000
0100
0000
0010
0001
1000
0000
,
0001
0000
0000
0000
0001
0000
0000
0000
0400
0000
0000
0000
0000
0000
0000
0300
,
MMMM
M00M
0000
M000
,
0000
0M00
0000
0000
,
MMM0
000M
0MM0
000M
,
MMM0
0000
0000
0000
,
MMM0
000M
0MM0
M000
,
MMMM
0000
0000
0000
,
00M0
0MM0
00M0
00M0
,
0MMM
0000
0000
0000
,
0000
1001
0000
1000
,
0000
0100
0000
0010
,
0000
0001
0000
0100
,
0000
0000
0010
0000
1000
0000
0100
0010
,
0001
1001
0001
0100
,
0010
1010
1000
1100
,
0100
0000
0110
0000
0011
0000
1000
0001
,
0100
0010
1000
0001
0000
0001
0100
0000
,
0110
0000
0000
0000
1001
0000
0000
0000
1000
0000
0000
1000
0000
0000
0000
0000
,
0010
0000
0000
0000
0100
0000
0000
0000
0100
0000
0000
0100
0000
0000
0000
0000
,
0001
0000
0000
0000
0010
0000
0000
0000
0010
0000
0000
0010
0000
0000
0000
0000
,
0100
0000
1000
0000
0001
0000
0100
0010
,
1000
0000
0000
0000
0001
0000
0000
0000
0001
0000
0000
0001
0000
0000
0000
0000
,
0100
0000
0000
0000
0010
0000
0000
0000
0010
0000
0000
0010
0000
0000
0000
0000
,
1000
0000
0000
0000
0100
0000
0000
0000
0100
0000
0000
0100
0000
0000
0000
0000
,
0010
0000
0001
1000
0001
1000
0002
0000
,
0003
0000
MM00
0000
M000
000M
0000
000M
,
0M00
0000
00M0
0000
M000
00M0
0000
0000
,
0000
0000
1100
0000
1000
0001
0000
0001
,
0100
0000
0010
0000
1000
0010
0100
0000
,
0100
0000
0001
0000
0010
0100
0000
0100
,
1000
0000
0001
0000
0001
0000
1000
0010
,
1000
0010
0100
0000
0001
1000
0000
1000
,
0100
0011
0100
1010
,
1001
0000
0011
0000
0011
0000
0010
0100
,
1000
0001
0100
0000
0100
0000
0020
0000
,
0030
0000
1001
0000
1000
0001
0000
0001
,
0000
0202
0000
0000
0000
0000
0000
0000
,
0303
0040
0000
0000
,
0030
0M00
0M00
0M00
,
0110
0000
1001
0000
1000
0000
0010
0100
,
0001
0000
0010
0000
0100
1000
0001
0000
,
0100
0000
0010
0000
0100
0000
0001
1000
,
0100
0000
0010
0001
0010
0001
1000
0000
,
0010
0000
0100
0000
0100
0000
0001
0010
,
0100
0000
0010
0000
0001
1000
0001
0000
,
0100
0000
0010
0000
0010
0000
1000
0100
,
0010
0000
0001
1000
0001
1000
0010
0000
,
0100
0000
0001
0000
0010
0010
0100
1000
,
0001
0000
0100
0000
0010
1000
0001
0000
,
0010
0000
0001
1000
0010
0000
0100
0001
,
1000
0000
0100
0010
0100
0010
0001
0000
,
1000
0000
0101
0000
0001
1000
0000
0000
,
0100
0000
0010
0001
0010
0000
0001
0000
,
1000
0000
0010
0000
0100
0001
1000
0000
,
0001
0000
1000
0100
1000
0100
0010
0000
,
0001
0000
1000
0000
0001
1000
0000
1000
,
0000
0000
0000
0100
0010
0001
1000
0010
,
1000
0000
0001
0000
0010
0100
0000
0100
,
0000
0000
0000
1000
0001
0100
0010
0100
,
0010
0000
1000
0000
0001
0010
0000
0010
,
0000
0000
0000
0100
1000
0001
0100
0010
,
0100
0000
0001
0000
0010
0001
0000
0001
,
0000
0000
0000
1000
0010
0100
0001
0000
,
1000
0000
0100
0000
0010
0001
0000
0001
,
0000
1000
0010
0200
,
0300
0000
0001
0000
0010
0100
0000
0100
,
0000
1000
0001
0100
,
0010
0000
2000
0000
0000
3002
0000
0000
,
0023
0000
0230
0000
0000
2300
0000
3001
,
0100
0000
0010
0000
0000
0000
1000
0000
0000
1000
0000
0000
0001
0000
0000
0001
,
0000
0000
0010
0000
0000
0000
0100
0000
0000
0100
0000
0000
0010
0000
0000
0010
,
0000
0001
2002
0000
0000
0000
0000
0000
,
3003
0000
1000
0001
0100
0000
0010
1000
,
0001
0010
0100
1000
0010
0000
0100
0001
,
1000
0100
1000
0001
0100
0000
0010
1000
,
0001
0010
0100
1000
0001
0000
0100
0100
,
0100
1MM1
1000
0100
,
0010
0001
0100
0010
,
0100
0001
0010
0100
,
1000
0001
1000
0010
,
0100
0000
0001
0000
0010
0100
0000
0100
,
1000
0000
0001
0000
0100
0010
1000
0000
,
0001
0000
0010
0000
0010
0000
0100
1000
,
0001
0100
0010
0000
0010
0000
1000
0000
,
0000
0000
M00M
0000
000M
00M0
0M00
0000
,
0000
0000
M000
0000
00M0
0M00
0000
0000
,
0000
0000
1001
0000
0001
0010
0200
0000
,
0000
0000
1300
0000
0010
0100
0002
0000
,
0000
1003
1100
0001
,
0101
1000
1010
0001
,
0011
0000
1000
0000
0001
0000
0100
0010
,
1000
0001
0000
1000
0000
0001
0100
0000
,
1001
0000
0000
0000
0011
0000
0000
0000
0001
0000
0000
0001
0000
0000
0000
0000
,
0100
0000
0000
0000
0010
0000
0000
0000
0010
0000
0000
0010
0000
0000
0000
0000
,
1000
0000
0000
0000
0100
0000
0000
0000
0100
0000
0000
0100
0000
0000
0000
0000
,
0010
0000
0001
0000
1000
0000
0010
0100
,
0001
0000
0000
0000
1000
0000
0000
0000
1000
0000
0000
1000
0000
0000
0000
0000
,
0100
0000
0000
0000
0010
0000
0000
0000
0010
0000
0000
0010
0000
0000
0000
0000
,
0001
0000
0000
0000
0100
0000
0000
0000
0100
0000
0000
0100
0000
0000
0000
0000
,
0010
0000
1000
0001
1000
0001
0020
0000
,
0030
0000
M00M
0000
M000
0M00
0000
0M00
,
00M0
0000
000M
0000
0M00
00M0
0000
0000
,
0000
0000
1001
0000
1000
0100
0000
0100
,
0010
0000
0001
0000
0100
0010
1000
0000
,
1000
0000
0001
0000
0010
0001
0000
0001
,
0100
0000
0010
0000
0010
0000
1000
0010
,
1000
0010
0100
0000
0001
0010
0000
0010
,
0100
1100
0001
0101
,
1100
0000
1001
0000
1001
0000
0001
0100
,
0010
1000
0000
0000
0MM0
0M00
00M0
0000
,
0M00
M00M
0000
0000
,
0000
0000
0000
0000
0110
0100
0010
0000
,
0100
2002
0000
0000
,
0000
0000
0000
0000
,
0000
0000
0000
3003
;

//---------------dance-single - Gpop----------------
#NOTES:
     dance-single:
     Gpop:
     Easy:
     4:
     0.347,0.396,0.096,0.117,0.000:
0000
0000
0000
0000
,
0000
0000
0000
0000
,
0000
0000
0000
0000
,
0000
0000
0000
0000
,
0000
0000
0000
0000
,
0000
0000
0000
0000
,
0000
0000
0000
0000
,
0000
0000
0000
0000
,
1000
0000
0000
1000
0000
0000
0000
0000
,
0001
0000
0001
0001
,
0100
0000
0000
0100
0000
0000
0000
0000
,
0010
0010
1000
0001
,
0010
0000
0000
0010
0000
0000
0000
0000
,
0100
0000
1000
0001
,
0100
0100
0020
0000
,
0030
M00M
0000
0000
,
0000
0000
0000
0000
,
0000
M00M
0000
0000
,
0000
0000
0000
0000
,
0000
M00M
0000
0000
,
0000
0000
0000
0000
,
0000
M00M
0000
0000
,
0000
0000
0000
0000
,
0000
1001
1000
0010
,
0000
0101
0001
1000
,
0000
1100
0100
0010
,
0000
0001
1000
0010
,
0100
0001
1000
0001
,
1000
0010
0100
0010
,
0100
0001
0010
0100
,
1000
0001
0001
2000
,
3000
1001
1000
0001
,
0100
0010
1000
0001
,
0010
0100
0010
0100
,
1000
0001
0001
1000
,
0010
0100
0001
0010
,
0100
0010
0100
1000
,
0001
0100
0010
1000
,
0001
1000
1000
2000
,
3000
0000
0000
0000
,
0000
0000
0000
0000
,
0000
0000
0000
0001
,
0010
0100
1000
0001
,
0100
0001
0010
0100
,
0010
0001
0100
0010
,
1000
0001
0100
0001
,
1000
1010
0000
0101
,
0000
1001
0001
0010
,
0100
1000
1000
2000
,
3000
0000
0101
0000
0000
0001
0000
1000
,
0000
0200
0000
0000
0000
0000
0000
0000
,
0000
0300
0000
0000
,
0000
0001
0001
0001
,
0000
1000
0001
0100
,
0010
0100
0010
1000
,
0100
0010
0100
0010
,
0001
0010
0100
1000
,
0001
0100
0001
0100
,
0010
1000
0001
0010
,
0100
1000
0001
0010
,
0100
2000
0000
3001
,
0100
0010
1000
0001
,
0010
0100
1000
0001
,
0100
0001
0010
0100
,
1000
0001
0100
0010
,
1000
0000
1001
0000
0000
0001
0000
0000
,
0010
0000
0100
0000
0000
0100
0000
0000
,
1000
0000
0001
0000
0000
0001
0000
0000
,
0100
0010
0010
1000
,
0001
0021
0000
0130
,
0000
1000
0001
0100
,
0000
0020
0000
1030
,
0000
0001
0010
0100
,
0000
2000
0000
3001
,
0000
0100
0010
0100
,
0000
0002
0000
0013
,
0000
0100
1000
0001
,
0000
2000
0000
3001
,
0000
0100
0010
1000
,
0000
0200
0000
0310
,
0000
0001
0010
0100
,
1000
0000
0001
0000
0000
0001
0000
0000
,
0001
0000
1000
0000
0000
1000
0000
0000
,
0010
0000
0000
0100
0000
0000
0100
0000
,
0000
0100
0000
0001
0000
0000
0001
0000
,
0000
2002
0000
3003
,
0000
1000
0100
0010
,
0000
0001
1000
0010
,
0000
0100
0001
0010
,
0000
0100
1000
0001
,
0000
0000
1000
0000
0000
1000
0000
0000
,
0000
0001
0000
0100
,
0100
0000
0010
0000
0000
0010
0000
0000
,
0000
1000
1000
0001
,
0001
0000
0010
0000
0000
0010
0000
0000
,
0100
1000
0000
0001
,
0100
0010
0010
2000
,
0000
3001
0010
0100
,
0000
0000
0000
0000
,
0000
0000
0000
0000
,
0000
0000
0000
1000
,
0000
0101
0000
0001
,
0000
1000
1000
1000
,
1000
0001
0001
0001
,
0001
0100
0100
0100
,
0100
0000
0000
0000
,
0000
1001
0001
0010
,
0100
1000
0010
1000
,
0100
0010
0001
0100
,
0010
1000
0001
0010
,
0100
1000
0010
1000
,
0100
0010
0001
0100
,
0010
1000
0010
0100
,
0001
0010
0010
0010
,
0000
0000
0000
0000
,
0000
0000
0000
0000
,
0000
0000
0000
1000
,
0001
0100
0010
0100
,
0001
0010
0100
1000
,
0001
0100
0100
0010
,
1000
0001
0010
0100
,
1000
0001
0001
1000
,
1000
0010
0100
0001
,
0010
0000
0000
0000
,
0000
0000
0000
0000
,
0000
0000
0000
0000
,
0000
2002
0000
0000
,
0000
0000
0000
0000
,
0000
3003
0000
0000
;

//---------------dance-single - Gpop----------------
#NOTES:
     dance-single:
     Gpop:
     Beginner:
     2:
     0.136,0.216,0.034,0.000,0.000:
0000
0000
0000
0000
,
0000
0000
0000
0000
,
0000
0000
0000
0000
,
0000
0000
0000
0000
,
0000
0000
0000
0000
,
0000
0000
0000
0000
,
0000
0000
0000
0000
,
0000
0000
0000
0000
,
1000
0000
0000
0000
,
1000
0000
0000
0000
,
0001
0000
0000
0000
,
0001
0000
0000
0000
,
0100
0000
0000
0000
,
0100
0000
0000
0000
,
0010
0000
0000
0000
,
0000
0000
0000
0000
,
0000
0000
0000
0000
,
0000
0000
0000
0000
,
0000
0000
0000
0000
,
0000
0000
0000
0000
,
0000
0000
0000
0000
,
0000
0000
0000
0000
,
0000
0000
0000
0000
,
0000
0000
0000
0000
,
0000
1000
0000
0000
,
0000
0001
0000
0000
,
0000
0001
0000
0000
,
0000
0100
0000
0000
,
0000
0010
0000
0000
,
0000
0100
0000
0000
,
0000
0001
0000
0000
,
0000
1000
0000
1000
,
0000
0001
0000
0001
,
0000
0010
0000
0010
,
0000
0100
0000
0000
,
0000
1000
0000
1000
,
0000
0010
0000
0010
,
0000
0100
0000
0100
,
0000
0001
0001
0001
,
0000
0000
0000
0000
,
0000
0000
0000
0000
,
0000
0000
0000
0000
,
0000
0001
0000
0001
,
0000
1000
0000
1000
,
0000
0010
0000
0010
,
0000
0100
0000
0100
,
0000
0001
0000
0001
,
0000
0001
0000
1000
,
0000
0100
0000
0000
,
0000
0110
0000
0000
,
0000
0000
0000
0000
,
0000
0100
0000
0000
,
0000
0000
0000
0000
,
0000
1000
0000
0000
,
0000
0001
0000
0000
,
0000
0100
0000
0000
,
0000
0010
0000
0000
,
0000
1000
0000
0000
,
0000
0001
0000
0000
,
0000
0010
0000
0000
,
0000
0001
0000
0001
,
0000
0100
0000
0000
,
0000
0010
0000
0000
,
0000
1000
0000
0000
,
0000
0001
0000
0000
,
0000
0010
0000
0000
,
0000
0010
0000
0000
,
0000
0100
0000
0000
,
0000
1000
0000
1000
,
0000
0001
0000
0000
,
0000
0100
0000
0000
,
0000
0010
0000
0000
,
0000
1000
0000
0000
,
0000
0001
0000
0000
,
0000
0010
0000
0000
,
0000
0100
0000
0000
,
0000
1000
0000
0000
,
0000
0001
0000
0000
,
0000
0010
0000
0010
,
0000
0100
0000
0000
,
0000
1000
0000
1000
,
0000
0001
0000
0000
,
0000
0100
0000
0000
,
0000
0010
0000
0000
,
0000
0010
0000
0000
,
0000
1001
0000
0000
,
0000
1000
0000
0100
,
0000
0010
0000
0001
,
0000
1000
0000
0010
,
0000
0100
0000
0001
,
0000
1000
0000
0000
,
0000
1000
0000
0000
,
0000
0001
0000
0000
,
0000
0001
0000
0000
,
0000
0010
0000
0000
,
0000
0100
0000
0000
,
0000
1000
0000
0000
,
0000
0001
0000
0000
,
0000
0000
0000
0000
,
0000
0000
0000
0000
,
0000
0000
0000
0000
,
0000
1001
0000
0000
,
0000
1000
0000
1000
,
0000
0001
0000
0001
,
0000
0100
0100
0100
,
0100
0000
0000
0000
,
0000
0110
0000
0000
,
0000
0001
0000
0001
,
0000
0010
0000
0010
,
0000
0100
0000
0000
,
0000
1000
0000
1000
,
0000
0010
0000
0010
,
0000
0100
0000
0100
,
0000
0001
0001
0001
,
0000
0000
0000
0000
,
0000
0000
0000
0000
,
0000
0000
0000
0000
,
0000
1000
0000
1000
,
0000
0100
0000
0100
,
0000
0010
0000
0000
,
0000
0001
0000
0001
,
0000
0100
0000
0100
,
0000
0010
0000
1000
,
0000
0000
0000
0000
,
0000
0000
0000
0000
,
0000
0000
0000
0000
,
0000
1001
0000
0000
;
