#VERSION:0.83;
#TITLE:THE VILLAIN'S NIGHT;
#SUBTITLE:;
#ARTIST:Caper Parade;
#TITLETRANSLIT:;
#SUBTITLETRANSLIT:;
#ARTISTTRANSLIT:;
#GENRE:;
#CREDIT:;
#MUSIC:THE VILLAIN'S NIGHT.ogg;
#BANNER:THE VILLAIN'S NIGHT - bn.png;
#BACKGROUND:THE VILLAIN'S NIGHT - bg wide.png;
#CDTITLE:gpopcdtitle.png;
#SAMPLESTART:64.924;
#SAMPLELENGTH:13.713;
#SELECTABLE:YES;
#OFFSET:1.719;
#BPMS:0.000=140.000
,278.000=70.000
,278.250=140.000
,278.500=280.000
,279.000=140.000
;
#STOPS:40.000=0.857;
#WARPS:28.000=12.000;
#DISPLAYBPM:140.000;
#BGCHANGES:3.000=THE VILLAIN'S NIGHT.avi=1.000=1=0=0=StretchNoLoop==CrossFade==,
99999.000=-nosongbg-=1.000=0=0=0=StretchNoLoop====
;
#FGCHANGES:0.000=Villain=1.000=0=0=1;

//--------------- dance-single - Gpop ----------------
#NOTEDATA:;
#STEPSTYPE:dance-single;
#DESCRIPTION:;
#CREDIT:Gpop;
#DIFFICULTY:Beginner;
#METER:1;
#RADARVALUES:0.121,0.147,0.025,0,0;
#NOTES:
0000
0000
0000
0000
,
0000
0000
0000
0000
,
0000
0000
0000
0000
,
0000
0000
0000
0000
,
0000
0000
0000
0000
,
0000
0000
0000
0000
,
0000
0000
0000
0000
,
0000
0000
0000
0000
,
0000
0000
0000
0000
,
0000
0000
0000
0000
,
0000
0000
1000
0000
,
1000
0000
0001
0000
,
0001
0000
0100
0000
,
0100
0000
0000
0000
,
0010
0000
1000
0000
,
0000
0000
0001
0000
,
0000
0000
0010
0000
,
0010
0000
0100
0000
,
0100
0000
1000
0000
,
0000
0000
0010
0000
,
0000
0000
0110
0000
,
0000
0000
0001
0000
,
0000
0000
1000
0000
,
0000
0000
0100
0000
,
0000
0000
0010
0000
,
0010
0000
0001
0000
,
1000
0000
0010
0000
,
0000
0000
0100
0000
,
0000
0000
0001
0000
,
1000
0000
0001
0000
,
0010
0000
0100
0000
,
0000
0000
1000
0000
,
0000
0000
0010
0000
,
0000
0000
0100
0000
,
0000
0000
0001
0000
,
0000
0000
1000
0000
,
0000
0000
0001
0000
,
0001
0000
1000
0000
,
1000
0000
0010
0000
,
0010
0000
0010
0010
,
0010
0010
0000
0000
,
0000
0000
1000
0000
,
1000
0000
0100
0000
,
0100
0000
0010
0000
,
0010
0000
0001
0000
,
0001
0000
1000
0000
,
0010
0000
1000
0000
,
0010
0000
0100
0000
,
0001
0000
0100
0000
,
0001
0000
1000
0000
,
1000
0000
0000
0000
,
0001
0000
0010
0000
,
0010
0000
0100
0000
,
1000
0000
0001
0000
,
0100
0000
0010
0000
,
1000
0000
0001
0000
,
0010
0000
0100
0000
,
0100
0000
0010
0000
,
0001
0000
1000
0000
,
1000
0000
0001
0000
,
0001
0000
1000
0000
,
0000
1001
0000
0000
,
0001
0000
0100
0000
,
0010
0000
1000
0000
,
0000
0000
0001
0000
,
0000
0000
0100
0000
,
0100
0000
0010
0000
,
0100
0000
0001
0000
,
0000
0000
1000
0000
,
1000
0000
0000
1000
,
1000
0000
0000
1001
0000
0000
0000
0000
;

//--------------- dance-single - Gpop ----------------
#NOTEDATA:;
#STEPSTYPE:dance-single;
#DESCRIPTION:;
#CREDIT:Gpop;
#DIFFICULTY:Easy;
#METER:3;
#RADARVALUES:0.22,0.276,0.075,0.133,0;
#NOTES:
0000
0000
0000
0000
,
0000
0000
0000
0000
,
0000
0000
0000
0000
,
0000
0000
0000
0000
,
0000
0000
0000
0000
,
0000
0000
0000
0000
,
0000
0000
0000
0000
,
0000
0000
0000
0000
,
0000
0000
0000
0000
,
0000
0000
0000
0000
,
0000
0000
1000
0000
,
0001
0100
0001
0000
,
1000
0100
1000
0000
,
0002
0000
0000
0003
,
1000
0000
0001
0000
,
0100
0000
0010
1000
,
0001
0000
1000
0000
,
0100
0010
0001
0001
,
1000
0000
0010
0000
,
0100
0000
0001
1000
,
0001
0000
1001
0000
,
0000
0000
1100
0000
,
0000
0001
0100
0000
,
0010
0000
1000
0100
,
0010
0000
0100
0000
,
1000
0001
0100
0100
,
0010
0000
0100
0000
,
0001
0000
1000
0010
,
0100
0000
0010
0010
,
1000
1000
0001
0010
,
0001
0000
2000
0000
,
3002
0000
0203
0000
,
0010
0000
0302
0000
,
0023
0000
0200
0000
,
0330
0000
2000
0000
,
3020
0000
0230
0000
,
0301
1000
0100
0000
,
0010
0000
0001
0000
,
1000
0000
0001
0101
,
1000
1100
0001
0100
,
0010
1000
0000
0000
,
0000
0000
0001
0010
,
1000
0010
0001
0010
,
0100
0000
1000
0010
,
0001
0010
1000
0010
,
0100
0000
0001
0100
,
1000
0100
0001
0100
,
0010
0000
1000
0100
,
0001
0100
1000
0100
,
0010
0000
0002
0000
,
2000
0000
0000
3003
,
1000
0000
0001
0001
,
0100
0100
0010
0000
,
1000
0000
0001
0010
,
1000
0010
0001
0100
,
0010
0000
1000
0100
,
0001
0100
1000
0010
,
0100
0000
0001
0010
,
1000
0001
0100
1000
,
0001
0000
1100
0000
,
0101
0000
1001
0000
,
0000
1001
1000
0000
,
0010
0100
0010
0000
,
1000
0001
0010
0000
,
0200
0000
0000
0300
,
1000
0001
0100
0000
,
0010
1000
0010
0000
,
0100
0001
0100
0000
,
0020
0000
0000
0030
,
1000
1000
0000
0001
,
0001
0000
0000
2002
0000
0000
0000
0000
,
0000
0000
0000
0000
,
0000
0000
0000
0000
,
0000
0000
3003
0000
;

//--------------- dance-single - Gpop ----------------
#NOTEDATA:;
#STEPSTYPE:dance-single;
#DESCRIPTION:;
#CREDIT:Gpop;
#DIFFICULTY:Medium;
#METER:4;
#RADARVALUES:0.337,0.398,0.192,0.383,0.017;
#NOTES:
0000
0000
0000
0000
,
0000
0000
0000
0000
,
0000
0000
0000
0000
,
0000
0000
0000
0000
,
0000
0000
0000
0000
,
0000
0000
0000
0000
,
0000
0000
0000
0000
,
0000
MMMM
0000
0000
0000
0000
0000
0000
0000
0000
0000
0000
0000
0000
0000
0000
0000
0000
0000
0000
0000
0000
0000
0000
0000
0000
0000
0000
0000
0000
0000
0000
0000
0000
0000
0000
0000
0000
0000
0000
0000
0000
0000
0000
0000
0000
0000
0000
0000
0000
0000
0000
0000
0000
0000
0000
0000
0000
0000
0000
0000
0000
0000
0000
0000
0000
0000
0000
0000
0000
0000
0000
0000
0000
0000
0000
0000
0000
0000
0000
0000
0000
0000
0000
0000
0000
0000
0000
0000
0000
0000
0000
0000
0000
0000
0000
0000
0000
0000
0000
0000
0000
0000
0000
0000
0000
0000
0000
0000
0000
0000
0000
0000
0000
0000
0000
0000
0000
0000
0000
0000
0000
0000
0000
0000
0000
0000
0000
0000
0000
0000
0000
0000
0000
0000
0000
0000
0000
0000
0000
0000
0000
0000
0000
0000
0000
0000
0000
0000
0000
0000
0000
0000
0000
0000
0000
0000
0000
0000
0000
0000
0000
0000
0000
0000
0000
0000
0000
0000
0000
0000
0000
0000
0000
0000
0000
0000
0000
0000
0000
0000
0000
0000
0000
0000
0000
0000
0000
0000
0000
0000
0000
,
0000
0000
0000
0000
,
0000
0000
0000
0000
,
0000
MMMM
0000
0000
0000
0000
0000
0000
0000
0000
0000
0000
0000
0000
0000
0000
0000
0000
0000
0000
0000
0000
0000
0000
0000
0000
0000
0000
0000
0000
0000
0000
0000
0000
0000
0000
0000
0000
0000
0000
0000
0000
0000
0000
0000
0000
0000
0000
0000
0000
0000
0000
0000
0000
0000
0000
0000
0000
0000
0000
0000
0000
0000
0000
0000
0000
0000
0000
0000
0000
0000
0000
0000
0000
0000
0000
0000
0000
0000
0000
0000
0000
0000
0000
0000
0000
0000
0000
0000
0000
0000
0000
0000
0000
0000
0000
2000
0000
0000
0000
0000
0000
0000
0000
0000
0000
0000
0000
0000
0000
0000
0000
0000
0000
0000
0000
0000
0000
0000
0000
0000
0000
0000
0000
0000
0000
0000
0000
0000
0000
0000
0000
0000
0000
0000
0000
0000
0000
0000
0000
0000
0000
0000
0000
0000
0000
0000
0000
0000
0000
0000
0000
0000
0000
0000
0000
0000
0000
0000
0000
0000
0000
0000
0000
0000
0000
0000
0000
0000
0000
0000
0000
0000
0000
0000
0000
0000
0000
0000
0000
0000
0000
0000
0000
0000
0000
0000
0000
0000
0000
0000
0000
,
3001
0100
0020
0000
,
0130
0000
0001
0000
2000
0000
0000
3001
,
0020
0000
0000
0000
,
0200
0330
1001
1000
,
0001
0100
1000
0100
,
0002
0000
0000
1003
0100
0000
0000
0010
,
0001
1000
0001
0100
,
0020
0030
1000
1000
,
0001
0001
0010
1000
,
0020
0000
0030
0001
1000
0000
0010
0000
,
0100
0000
0001
1000
0001
0000
0000
0000
,
0000
1000
1000
0001
0001
0000
0100
0000
,
0010
1000
0100
0001
,
0200
0000
0300
1000
0001
0000
0000
0100
,
0010
0100
0001
1000
,
0200
0300
0010
0010
,
0001
0001
0100
1000
,
0200
0300
0010
1000
,
0001
0010
0100
0001
,
0200
0000
0300
0000
1000
0000
0000
1000
,
0001
0000
0000
0001
0100
0000
0000
0100
,
0010
0000
0000
1000
0001
0000
0000
0001
,
0010
0000
0000
0010
0200
0000
0000
0000
,
1300
0000
0001
0000
0100
0000
0000
0100
,
0010
0000
0000
0010
1000
0000
0000
1000
,
0001
1000
0100
0010
,
0001
0100
0010
1000
,
0001
0000
1000
0100
0100
0000
0000
0010
,
0010
0000
0000
0001
0002
0000
0100
0000
,
0010
2000
3003
0000
,
0000
0000
1100
0100
,
0011
0001
1010
1000
,
0101
0000
0000
0001
1000
0000
0101
0000
,
1000
0110
0001
1100
,
2002
3003
1100
0100
,
0101
0001
0011
0010
,
2020
3030
2000
0100
,
3002
0010
0203
0001
,
0020
0000
0330
0000
1000
0000
0001
0010
,
0200
0000
1000
1000
,
0310
0001
1002
0103
,
2001
3100
2002
3000
,
0013
0000
0001
0100
,
0010
0000
1000
0001
0010
0000
0100
0000
,
2200
3300
1000
0001
,
0100
0000
0010
1000
0100
0000
0010
0000
,
0022
0033
0001
0100
,
0010
0000
1000
0100
0010
0000
0001
0000
,
0202
0000
0000
0000
0303
0000
0000
0000
1000
0000
0000
1000
0000
0000
1000
0000
,
0001
0000
0000
0001
0000
0000
0001
0000
0200
0000
0000
0000
0000
0000
0300
0000
,
0000
0001
1000
0000
1002
0000
0000
0000
,
0023
0030
0100
0000
2000
0000
0000
0000
,
3001
0000
0100
0000
0020
0000
0000
1030
,
0002
0000
0000
0000
,
1003
0100
0020
0000
,
0130
1000
0020
0000
,
0130
0000
0001
0000
2000
0000
0000
3001
,
0020
0000
0000
0000
,
0031
1000
0001
1000
0000
0000
1100
0000
,
0101
0000
0000
2002
0000
0000
0000
0000
,
0000
0000
0000
0000
,
0000
0000
0000
0000
,
0000
0000
3003
0000
;

//--------------- dance-single - Gpop XO+ DT RS- ----------------
#NOTEDATA:;
#STEPSTYPE:dance-single;
#DESCRIPTION:XO+ DT RS-;
#CREDIT:Gpop;
#CHARTNAME:(XMOD) Vampire Saviour;
#DIFFICULTY:Hard;
#METER:8;
#RADARVALUES:0.533,0.582,0.208,0.825,0.267;
#NOTES:
0000
0000
0000
0000
,
0000
0000
0000
0000
,
0000
0000
0000
0000
,
0000
0000
0000
0000
,
0000
0000
0000
0000
,
0000
0000
0000
0000
,
0000
0000
0000
0000
,
0000
MMMM
0000
0000
0000
0000
0000
0000
0000
0000
0000
0000
0000
0000
0000
0000
0000
0000
0000
0000
0000
0000
0000
0000
0000
0000
0000
0000
0000
0000
0000
0000
0000
0000
0000
0000
0000
0000
0000
0000
0000
0000
0000
0000
0000
0000
0000
0000
0000
0000
0000
0000
0000
0000
0000
0000
0000
0000
0000
0000
0000
0000
0000
0000
0000
0000
0000
0000
0000
0000
0000
0000
0000
0000
0000
0000
0000
0000
0000
0000
0000
0000
0000
0000
0000
0000
0000
0000
0000
0000
0000
0000
0000
0000
0000
0000
0000
0000
0000
0000
0000
0000
0000
0000
0000
0000
0000
0000
0000
0000
0000
0000
0000
0000
0000
0000
0000
0000
0000
0000
0000
0000
0000
0000
0000
0000
0000
0000
0000
0000
0000
0000
0000
0000
0000
0000
0000
0000
0000
0000
0000
0000
0000
0000
0000
0000
0000
0000
0000
0000
0000
0000
0000
0000
0000
0000
0000
0000
0000
0000
0000
0000
0000
0000
0000
0000
0000
0000
0000
0000
0000
0000
0000
0000
0000
0000
0000
0000
0000
0000
0000
0000
0000
0000
0000
0000
0000
0000
0000
0000
0000
0000
,
0000
0000
0000
0000
,
0000
0000
0000
0000
,
0000
MMMM
0000
0000
0000
0000
0000
0000
0000
0000
0000
0000
0000
0000
0000
0000
0000
0000
0000
0000
0000
0000
0000
0000
0M00
0000
0000
0000
0000
0000
0000
0000
0000
0000
0000
0000
0000
0000
0000
0000
0000
0000
0000
0000
0000
0000
0000
0000
00M0
0000
0000
0000
0000
0000
0000
0000
0000
0000
0000
0000
0000
0000
0000
0000
0000
0000
0000
0000
0000
0000
0000
0000
0M00
0000
0000
0000
0000
0000
0000
0000
0000
0000
0000
0000
0000
0000
0000
0000
0000
0000
0000
0000
0000
0000
0000
0000
2001
0000
0000
0000
0000
0000
0000
0000
0000
0000
0000
0000
0000
0000
0000
0000
0000
0000
0000
0000
0000
0000
0000
0000
0000
0000
0000
0000
0000
0000
0000
0000
0000
0000
0000
0000
0000
0000
0000
0000
0000
0000
0000
0000
0000
0000
0000
0000
0000
0000
0000
0000
0000
0000
0000
0000
0000
0000
0000
0000
0000
0000
0000
0000
0000
0000
0000
0000
0000
0000
0000
0000
3100
0000
0000
0000
0000
0000
0000
0000
0000
0000
0000
0000
0010
0000
0000
0000
0000
0000
0000
0000
0000
0000
0000
0000
,
0200
0000
0000
0000
2300
0000
0000
0000
3002
0000
0000
0000
0000
0000
0103
0010
,
0200
0000
0302
0000
0023
0000
0000
0130
,
2000
0000
0000
0000
0001
0000
0000
0000
0010
0000
0000
0000
3001
0000
0100
0001
,
2000
0001
3002
0203
,
0320
0001
2030
3200
,
0320
0000
0001
0000
0031
0000
1000
0001
2000
0000
0000
0000
3000
0000
0001
0000
,
0100
1000
0001
0010
0200
0000
0302
0000
,
2003
0100
3100
0000
2000
0000
3200
0000
,
0320
1000
0032
2003
,
3020
0000
0100
0000
0130
0000
0001
1000
0001
0000
1000
0000
0100
0000
0010
0000
,
0001
0100
1000
0100
0002
0000
1003
0000
,
0001
0010
0010
0100
2000
0000
3020
0000
,
0230
1000
0320
2030
,
3002
0000
0010
0000
0013
0000
0100
1000
0002
0000
0000
0000
1003
0000
0010
0100
,
0010
1000
0100
0001
0200
0000
0320
0000
,
0032
1000
1003
0000
0002
0000
0023
0000
,
0230
0001
2300
3002
,
0203
0010
0310
0000
2000
0000
3200
0000
,
0302
1000
0203
2300
,
3020
0000
0100
0000
0130
0000
0001
1000
0001
0000
0000
0010
0000
0000
0100
0000
,
1100
0000
0000
1000
0000
0000
0001
0000
1000
0000
0000
0010
0000
0000
0100
0000
,
0101
0000
0000
0000
1001
0000
1000
0000
0100
0000
0000
0010
0000
0000
0001
0000
,
0101
0000
0000
0100
0000
0000
0010
0000
2000
0000
0000
0001
0000
0000
3001
0000
,
1001
0000
0000
0000
1100
0000
0100
0000
0010
0000
0000
0001
0000
0000
0100
0000
,
0110
0000
0000
0010
0000
0000
1000
0000
0002
0000
0000
0010
0000
0000
1003
0000
,
1001
0000
0101
0100
0010
0000
1010
0000
,
0001
0011
1000
1100
,
0001
0000
0000
0000
0101
0000
1000
0100
2000
0000
00M0
00M0
30M0
0000
0001
0100
,
0002
0000
00M0
00M0
00M3
0000
1000
0001
2000
0000
0000
0000
3200
0000
0000
0000
,
0302
0000
0000
0000
0023
0000
0000
0000
0030
0000
M000
0M00
M000
0000
0M00
0000
,
00M0
0000
000M
0000
M000
0000
0001
1000
0002
0000
0000
0010
0000
0000
1000
0000
,
2003
0000
0000
0100
0000
0000
0010
0000
3020
0000
0000
1000
0000
0000
0100
0000
,
0200
0000
0000
0000
0330
0000
0000
0000
2000
0000
0000
0001
0000
0000
0100
0000
,
3200
0000
0000
1000
0000
0000
0010
0000
0320
0000
0000
0100
0000
0000
0001
0000
,
0031
0000
1000
0000
0010
0000
0100
0001
0200
0000
0000
1000
0000
0000
1300
0000
,
2000
0000
0000
0001
0000
0000
0001
0000
3002
0000
0000
0010
0000
0000
0010
0000
,
0020
0000
0000
0000
0033
0000
0000
0000
2000
0000
0000
0001
0000
0000
0100
0000
,
3200
0000
0000
0001
0000
0000
0010
0000
0320
0000
0000
1000
0000
0000
0001
0000
,
0002
0000
0000
0000
0033
0000
0001
1000
0001
0000
0000
0100
0000
0000
0020
0000
,
2000
0030
0001
3001
,
1000
0000
0000
0001
0000
0000
0010
0000
0200
0000
0000
0000
0001
0000
0000
0000
,
0320
0000
1000
0000
0032
0000
0000
1000
,
2000
0000
0000
0000
3003
0000
0001
1000
0001
0000
0000
0100
0000
0000
0010
0000
,
0001
0000
0000
0010
0000
0000
1000
0000
0100
0000
0000
0010
0000
0000
1000
0000
,
0020
0000
0000
0000
0030
0000
0001
1000
0010
0000
0000
1000
0000
0000
0100
0000
,
0001
0000
0000
0100
0000
0000
0010
0000
0001
0000
0000
0100
0000
0000
1000
0000
,
0200
0000
0000
0000
0310
0000
1000
0001
1000
0000
0000
0001
0000
0000
0010
0000
,
1000
0000
0000
0001
0000
0000
0100
0000
1000
0000
0000
0010
0000
0000
0001
0000
,
0020
0000
0000
0000
0130
0000
0001
0000
1001
0000
0000
1001
0000
0000
1001
0000
,
0110
0000
0000
0110
0000
0000
0110
0000
2002
0000
0000
0000
3003
0000
0000
0000
,
0000
0000
1100
0000
0101
0000
0000
0000
2001
0000
0000
0000
0000
0000
3100
0010
,
0002
0000
0000
0000
0010
0000
0000
0000
2003
0000
0000
0000
0000
0000
3001
0100
,
0020
0000
0100
0000
2030
0000
0000
0001
,
0002
0000
0000
0000
0000
0000
0000
0000
3000
0000
0000
0000
0000
0000
1003
0010
,
0200
0000
0000
0000
0320
0000
0000
0000
2030
0000
0000
0000
0000
0000
3001
0010
,
0200
0000
0000
0000
1000
0000
0000
0000
0320
0000
0000
0000
0000
0000
0031
1000
,
0200
0000
0010
0000
2300
0000
0000
0010
,
0020
0000
0000
0000
3000
0000
0000
0000
0200
0000
0030
0000
0000
0000
0301
1000
,
0001
0000
0010
0000
0100
0000
1000
0000
0000
0000
0000
0000
0001
1000
0001
0000
,
1000
0001
1000
0000
0100
0000
2002
0000
0000
0000
0000
0000
0000
0000
0000
0000
,
0000
0000
0000
0000
,
0000
0000
0000
0000
,
0000
0000
3003
0000
;

//--------------- dance-single - Gpop XO+ FS+ BR- BT- RS+ ----------------
#NOTEDATA:;
#STEPSTYPE:dance-single;
#DESCRIPTION:XO+ FS+ BR- BT- RS+;
#CREDIT:Gpop;
#CHARTNAME:(XMOD) Are you ready to (spin)?;
#DIFFICULTY:Challenge;
#METER:10;
#RADARVALUES:0.769,0.796,0.175,1,0.662;
#NOTES:
0000
0000
0000
0000
,
0000
0000
0000
0000
,
0000
0000
0000
0000
,
0000
0000
0000
0000
,
0000
0000
0000
0000
,
0000
0000
0000
0000
,
0000
0000
0000
0000
,
0000
MMMM
0000
0000
0000
0000
0000
0000
0000
0000
0000
0000
0000
0000
0000
0000
0000
0000
0000
0000
0000
0000
0000
0000
0000
0000
0000
0000
0000
0000
0000
0000
0000
0000
0000
0000
0000
0000
0000
0000
0000
0000
0000
0000
0000
0000
0000
0000
0000
0000
0000
0000
0000
0000
0000
0000
0000
0000
0000
0000
0000
0000
0000
0000
0000
0000
0000
0000
0000
0000
0000
0000
0000
0000
0000
0000
0000
0000
0000
0000
0000
0000
0000
0000
0000
0000
0000
0000
0000
0000
0000
0000
0000
0000
0000
0000
0000
0000
0000
0000
0000
0000
0000
0000
0000
0000
0000
0000
0000
0000
0000
0000
0000
0000
0000
0000
0000
0000
0000
0000
0000
0000
0000
0000
0000
0000
0000
0000
0000
0000
0000
0000
0000
0000
0000
0000
0000
0000
0000
0000
0000
0000
0000
0000
0000
0000
0000
0000
0000
0000
0000
0000
0000
0000
0000
0000
0000
0000
0000
0000
0000
0000
0000
0000
0000
0000
0000
0000
0000
0000
0000
0000
0000
0000
0000
0000
0000
0000
0000
0000
0000
0000
0000
0000
0000
0000
0000
0000
0000
0000
0000
0000
,
0000
0000
0000
0000
,
0000
0000
0000
0000
,
0000
MMMM
0000
0000
0000
0000
0000
0000
0000
0000
0000
0000
0000
0000
0000
0000
0000
0000
0000
0000
0000
0000
0000
0000
0M00
0000
0000
0000
0000
0000
0000
0000
0000
0000
0000
0000
0000
0000
0000
0000
0000
0000
0000
0000
0000
0000
0000
0000
00M0
0000
0000
0000
0000
0000
0000
0000
0000
0000
0000
0000
0000
0000
0000
0000
0000
0000
0000
0000
0000
0000
0000
0000
0M00
0000
0000
0000
0000
0000
0000
0000
0000
0000
0000
0000
0000
0000
0000
0000
0000
0000
0000
0000
0000
0000
0000
0000
1002
0000
0000
0000
0000
0000
0000
0000
0000
0000
0000
0000
0000
0000
0000
0000
0000
0000
0000
0000
0000
0000
0000
0000
0000
0000
0000
0000
0000
0000
0000
0000
0000
0000
0000
0000
0000
0000
0000
0000
0000
0000
0000
0000
0000
0000
0000
0000
1003
0000
0000
0000
0000
0000
0000
0000
0000
0000
0000
0000
0000
0000
0000
0000
0000
0000
0000
0000
0000
0000
0000
0000
0010
0000
0000
0000
0000
0000
0000
0000
0000
0000
0000
0000
1000
0000
0000
0000
0000
0000
0000
0000
0000
0000
0000
0000
,
0200
0000
0010
0000
1300
0001
0100
0001
2000
0000
0000
0000
3001
0000
1000
0001
,
0020
0100
0230
0000
2300
0000
3001
0200
,
0320
0000
0100
0000
1030
0001
0100
0001
1000
0000
0000
0000
0001
0000
1000
0001
,
0100
00M0
0100
00M0
0100
0000
0000
0000
0100
00M0
0100
00M0
0100
0000
0000
0000
2000
0000
0000
0000
0000
0000
0000
0000
3200
0000
0000
0000
0000
0000
0000
0000
,
0301
0000
0100
0000
1000
0100
0010
0001
2000
0000
0000
0000
3020
0000
0000
0000
,
0230
0000
0001
0000
0301
0000
1000
0001
0200
0000
0000
0000
0310
0000
1000
0000
,
0100
0000
0010
0000
0100
1000
0010
0100
2000
0000
0000
0000
3200
0000
0000
0000
,
0302
1000
1003
0000
0002
0000
0023
0000
,
1030
0000
0010
0000
0001
0100
0010
0100
0002
0000
0000
0000
2003
0000
0000
0000
,
3200
0000
0010
0000
0310
0000
0001
1000
1001
0000
0001
0000
0100
0000
0010
0000
,
1000
0000
0100
00M0
0100
0000
0001
0000
2000
0000
0000
0000
3001
0000
1000
0000
,
0100
0000
0010
0M00
0010
1000
0001
0010
0002
0000
0000
0000
0203
0000
0000
0000
,
1300
0000
0100
0000
0010
1000
0100
0010
0002
0000
0000
0000
0203
0000
0000
0000
,
0320
0000
1000
0000
1030
0000
0001
1000
0020
0000
0000
0000
0130
0000
0001
1000
,
0100
0000
0010
0000
0001
1000
0100
0010
2000
0000
0000
0000
3020
0000
0000
0000
,
0032
1000
1003
0000
0002
0000
0023
0000
,
1030
0000
0010
0000
0100
1000
0001
0100
0020
0000
0000
0000
2030
0000
0000
0000
,
3002
0010
0013
0000
0002
0000
0203
0000
,
0320
0000
1000
0000
1030
0001
0010
0100
2000
0000
0000
0000
3002
0000
0000
0000
,
0103
00M0
0100
00M0
0100
0000
0000
0000
0100
00M0
0100
00M0
0100
0000
1000
0000
0002
0000
0000
0000
0000
0000
1000
0000
0000
0000
0000
0000
0010
0000
0000
0000
,
2013
0000
0000
0001
0000
0000
0100
0000
3200
0000
0000
1000
0000
0000
0010
0000
,
1310
0001
0000
1000
0100
0000
0010
0001
2000
0000
0000
0010
0000
0000
0001
0000
,
3012
0000
0000
1000
0000
0000
0100
0000
0203
0000
0000
0010
0000
0000
0310
0000
,
1100
0001
0000
1000
0100
0000
0010
0001
0200
0000
0000
0010
0000
0000
0001
0000
,
0321
0000
0000
1000
0000
0000
0130
0001
2000
0000
0000
0001
0000
0000
0100
0000
,
3101
0010
0000
0100
1000
0001
0100
0010
2000
0000
0000
3002
0000
0000
0103
0010
,
1000
0000
0001
0010
0100
1000
0010
0100
0001
0000
0000
0000
1000
0000
0000
0000
,
0100
0000
0010
0100
1000
0000
0001
0100
2000
0000
3001
1000
0002
0000
1003
0100
,
0002
0000
1003
0001
2000
0000
3100
0010
0002
0000
0000
0000
2000
0000
0000
0000
,
0020
0000
0000
0000
0200
0000
3333
0000
0000
0000
1000
0001
1000
0000
0100
0000
,
0010
0000
0001
0000
0100
0010
1000
0001
2000
0000
0000
3200
0000
0000
0302
0000
,
0023
0000
0000
0032
0000
0000
0203
0000
2300
0000
0000
3020
0000
0000
0032
0000
,
0023
0000
1000
0000
1030
0000
0001
1000
0002
0000
0000
0203
0000
0000
2300
0000
,
3020
0000
0000
2030
0000
0000
3200
0000
0302
0000
0000
0023
0000
0000
0130
1000
,
0001
0000
0010
0000
0100
0000
1000
0001
2000
0000
0000
3200
0000
0000
0302
0000
,
0023
0000
0000
2030
0000
0000
3002
0000
0203
0000
0000
2300
0000
0000
3020
0000
,
0032
0000
1000
0000
1003
0000
0001
1000
0002
0000
0000
0203
0000
0000
2300
0000
,
3002
0000
0000
0203
0000
0000
2300
0000
3001
0000
0100
0000
0010
0000
1000
0000
,
0100
00M0
0100
00M0
0100
0000
0000
0000
0100
00M0
0100
00M0
0100
0000
0001
0000
2000
0000
0000
0000
0000
0000
3002
0000
0000
0000
0000
0000
0203
0000
0000
0000
,
0320
0000
1000
0000
0001
1000
0001
1000
0001
0000
1030
0000
1010
0000
0010
0000
,
2000
0000
0000
3200
0000
0000
0320
0000
0032
0000
0000
0000
1010
0000
0000
0000
,
2003
0000
0101
0000
3002
0000
0000
1000
,
2003
0000
0010
0000
3010
0000
1000
0001
0020
0000
0000
0230
0000
0000
2300
0000
,
3001
0000
0100
0000
0010
1000
0100
0010
0002
0000
0000
0203
0000
0000
0310
0000
,
1000
0000
0001
0000
0100
0000
0000
0000
0001
0000
1000
0000
0100
00M0
0100
0000
0002
0000
0000
0000
0000
0000
0023
0000
0000
0000
0000
0000
2030
0000
0000
0000
,
3010
0000
0001
0000
0100
0010
0000
1000
0002
0000
0000
0203
0000
0000
0320
0000
,
1030
0000
0001
0000
0010
0000
0000
0000
0001
0000
1000
0000
0010
0M00
0010
0000
0002
0000
0000
0000
0000
0000
0203
0000
0000
0000
0000
0000
2300
0000
0000
0000
,
3100
0000
0010
0000
1000
0001
0010
0100
2000
0000
0000
3002
0000
0000
0023
0000
,
0130
0000
1000
0000
0010
0000
0000
0000
0100
0000
0001
0000
0010
0M00
0010
0000
100M
0000
0000
0000
0000
0000
1M10
0000
0000
0000
0000
0000
01M1
0000
0000
0000
,
1001
0000
0000
0M11
0000
0000
11M0
0000
1001
0000
0000
1000
0000
0000
0001
0000
,
0100
0000
0110
0000
1004
0000
0000
0000
2003
0000
0000
0000
3100
0000
0010
0001
,
0200
0000
0010
0000
0301
1000
0100
0010
0002
0000
0000
0000
1003
0000
0100
1000
,
0020
0100
0230
0000
0302
0000
1003
0200
,
0320
0000
0001
0000
0130
1000
0001
0100
0010
0000
0000
0000
1000
0000
0001
0000
,
0100
00M0
0100
00M0
0100
0000
0010
0000
0100
00M0
0100
00M0
0100
0000
0000
0000
1002
0000
0000
0000
0000
0000
0000
0000
0013
0000
0000
0000
0100
0000
1000
0000
,
0020
0000
0100
0000
1030
0100
0010
0100
2000
0000
0000
0000
3001
0000
0100
0001
,
0020
0100
0230
0000
2300
0000
3001
0200
,
0320
0000
1000
0000
0130
0001
1000
0100
2000
0000
0000
0000
3001
0000
1000
0001
,
0100
0000
0000
0000
0100
0000
0000
0000
0010
0000
1000
0000
0010
0000
0000
0000
0000
0000
0000
0000
0000
0000
0000
0000
0100
00M0
0100
00M0
0100
0000
0000
0000
,
0010
0M00
0010
0M00
0010
0000
0000
0000
0100
0000
0000
0000
2002
0000
0000
0000
0000
0000
0000
0000
0000
0000
0000
0000
0000
0000
0000
0000
0000
0000
0000
0000
,
0000
0000
0000
0000
,
0000
0000
0000
0000
,
0000
0000
3003
0000
;
