#TITLE:Meltdown;
#SUBTITLE:;
#ARTIST:iroha feat. Rin Kagamine;
#TITLETRANSLIT:;
#SUBTITLETRANSLIT:;
#ARTISTTRANSLIT:;
#CREDIT:;
#BANNER:Meltdown.png;
#BACKGROUND:Meltdown - bg.png;
#LYRICSPATH:;
#CDTITLE:;
#MUSIC:Meltdown.ogg;
#OFFSET:1.440;
#SAMPLESTART:50.180;
#SAMPLELENGTH:12.000;
#SELECTABLE:YES;
#BPMS:0.000=165.000,204.000=82.500,219.000=330.000,223.000=165.000;
#STOPS:137.500=0.727
;
#BGCHANGES:3.750=Meltdown.avi=1.000=1=0=1,
367.000=Meltdonwn - bg.png=1.000=1=0=1,
99999=-nosongbg-=1.000=0=0=0 // don't automatically add -songbackground-
;

//---------------dance-single - ----------------
#NOTES:
     dance-single:
     :
     Challenge:
     9:
     0.884,1.000,0.712,0.799,0.331: // measure 1
0000
0000
0000
0000
,  // measure 2
0000
0000
0000
0000
,  // measure 3
0000
0000
0000
0000
,  // measure 4
0000
0000
0000
0000
,  // measure 5
0000
0000
0000
0000
,  // measure 6
0000
0000
0000
0000
,  // measure 7
0000
0000
0000
0000
,  // measure 8
0000
0000
0000
0000
,  // measure 9
0000
0000
0000
0000
,  // measure 10
0000
0000
0000
0000
0000
0000
0000
0001
,  // measure 11
1001
1000
0010
0100
0101
0001
1000
0100
,  // measure 12
1100
0000
1000
0000
0010
0100
0001
0000
1000
0100
0010
0000
0001
1000
0100
0000
,  // measure 13
1100
0100
0010
0001
0011
0001
1000
1020
,  // measure 14
1000
0000
1030
0000
0001
0010
0100
0000
1000
0100
0010
0000
0001
1000
0100
0000
,  // measure 15
1001
1000
0010
0100
0101
0001
1000
0100
,  // measure 16
0110
0000
0010
0000
0001
1000
0100
0000
1000
0010
0100
0000
0001
0100
0001
0000
,  // measure 17
1001
1000
0100
0010
0011
0001
0100
0110
,  // measure 18
0010
0000
1000
0100
0010
0000
0001
0100
0001
1000
0100
0010
0001
0000
1000
0001
,  // measure 19
1000
1000
0001
0010
0100
1000
0010
0200
,  // measure 20
0001
0000
0000
0000
0301
1000
0100
0000
0010
0001
1000
0000
0010
0100
0001
0000
,  // measure 21
1001
0001
2000
0010
3010
0100
0001
2000
,  // measure 22
0001
0000
3001
0000
0010
0100
1000
0000
0100
0010
0001
0000
1000
0001
0100
0000
,  // measure 23
1001
0001
1000
0100
0010
0001
0100
0020
,  // measure 24
1000
0000
0000
0000
1030
0100
0010
0000
0001
0010
0100
0000
1000
0001
0100
0000
,  // measure 25
1001
1000
0020
0100
0130
0001
1000
0100
,  // measure 26
0010
0001
1000
0010
0100
0000
0001
0010
0100
0000
1000
0000
1001
0000
0001
0000
,  // measure 27
2001
0000
3001
0100
0010
1000
0100
0010
,  // measure 28
0001
0000
1000
0000
0010
0100
0001
0000
1000
0100
1000
0000
0001
0100
0010
0000
,  // measure 29
1010
1010
2000
0000
3001
0100
0010
2000
,  // measure 30
0000
0000
3001
0010
0100
0000
1000
0100
1000
0010
0100
0001
1000
0000
1001
0000
,  // measure 31
0102
0100
0103
0010
1000
0100
0010
0001
,  // measure 32
0100
0000
0010
0000
1000
0100
0010
0000
0001
1000
0001
0000
1000
0001
1000
0000
,  // measure 33
1001
1001
0002
0000
0103
0010
1000
2100
,  // measure 34
0000
0001
0001
0002
0000
0000
0000
0000
,  // measure 35
0000
0000
0000
0000
0000
0000
3003
0000
0100
0000
1001
0000
0100
0010
1000
0000
,  // measure 36
2001
0001
3002
0100
0203
0010
0320
1000
,  // measure 37
2030
0000
0100
0000
3100
0010
0001
0000
1000
0010
0100
0000
0001
0100
0010
0000
,  // measure 38
2002
0003
0100
3100
0010
0001
0100
0010
,  // measure 39
2010
0000
3010
0102
0000
0013
0100
1001
,  // measure 40
1002
0000
1003
0010
0100
00M2
0M23
M230
,  // measure 41
200M
0000
0300
0000
00M1
0000
3M01
0000
0100
0010
1000
0000
0001
0010
0100
0000
,  // measure 42
2100
0100
3100
0010
0001
0001
0100
0010
,  // measure 43
1010
1001
0101
0110
1010
0110
1001
0100
,  // measure 44
2001
0100
3200
0001
0302
1000
2003
0010
,  // measure 45
3020
0000
0001
0000
0031
0100
0010
0000
1000
0001
0100
0000
0001
0000
1001
0000
,  // measure 46
2002
3000
0100
0103
0010
1000
0100
0010
,  // measure 47
0012
0000
0103
2010
0000
3001
0010
1100
,  // measure 48
2002
0003
0100
3100
0010
M002
02M3
032M
,  // measure 49
2M00
0030
0M01
00M2
3003
1000
0010
0100
,  // measure 50
0102
0000
1003
0100
0010
0001
0100
0010
,  // measure 51
1000
0100
0010
0001
1000
0000
0001
0000
0101
0000
0110
0000
1010
0000
0000
0000
,  // measure 52
2001
0010
3020
0000
0230
0000
0302
0010
0023
0100
0100
0000
0000
0000
0230
2300
,  // measure 53
0001
0001
0000
0000
0001
0000
3000
0001
0000
0100
0010
0000
1000
0200
0320
0032
,  // measure 54
2003
0100
0000
0000
0001
0000
0000
3001
0000
0100
0010
0000
1000
0002
0203
0320
,  // measure 55
2030
0001
0000
0000
0001
0000
0000
0001
3000
0100
0010
0000
2002
0000
0000
0000
,  // measure 56
0000
0000
0000
0000
3003
0000
2001
0010
,  // measure 57
3020
0001
0032
1000
2003
0100
3200
0001
,  // measure 58
0301
0010
0100
0000
1000
0001
0100
0000
0010
1000
0001
0000
2002
0000
0003
0000
,  // measure 59
0010
3010
0100
0001
1000
0100
0012
0000
,  // measure 60
1003
0201
0000
0310
1000
1001
1002
1000
,  // measure 61
1003
0010
0100
00M2
0M23
M230
200M
0300
,  // measure 62
00M1
0M02
3003
1000
0010
0100
1002
0000
,  // measure 63
1003
0100
0010
0001
0100
0010
1010
1001
,  // measure 64
0101
0000
0110
0000
1010
0000
1000
0001
0100
0000
0110
0000
2001
0000
0010
0000
,  // measure 65
3020
0001
0032
0100
0203
1000
2300
0001
,  // measure 66
3001
0100
0001
0000
1000
0100
0010
0000
0001
0010
0100
0000
2200
0000
0300
0000
,  // measure 67
0001
3001
0100
0010
1000
0001
0210
0000
,  // measure 68
0301
1100
0M00
2000
0000
3100
2002
3000
,  // measure 69
0100
0100
0013
0001
0100
002M
2M00
0030
,  // measure 70
010M
02M0
3300
0010
0001
1000
0102
0000
,  // measure 71
1003
0100
0010
0001
0100
0010
1010
0110
,  // measure 72
0101
0000
0001
1000
0100
0000
0110
0000
1001
0000
0100
0000
1001
0000
1001
0000
,  // measure 73
0010
0100
0001
0010
0100
1000
0002
0000
,  // measure 74
1003
0100
0010
0000
0100
1000
0001
0100
0010
0000
1000
0000
2002
0000
3003
0000
,  // measure 75
1000
0010
0100
0001
1000
0100
0022
0033
,  // measure 76
1000
0010
0100
0000
0001
0010
0100
0000
1000
0001
1000
0000
2002
0000
3003
0000
,  // measure 77
1000
0010
0100
0001
0010
0100
1000
0001
,  // measure 78
0010
0100
1000
0000
0100
0010
0001
0000
0100
0010
1000
0000
0202
0000
0303
0000
,  // measure 79
0001
0000
1000
0000
0100
0000
0010
0000
0001
0000
1000
0000
0101
0000
0001
1000
,  // measure 80
0100
0000
0010
0001
1000
0000
1001
0000
1001
0000
0100
0000
2001
0000
3001
0000
,  // measure 81
0000
0100
0010
1010
0000
1010
0000
1001
,  // measure 82
0001
0010
0100
0000
1000
0010
0100
0000
0001
0000
0001
0000
2100
0000
0100
0000
,  // measure 83
3100
0010
0001
1000
0010
0100
0102
0100
,  // measure 84
0103
0010
1000
0000
0001
0010
0100
0000
1000
0000
1000
0000
2001
0000
3001
0000
,  // measure 85
0000
1000
0100
0011
0000
0011
0002
0000
,  // measure 86
1003
0100
1000
0000
0001
0100
0001
0000
1000
0001
1000
0000
0102
0000
0100
0000
,  // measure 87
0103
0000
0010
0000
1000
0000
0001
0000
0010
0000
0100
0000
1000
0100
0010
0001
,  // measure 88
1000
0001
0101
1000
0110
0MM0
2002
0000
,  // measure 89
0000
0000
0000
0000
,  // measure 90
0000
0000
0000
0000
,  // measure 91
0000
0000
0000
0000
,  // measure 92
0000
0000
0000
3003
;

//---------------dance-single - ----------------
#NOTES:
     dance-single:
     :
     Hard:
     7:
     0.573,0.633,0.472,0.334,0.044:
0000
0000
0000
0000
,
0000
0000
0000
0000
,
0000
0000
0000
0000
,
0000
0000
0000
0000
,
0000
0000
0000
0000
,
0000
0000
0000
0000
,
0000
0000
0000
0000
,
0000
0000
0000
0000
,
0000
0000
0000
0000
,
0000
0000
0000
0000
0000
0000
0000
1000
,
1100
0000
0000
0010
0011
0000
0000
1000
,
0001
0100
0010
1000
0010
0100
0001
0010
,
0110
0000
0000
0010
0101
0000
0100
0020
,
0000
1030
0001
0200
0000
0001
0301
1000
,
1100
0000
0000
0001
0101
0000
0000
0100
,
0010
1000
0010
0100
0001
0010
0100
1000
,
0001
0000
0000
1000
1100
0000
0010
0002
,
0000
0103
0020
0000
1000
1030
0001
0010
,
0110
0000
0100
1000
0001
0100
0010
2000
,
0001
0000
3001
0100
0000
0100
0010
1000
,
0001
0000
2000
0000
3010
0100
0001
2000
,
0000
3100
0010
0002
0000
0103
0010
1000
,
1001
0000
2000
0000
3010
0100
0001
2000
,
0100
0000
3100
0010
0000
0001
0100
0010
,
1000
0000
0002
0000
0103
0010
1000
0002
,
0000
0013
0100
1000
0000
0001
0100
0001
,
1001
0000
1000
0100
1000
0010
0100
0001
,
0010
0100
1000
0001
0000
0100
0010
1000
,
1100
0000
0200
0000
0310
0001
0100
0020
,
0000
1030
0100
1000
0001
0100
0010
1000
,
1100
0000
0100
1000
0010
0100
0001
0100
,
0001
1000
0100
0010
0000
0001
0100
0010
,
1010
0000
2000
0000
3001
0100
0010
2020
,
0000
0030
0000
0002
0000
0000
0000
0000
,
0000
0000
0000
3003
0000
0000
0000
0000
,
1001
1100
0110
0011
,
1001
0000
1000
0010
0000
0100
0000
0002
,
0200
0000
0000
0303
0000
0100
0010
1000
,
0001
0000
1000
0100
0000
1000
0001
0200
,
0002
0000
0000
0303
0000
1000
0010
0200
,
0001
0000
1000
1000
0000
0301
0000
1000
,
0100
0000
0010
0001
1000
0100
1000
0010
,
0100
0100
0001
0001
1000
0010
0100
0000
,
1001
1100
0101
0011
,
1010
0000
1000
0001
0000
0100
0000
0020
,
2000
0000
0000
3030
0000
1000
0100
0010
,
0011
0000
0010
0100
0000
1000
0001
0200
,
0020
0000
0000
0330
0000
1000
0001
0200
,
0001
0000
0010
0010
0000
0301
1000
0100
,
1100
0000
0010
0001
0010
0001
1000
0010
,
0100
0001
0010
0100
1000
0001
0100
0000
,
1001
0001
0000
0000
0101
0000
0000
0010
0000
1000
1000
0000
1100
0000
0000
0000
,
0010
0010
0000
0000
1100
0000
0000
1000
0000
0001
0001
0000
0101
0000
0000
0000
,
0010
0010
0000
0000
0101
0000
0000
0001
0000
1000
1000
0000
1100
0000
0000
0000
,
1000
1000
0000
0000
1010
0000
0000
0100
0000
0001
0001
0000
2002
0000
0000
0000
,
0000
0000
3003
1001
,
1100
0110
0011
1001
,
1000
0010
0000
0010
0000
0200
0002
0000
,
0000
0303
0000
0001
1000
0010
0101
0000
,
0001
1000
0000
1000
0100
0020
0002
0000
,
0000
0033
0000
1000
0001
0200
0010
0000
,
0001
0001
0000
0310
1000
0001
0101
0000
,
0100
0010
1000
0001
0100
0010
1000
1000
,
0100
0100
0010
0001
1000
0000
1001
0000
,
1100
0110
0011
1001
,
1000
0010
0000
0010
0000
0200
0002
0000
,
0000
0303
0000
0100
0010
1000
1001
0000
,
0001
0010
0000
0200
0000
1000
2300
0000
,
0100
0000
3001
0100
0010
2000
0100
0000
,
0010
0010
0000
3001
0100
0010
1010
0000
,
1000
0100
1000
0010
0100
0001
1000
1000
,
0001
0001
0101
0000
1010
0000
2001
0000
,
0001
0000
3001
0010
1000
0010
0002
0000
,
0100
0100
0000
1000
0000
0010
0013
0000
,
0100
1000
0100
0010
0000
0001
0011
0000
,
0100
1000
0002
0000
0103
0000
2010
0000
,
0010
0100
0001
3100
,
0010
0001
0000
0100
0010
1000
1001
0000
,
0001
0010
0100
1000
0000
0001
0101
0000
,
0100
0010
1000
0001
1000
1000
1100
0000
,
0100
0010
0001
0100
0000
0010
1000
1000
,
0001
0100
0010
0100
0010
1000
1001
0000
,
0001
0010
0100
1000
0010
0100
0101
0000
,
0001
1000
0100
1000
0010
0100
0101
0000
,
0001
0010
0100
0010
0000
0001
0011
0000
,
0010
0100
1000
0100
1000
0001
0101
0000
,
0100
0010
1000
0001
0000
1000
1100
0000
,
0100
0010
0001
0000
0110
0000
2002
0000
,
0000
0000
0000
0000
,
0000
0000
0000
0000
,
0000
0000
0000
0000
,
0000
0000
0000
3003
;

//---------------dance-single - ----------------
#NOTES:
     dance-single:
     :
     Medium:
     6:
     0.433,0.533,0.262,0.269,0.018:
0000
0000
0000
0000
,
0000
0000
0000
0000
,
0000
0000
0000
0000
,
0000
0000
0000
0000
,
0000
0000
0000
0000
,
0000
0000
0000
0000
,
0000
0000
0000
0000
,
0000
0000
0000
0000
,
0000
0000
0000
0000
,
0000
0000
0000
0000
0000
0000
0000
1000
,
0100
0000
0000
0010
0001
0000
0000
1000
,
0001
0000
0100
0000
0010
1000
0001
0100
,
0010
0000
0000
1000
0001
0000
0100
0010
,
0000
1000
0001
0200
0000
0000
0301
1000
,
0010
0000
0000
0100
0001
0000
0000
0100
,
0010
0000
1000
0000
0100
0010
0001
1000
,
0100
0000
0000
1000
0001
0000
0100
0010
,
0000
1000
0010
0000
1000
0000
0001
0100
,
0101
0000
0100
0000
0010
1000
0010
2000
,
0000
0100
3100
0000
0010
0000
0001
1000
,
0100
0000
0110
0000
0001
0000
0100
0010
,
0000
1000
0001
1000
0000
0001
0100
0000
,
1010
0000
0101
0000
1000
0001
1000
0002
,
0000
0100
0103
0000
0010
0000
1000
0100
,
0010
0000
0011
0000
1100
0000
1000
0001
,
0000
0100
0001
0100
0000
0000
0110
0000
,
1001
0000
1000
0100
0010
0000
0001
0000
,
0100
0001
0100
0001
0000
1000
0100
0000
,
0110
0000
1001
0000
1000
0000
0010
0100
,
0000
0001
0100
0000
0010
1000
0010
0000
,
0110
1001
1000
0001
,
0100
0010
0100
0010
0000
1000
0010
0000
,
0110
0000
1001
0000
0001
0000
1000
1001
,
0000
0001
2000
0002
0000
0000
0000
0000
,
0000
0000
0000
3003
0000
0000
0000
0000
,
2100
0100
0010
0010
,
3001
0000
0000
0010
0000
0100
0000
1000
,
2100
0000
0000
0000
3000
0001
0100
0000
,
0010
0000
1000
0001
0000
0100
0000
0010
,
0210
0000
0000
0000
0300
0001
1000
0001
,
0200
0000
0010
0010
0000
0001
0000
0010
,
0310
1000
0001
0010
,
0100
1000
0100
1000
0001
1000
0001
0000
,
2010
0010
0100
0100
,
3001
0000
0000
0100
0000
0010
0000
0100
,
0102
0000
0000
0000
0003
1000
0100
0000
,
0110
0000
0000
0010
0000
0001
0000
2000
,
0000
0000
0000
0000
3000
0001
0100
0001
,
2000
0000
0100
0100
0000
0000
0010
0000
,
3001
0000
1000
0100
1000
0000
0010
0000
,
0100
0001
0100
0001
1000
0001
1000
0000
,
1001
0000
0001
0000
0100
0000
0010
0000
2000
0000
0000
0000
0000
0000
3100
0020
,
0000
0000
0000
0000
0030
0000
0000
0000
0000
0000
0000
0000
0000
0001
0100
0001
,
0200
0000
0000
0000
0000
0000
0000
0000
0300
0000
0000
0000
0000
0010
1000
0010
,
2000
0000
3000
2002
,
0000
0000
3003
1002
,
1000
0100
0100
0013
,
0000
0100
0000
0010
0000
2000
0000
0000
,
0000
3000
0000
0001
0100
0000
0010
0000
,
0000
1000
0000
0001
0100
0002
0000
0000
,
0000
0003
0000
1000
0100
1000
0200
0000
,
0010
0010
0000
0000
1000
0000
0310
0000
,
0001
0000
0100
0000
0010
0000
1000
0001
,
1000
0001
0100
0001
0100
0000
0120
0000
,
0100
0001
0001
1030
,
0000
0001
0000
0010
0000
0200
0000
0000
,
0000
0300
0000
1000
0001
0000
0100
0000
,
0000
0010
0000
2000
0000
0001
3001
0000
,
0100
0000
0010
1000
0010
1000
0020
0000
,
0100
0100
0000
1000
1000
0000
0130
0000
,
0001
0000
1000
0000
0100
0000
0010
0001
,
1000
0100
0010
0000
0011
0000
1001
0000
,
1000
0000
0010
0000
0100
0001
2000
0000
,
0100
0100
0010
3010
,
0100
0001
1000
0101
,
0100
0010
1000
0000
0001
0000
2100
0000
,
0100
0100
0010
3010
,
0100
0000
0001
1000
0100
0010
0110
0000
,
0100
1000
0001
0101
,
0100
0010
1000
1001
,
0001
0010
0100
0010
,
0001
0100
0010
1100
,
1000
0010
0100
0101
,
1000
0100
0010
0012
,
0010
0203
0010
0320
,
1000
2030
0100
3200
,
0010
1000
0010
2300
,
0100
0010
3001
2002
,
0000
0000
0000
0000
,
0000
0000
0000
0000
,
0000
0000
0000
0000
,
0000
0000
0000
3003
;

//---------------dance-single - ----------------
#NOTES:
     dance-single:
     :
     Easy:
     3:
     0.262,0.367,0.196,0.225,0.000:
0000
0000
0000
0000
,
0000
0000
0000
0000
,
0000
0000
0000
0000
,
0000
0000
0000
0000
,
0000
0000
0000
0000
,
0000
0000
0000
0000
,
0000
0000
0000
0000
,
0000
0000
0000
0000
,
0000
0000
0000
0000
,
0000
0000
0000
0000
,
1001
0000
1100
0000
,
0100
0010
0001
0100
,
0110
0000
1010
0000
,
0100
0001
1000
0000
,
1100
0000
0011
0000
,
1001
0100
0010
1000
,
1100
0000
0011
0000
,
1000
0001
0000
0100
,
0110
0000
0010
1000
,
0002
0000
0003
1000
,
0100
0000
0010
0001
,
0100
0010
1000
0001
,
0101
0000
0100
0010
,
2000
0000
3000
0001
,
0010
0000
0100
1000
,
0001
0100
0010
0000
,
1001
1000
0010
0100
,
0001
0001
1000
0000
,
0001
0010
0100
1000
,
0010
0100
0001
0001
,
1001
1000
0100
0010
,
0001
0100
0010
0000
,
1000
0000
0100
0000
0010
0000
0000
2002
,
0000
0000
0000
0000
,
0000
0000
0000
3003
0000
0000
0000
0000
,
1001
1000
0001
0001
,
0100
0000
0010
0000
,
2000
0000
3000
0001
,
0200
0000
0310
0000
,
2000
0000
3000
0010
,
0200
0000
1000
0000
,
0301
0000
1000
0000
,
0001
0100
0010
1000
,
1001
0001
0100
0100
,
0010
0000
1000
0000
,
0200
0000
0300
0010
,
0001
0000
1000
0000
,
0020
0000
0030
0100
,
0002
0000
0100
0000
,
1003
0000
0010
0000
,
0100
0001
1000
0100
,
1001
1000
0001
0000
,
0200
0000
0300
0000
,
0020
0000
0030
0000
,
2000
0000
3000
2002
,
0000
3003
0000
1001
,
1000
0100
0100
0010
,
0000
0001
0000
0200
,
0000
0300
0010
2000
,
0000
3100
0000
0022
,
0000
0033
1000
0020
,
0000
0100
0000
1030
,
0000
0001
0000
0100
,
0010
1000
0001
1100
,
1000
0001
0001
0100
,
0000
0010
0000
2000
,
0000
3000
0001
0020
,
0000
0130
0000
2200
,
3300
1000
0001
0200
,
0000
0010
0000
0301
,
1000
0100
0010
0001
,
0001
1000
1000
1001
,
0000
1000
0000
0100
,
0000
0010
0000
0001
,
0000
0100
0000
0010
,
1000
0001
0100
0010
,
0000
1000
0000
0100
,
0000
0010
0000
0001
,
0000
0100
0000
0010
,
0000
1000
0000
1001
,
0000
0001
0000
0100
,
0000
0010
0000
1100
,
0000
0010
0000
0101
,
0000
1000
0000
0020
,
0000
0100
0000
0100
,
0000
0100
0000
0230
,
0000
0000
0000
0302
,
0000
0000
0003
2002
,
0000
0000
0000
0000
,
0000
0000
0000
0000
,
0000
0000
0000
0000
,
0000
0000
0000
3003
;

//---------------dance-single - ----------------
#NOTES:
     dance-single:
     :
     Beginner:
     1:
     0.121,0.191,0.036,0.029,0.000:
0000
0000
0000
0000
,
0000
0000
0000
0000
,
0000
0000
0000
0000
,
0000
0000
0000
0000
,
0000
0000
0000
0000
,
0000
0000
0000
0000
,
0000
0000
0000
0000
,
0000
0000
0000
0000
,
0000
0000
0000
0000
,
0000
0000
0000
0000
,
1000
0000
1000
0000
,
0001
0000
0100
0000
,
0010
0000
0010
0000
,
0100
0000
0000
0000
,
0001
0000
0001
0000
,
1000
0000
0100
0000
,
0010
0000
0010
0000
,
0001
0000
0000
0000
,
1000
0000
0000
0000
,
0100
0000
0000
0000
,
0010
0000
0000
0000
,
0001
0000
0000
0000
,
0100
0000
0000
0000
,
0010
0000
0000
0000
,
1000
0000
0000
0000
,
0001
0000
0000
0000
,
1001
0000
1000
0000
,
0100
0000
0000
0000
,
0010
0000
0010
0000
,
0001
0000
0001
0000
,
0100
0000
0100
0000
,
0010
0000
0000
0000
,
1000
0000
1000
0000
,
1001
0000
0000
0000
,
0000
0000
0000
0000
,
1001
0000
1000
0000
,
0010
0000
0010
0000
,
0100
0000
0000
0000
,
0001
0000
0000
0000
,
0100
0000
0000
0000
,
0020
0000
0030
0000
,
1000
0000
1000
0000
,
0001
0000
0001
0001
,
0001
0000
0001
0000
,
0100
0000
0100
0000
,
0010
0000
0000
0000
,
1000
0000
0000
0000
,
0001
0000
0000
0000
,
0200
0000
0300
0000
,
0010
0000
0010
0000
,
1000
0000
1000
1000
,
1000
0000
0000
0000
,
0001
0000
0000
0000
,
0100
0000
0000
0000
,
0010
0000
0000
1001
,
0000
0000
0000
0000
,
0000
1000
0000
0100
,
0000
0100
0000
0010
,
0000
0000
0000
0001
,
0000
0000
0000
0100
,
0000
0000
0000
0002
,
0000
0003
0000
1000
,
0000
1000
0000
0100
,
0000
0100
0100
0100
,
0000
0100
0000
0010
,
0000
0010
0000
0001
,
0000
0000
0000
0100
,
0000
0000
0000
0010
,
0000
0000
0000
2000
,
0000
3000
0000
0001
,
0000
0001
0000
1000
,
0000
1000
1000
1000
,
0000
0000
0000
0001
,
0000
0000
0000
0100
,
0000
0000
0000
0010
,
0000
0000
0000
1000
,
0000
0000
0000
0001
,
0000
0000
0000
0100
,
0000
0000
0000
0010
,
0000
0000
0000
1000
,
0000
0000
0000
0100
,
0000
0000
0000
0010
,
0000
0000
0000
0001
,
0000
0000
0000
1000
,
0000
0000
0000
0001
,
0000
0000
0000
0100
,
0000
0000
0000
0010
,
0000
0000
0000
1001
;
