#TITLE:Melt and Join;
#SUBTITLE:(Part 1);
#ARTIST:Xe;
#TITLETRANSLIT:;
#SUBTITLETRANSLIT:;
#ARTISTTRANSLIT:;
#CREDIT:;
#BANNER:Melt and Join pt 1 - bn.png;
#BACKGROUND:Melt and Join pt 1 - bg.png;
#LYRICSPATH:;
#CDTITLE:;
#MUSIC:Melt and Join pt 1.ogg;
#OFFSET:-0.050;
#SAMPLESTART:59.520;
#SAMPLELENGTH:12.000;
#SELECTABLE:YES;
#BPMS:0.000=230.001,4.000=460.002,5.000=230.001,42.000=460.002,44.000=230.001,76.000=460.002,80.000=230.001,260.000=115.001,268.000=230.001,346.000=115.001,360.000=230.001,390.000=460.002,400.000=230.001;
#STOPS:4.000=0.065
,4.500=0.065
,42.000=0.065
,42.500=0.065
,43.000=0.065
,43.500=0.065
,76.000=0.033
,76.250=0.033
,76.500=0.033
,76.750=0.033
,77.000=0.033
,77.250=0.033
,77.500=0.033
,77.750=0.033
,78.000=0.065
,78.500=0.065
,79.000=0.065
,79.500=0.065
,276.000=0.196
,276.750=0.196
,277.500=0.130
,390.000=0.065
,390.500=0.065
,391.000=0.065
,391.500=0.065
;
#BGCHANGES:0.000=Melt and Join pt 1 - bg.png=1.000=0=0=1,
212.000=Melt and Join pt 1 - bg CAUTION.png=1.000=1=0=1,
224.000=Melt and Join pt 1 - bg.png=1.000=1=0=1,
99999=-nosongbg-=1.000=0=0=0 // don't automatically add -songbackground-
;

//---------------dance-single - Copied from----------------
#NOTES:
     dance-single:
     Copied from:
     Beginner:
     14:
     1.000,1.000,1.000,0.790,1.000:
0100
0010
0100
1000
0001
0010
0100
0001
,
0100
0000
1000
0000
0001
0000
0010
0010
1000
0000
0010
0000
0100
0000
1000
0000
,
0100
0000
0010
0000
0100
0000
1000
0000
0001
0001
0001
0001
0001
0001
0001
0001
,
0010
1000
0010
0010
1000
0010
0100
1000
,
0001
0000
0000
0000
0000
0000
0100
0000
0000
0010
0000
0000
1001
0000
0000
0000
0000
0000
0100
0000
0000
0000
0000
0000
0001
0000
0100
0000
0001
0000
1100
0000
0001
0000
0100
0000
0001
0000
0000
0000
0000
0000
0100
0000
0000
0010
0000
0000
,
1000
0000
0001
0100
0001
0100
0001
1000
0011
1100
0011
1100
0022
0000
0030
0000
,
1003
0010
1000
0100
0001
0010
1000
0010
1000
0001
0100
0010
1000
0001
0100
0010
,
1100
0000
0000
1001
0000
0000
0101
0000
0000
0110
0000
0000
1000
0100
0010
0001
0000
0000
2000
0000
0000
0001
0000
0000
,
3001
0000
0000
0000
0000
0000
0101
0000
0000
0010
0000
0000
1100
0000
0000
0000
0000
0000
0001
0000
0000
0100
0000
0000
0001
0000
1000
0000
0001
0000
1100
0000
0001
0000
1000
0000
0001
0000
0000
0000
0000
0000
1000
0000
0000
0100
0000
0000
,
0001
0000
0000
0000
0000
0000
1000
0000
0000
0010
0000
0000
0001
0000
0000
0100
0000
0000
0010
0000
0000
1000
0000
0000
0001
0000
0010
0000
0100
0000
2000
0000
0000
0000
0000
0000
0001
0000
0000
0100
0000
0000
3001
0000
0000
0100
0000
0000
,
0011
1100
1001
0101
0110
1011
1101
1100
,
1001
0010
0101
0000
0110
0001
1010
0001
1100
0010
1100
0001
1100
0011
1100
0011
,
1100
0000
0000
0000
0000
0000
0010
0000
0000
0000
0000
0000
0100
0000
0000
0000
0000
0000
1000
0000
0000
0000
0000
0000
0001
0000
1000
0000
0001
0000
1100
0000
0001
0000
1000
0000
0011
0000
0000
0000
0000
0000
1001
0000
0000
0100
0000
0000
,
0011
0000
1001
0100
0011
0100
1010
0001
2100
0000
0001
0100
3001
0100
0001
0100
,
0001
0000
0000
0000
1000
0000
0100
0000
0010
0000
0010
0000
0001
0000
1000
0000
0110
0000
0000
0000
0110
0000
0000
0000
1000
0100
0010
0001
1000
0100
0010
0001
,
1000
1000
0010
0100
0001
0000
0101
0000
1110
0000
1110
0000
1001
0000
0101
0000
,
1001
0000
0000
0000
0000
0000
0011
0000
0000
0000
0000
0000
1100
0000
0000
0000
0000
0000
0011
0000
0000
0000
0000
0000
0011
0000
1000
0000
0001
0000
1100
0000
0001
0000
1000
0000
0011
0000
0000
0000
0000
0000
1001
0000
0000
0010
0000
0000
,
1100
0000
0011
1000
0101
0010
1000
0100
0002
0000
0100
0000
1003
0000
0100
0000
,
1001
0100
0010
1000
0110
0001
1100
1100
,
0001
0100
0001
0100
0010
0100
0010
0100
1010
0000
1001
0000
0101
0000
0110
0000
,
1MM1
MMMM
MMMM
MMMM
MMMM
MMMM
MMMM
MMMM
,
1001
1000
0001
1000
1000
0010
1000
1000
,
0001
1000
1000
0010
1000
1000
0001
1000
,
0220
0330
0220
0330
0101
0010
1001
0100
,
2200
0010
3301
2200
0001
3320
0032
0203
,
1301
0001
1000
0001
0001
0100
0001
0001
,
0010
0001
0001
0100
0001
0001
0010
0001
,
2200
3300
2200
3300
1001
0010
0101
1000
,
0220
1000
0331
0220
0001
2330
3002
0103
,
1001
0000
0100
0001
1100
0000
0010
0100
0011
0000
1001
0000
1001
0000
0100
0000
,
0011
0000
1001
0000
1001
0000
0100
0010
1100
0001
0100
0001
1100
0010
1100
0001
,
1100
0010
1000
0010
1100
1000
0010
0100
,
0001
0000
0100
0000
0001
0000
0100
0000
1010
0000
0100
0000
0001
0010
1000
0010
,
1100
0000
0000
0000
0000
0000
0010
0000
0000
0000
0000
0000
0010
0000
0000
0000
0000
0000
0101
0000
0000
0010
0000
0000
1000
0000
0000
0000
0000
0000
0001
0000
0000
1000
0000
0000
0100
0000
0000
0000
0001
0000
0000
0000
0000
0010
0000
0000
,
1100
0000
0000
0000
0001
0000
0000
0000
0100
0000
0000
0000
0100
0000
0000
0000
0011
0000
0000
0000
1000
0000
0000
0000
0001
0010
0100
1000
0001
0010
0100
1000
,
0022
0033
0022
0033
1010
0001
0020
0230
,
2302
3003
1000
0100
0010
0001
0100
0010
,
1100
1000
0001
1000
1000
0010
1000
1000
,
0001
1000
1000
0010
1000
1000
0001
1000
,
0220
0330
0220
0330
1001
0100
0020
2030
,
3002
0100
1003
0002
0100
2003
3020
0230
,
0311
0001
1000
0001
0001
0100
0001
0001
,
1000
0001
0001
0100
0001
0001
1000
0001
,
1100
0000
0010
0000
0100
0000
0011
0000
0000
0000
1000
0000
0001
0000
0100
0000
0010
0000
2000
0000
0001
3020
0000
0000
,
1031
0000
0100
0000
0010
0000
1001
0000
0000
0000
1000
0000
0111
0000
0000
1100
0000
0000
1001
0000
0000
0101
0010
0000
,
1001
0000
1000
0000
0011
0000
1000
0000
1100
0000
0011
0000
1000
0000
1100
0010
,
0101
0010
1100
0011
1000
0101
1010
0001
,
1201
0000
0300
0000
1101
0000
0010
0000
1000
0000
0002
0000
0000
0000
1003
0010
,
1200
0010
0311
1100
0001
0100
0010
1000
,
0011
0000
0100
0000
0011
0000
0100
0000
0110
0000
1001
0000
0010
0000
0100
0001
,
2100
0010
3001
0200
0010
0301
1000
0001
,
1100
0011
1100
0000
MMMM
0000
0011
1100
0011
0000
MMMM
0000
0110
1001
0110
0000
,
1001
0000
1100
0000
0011
0000
1001
0000
1001
0010
1100
0001
1010
0100
0011
1000
,
0101
0010
1000
0001
01M0
0000
0010
1000
0001
0100
M011
0100
0011
0000
110M
0010
,
1001
0000
0100
0000
001M
0000
1000
0000
0011
0000
0100
0000
0011
0000
1000
0000
00M1
0000
1000
0000
0M01
0000
1000
0000
0001
0010
0100
1000
0001
0010
0100
1000
,
0001
0000
0100
0000
M001
0000
0100
0000
00M1
0000
1000
0000
0010
0000
0100
0000
M001
0000
0010
0000
1000
0000
0100
0000
0001
0010
0100
1000
0001
0010
0100
1000
,
0011
0000
0M11
0000
110M
0000
M011
0100
100M
0000
M110
0000
011M
0000
M110
0000
,
1011
0000
1011
0000
0000
1101
0000
1100
,
1110
0000
1100
0000
0010
0000
1101
0000
0010
0000
1100
0001
1110
0001
1100
0010
,
1101
0000
0010
0000
0100
0000
0010
0000
1101
0000
0010
0000
1000
0000
0100
0000
0011
0000
0000
0000
0111
0000
0000
0000
1000
0100
0010
0001
1100
0000
0010
0000
,
1101
0000
0011
0000
1000
0000
0011
0000
1000
0000
0001
0000
1100
0000
0001
0000
0100
0000
0010
0000
1000
0000
0001
0000
1100
0010
0001
1000
0100
0010
0001
0000
,
1110
0000
1000
0001
1110
0000
1000
0001
0100
0000
1011
0000
0100
0000
1100
0001
,
1110
0000
0111
0000
1001
0000
1101
0000
1100
0000
1101
0010
1101
0000
0111
0000
,
1110
0001
1110
0010
0110
0111
0110
1000
,
0011
0000
1100
0000
0011
0000
1100
0000
0011
0000
1100
0000
0011
0000
1100
0000
0001
0010
0100
1000
0001
0000
0100
0000
0001
0010
0100
1000
0001
0010
0100
1000
,
0002
0M00
00M0
0000
0000
0M00
00M0
0000
0000
0M00
00M0
0000
0000
0M00
00M0
0000
0000
0M00
00M0
0000
0000
0M00
00M0
0000
0000
0M00
00M0
0000
0000
0M00
00M0
0000
2M03
00M0
000M
0M00
00M0
000M
0M00
00M0
000M
0M00
00M0
000M
0M00
00M0
000M
0M00
00M0
000M
0M00
00M0
000M
0M00
00M0
000M
0M00
00M0
000M
0M00
00M0
000M
0M00
0000
,
3012
0000
0000
0000
0000
0000
0M00
0000
0000
0000
0000
0000
0000
0000
0000
0000
0000
0000
0000
0000
0000
0000
0000
0000
2103
0000
0000
00M0
0000
0000
0000
0000
0000
0000
0000
0000
0000
0000
0000
0000
0000
0000
0000
0000
0000
0000
0000
0000
3120
0000
0000
0000
0000
0000
0000
0000
0000
0000
0000
0000
0132
0000
0000
0000
0000
0000
M000
0000
0000
0000
0000
0000
0000
0000
0000
0000
0M00
0000
0000
0000
0000
0000
0000
0000
0000
0000
0000
00M0
0000
0000
0000
0000
0000
0000
0000
0000
2103
0000
0000
0000
0000
0000
0000
0000
0000
0000
0000
0000
0000
0000
0000
0000
0000
0000
3MMM
0000
0000
0000
0000
0000
MMMM
0000
0000
0000
0000
0000
MMMM
0000
0000
0000
0000
0000
0000
0000
0000
0000
0000
0000
0000
0000
0000
0000
0000
0000
0012
0000
0000
0000
0000
0000
0000
0000
0000
0000
0000
0000
0000
0000
0000
0000
0000
0000
0003
0000
0000
0000
0000
0000
MMMM
0000
0000
0000
0000
0000
MMMM
0000
0000
0000
0000
0000
0000
0000
0000
0000
0000
0000
0000
0000
0000
0000
0000
0000
,
2002
0000
0000
0000
0000
0000
0000
0000
0000
0000
0000
0000
0000
0000
0000
0000
3003
0000
M00M
0000
M00M
0000
M00M
0000
1000
0100
0010
0001
1000
0100
0010
0001
,
1100
0000
0000
0000
1100
0000
0000
0000
0011
0000
1000
0000
1100
0000
0000
0000
1100
0000
0000
0000
0011
0000
0000
1000
0001
0010
0100
1000
0001
0010
0100
1000
,
0011
00MM
0000
0000
0000
0000
1111
MMMM
0000
0000
0000
0000
1111
MMMM
0000
0000
1011
0000
0100
0000
0020
0030
0000
0000
1100
0000
0000
0000
0001
0000
0010
0000
,
2100
3000
0000
0000
0011
0000
0000
0000
1001
0000
0000
0000
1001
0000
0000
0000
1010
0000
0000
0000
0000
0000
0000
0000
1010
0000
0000
0000
0100
0000
0000
0000
,
0001
0000
0000
0000
2100
3000
0000
0000
2100
3000
0000
0000
2100
3000
0000
0000
0011
0000
0000
0000
0011
0000
0001
0000
1000
0000
0000
0000
0101
0000
0000
0000
,
1010
0000
1000
1000
0010
0100
0011
1100
0011
0000
0010
1100
0001
0100
0010
1000
,
0011
0000
0000
0000
0011
0000
0000
0000
1000
0100
0010
0001
1000
0100
0010
0001
1100
0000
0011
0000
0100
0000
0011
0000
1000
0000
0010
0000
1000
0000
0010
0000
,
2000
3000
0000
0000
2000
3000
0000
0000
0001
0000
0100
0000
0001
0000
0100
0000
0001
0000
0000
0000
1000
0000
0100
0000
0011
0000
0000
0000
0001
0000
0100
0000
,
1010
0000
0100
0010
1001
0000
1000
0001
0210
0000
0302
0000
2003
0000
3020
0000
,
1030
0001
1000
0001
1000
0010
1000
0010
1100
0000
1100
0000
0001
0000
0100
0000
,
0011
0000
0011
0000
1000
0000
0101
0000
1001
0100
1001
0100
1001
0100
1001
0100
,
1000
0000
0011
0100
0010
1000
0011
0100
0011
1000
0100
0010
0001
0100
0010
1000
,
0010
0100
0001
0010
0100
1000
0011
1000
0011
1000
0010
0100
0001
0100
1010
0100
,
0001
1000
0011
1000
0011
0100
0011
1000
0101
0010
1100
0001
1100
0011
1100
0010
,
1001
0000
0100
0000
0011
0000
1100
0000
0001
0010
0100
1000
0011
0000
0000
0000
1100
0000
0010
0000
1100
0000
0001
0000
1100
0000
0010
0000
1001
0000
0100
0000
,
0010
1000
0011
0100
0010
1000
0101
1000
0101
1000
0100
0010
1100
0001
1100
0010
,
0100
0001
1010
0001
0110
1000
0110
0000
0011
1000
0011
0100
1001
0010
1001
0010
,
1100
0011
1100
0011
1100
0011
1100
0011
1100
0000
0001
0000
1110
0000
1110
0000
,
0000
0000
1100
0000
1100
0010
0001
1000
0110
1000
0001
0100
0011
1000
0001
0010
,
1100
0010
0100
0001
1100
0010
0100
0010
2001
0000
0100
0010
0000
0001
0100
0010
,
3102
0000
1000
0010
0000
1000
0010
1000
0213
0010
0320
1000
2130
3012
0100
1000
,
0213
0000
0000
0000
0010
0000
0301
0010
2000
0000
0000
0000
0001
0000
0100
0000
3012
0000
0000
0000
0100
0000
0000
0000
1010
0000
0000
0000
0010
0000
0100
0000
,
2013
0000
0100
0011
0011
0000
3020
0001
1230
0000
0010
0302
1100
0000
2003
0011
,
3011
0000
0000
0000
0011
0000
0000
0000
0011
0000
0000
0000
0011
0000
0100
0000
0011
0000
1100
0000
0011
0000
1100
0000
0001
0010
0100
1000
0001
0010
0100
1000
,
0011
0000
1011
0000
1110
1110
0000
1001
,
0111
0000
0110
0000
1001
0000
0111
0000
1000
0000
0001
0100
0010
1000
0001
0100
,
0011
0000
1100
0000
0010
0000
1100
0000
0001
0000
0100
0000
0011
0000
1100
0000
0011
0000
1000
0000
0011
0000
1000
0000
0010
0000
0100
0000
0001
0010
0100
1000
,
0011
1100
0001
1100
0010
0100
0001
1000
0101
0000
0101
0000
1000
0010
0100
0001
,
1100
0000
0001
0010
1100
0000
0010
0100
1001
0000
0000
0000
1100
0000
1100
0000
,
0002
0000
0000
0000
0203
0000
0000
0000
0320
0000
0000
0000
2030
0000
0000
0000
3001
0000
0100
0000
0001
0000
0100
0000
0001
0010
0100
1000
0001
0010
0100
1000
,
0011
0110
1100
1001
0110
1100
0011
1010
,
0001
0010
0100
1000
0001
0010
0100
1000
0001
0010
0100
1000
0001
0010
0100
1000
,
0001
0010
0100
1000
0001
0010
0100
1000
0001
0010
0100
1000
0001
0010
0100
1000
,
00MM
MMMM
MMMM
MMMM
MMMM
MMMM
MMMM
MMMM
,
MMMM
0000
0000
0000
;

//---------------dance-single - ----------------
#NOTES:
     dance-single:
     :
     Hard:
     14:
     1.000,1.000,1.000,0.859,1.000: // measure 1
0100
0010
0100
1000
0001
0010
0100
0001
,  // measure 2
01M0
0000
100M
0000
0M01
0000
0010
0010
1000
0000
0010
0000
0100
0000
1000
0000
,  // measure 3
0100
0000
0010
0000
0100
0000
1000
0000
0001
0100
0001
0100
0001
0100
0001
0100
,  // measure 4
0010
1000
0010
0010
1000
0010
0100
1000
,  // measure 5
0001
0000
0000
0000
0000
0000
0100
0000
0000
0010
0000
0000
1001
0000
0000
0000
0000
0000
0100
0000
0000
0000
0000
0000
0001
0000
1000
0000
0001
0000
1100
0000
0001
0000
1000
0000
0001
0000
0000
0000
0000
0000
0100
0000
0000
0010
0000
0000
,  // measure 6
1000
0000
0001
0100
0001
0100
0001
1000
0011
1100
0011
1100
0022
0000
0030
0000
,  // measure 7
1003
0010
1000
0100
0001
0010
1000
0010
1000
0001
0100
0010
1000
0001
0100
0010
,  // measure 8
1100
0000
0000
1001
0000
0000
0101
0000
0000
0110
0000
0000
1000
0100
0010
0001
0000
0000
2000
0000
0000
0001
0000
0000
,  // measure 9
3001
0000
0000
0000
0000
0000
0101
0000
0000
0010
0000
0000
1100
0000
0000
0000
0000
0000
0001
0000
0000
0100
0000
0000
0001
0000
1000
0000
0001
0000
1100
0000
0001
0000
1000
0000
0001
0000
0000
0000
0000
0000
1000
0000
0000
0100
0000
0000
,  // measure 10
0001
0000
0000
0000
0000
0000
1000
0000
0000
0010
0000
0000
0001
0000
0000
0100
0000
0000
0010
0000
0000
1000
0000
0000
0001
0000
0010
0000
0100
0000
2000
0000
0000
0000
0000
0000
0001
0000
0000
0100
0000
0000
3001
0000
0000
0100
0000
0000
,  // measure 11
0011
1100
1001
0101
0110
1011
1101
1100
,  // measure 12
1001
0010
0101
0000
0110
0001
1010
0001
1100
0010
1100
0001
1100
0011
1100
0011
,  // measure 13
1100
0000
0000
0000
0000
0000
0000
0000
0000
0000
0000
0000
0000
0000
0000
0000
0000
0000
0000
0000
0000
0000
0000
0000
0010
0000
0000
0000
0000
0000
0000
0000
0000
0000
0000
0000
0000
0000
0000
0000
0000
0000
0000
0000
0000
0000
0000
0000
0100
0000
0000
0000
0000
0000
0000
0000
0000
0000
0000
0000
0000
0000
0000
0000
0000
0000
0000
0000
0000
0000
0000
0000
1000
0000
0000
0000
0000
0000
0000
0000
0000
0000
0000
0000
0000
0000
0000
0000
0000
0000
0000
0000
0000
0000
0000
0000
0001
0000
0000
0000
0000
0000
0000
0000
1000
0000
0000
0000
0000
0000
0000
0000
0001
0000
0000
0000
0000
0000
0000
0000
1200
0000
0000
0000
0000
0000
0300
0000
0001
0000
0000
0000
0000
0000
0000
0000
1000
0000
0000
0000
0000
0000
0000
0000
0021
0000
0000
0000
0000
0000
0030
0000
0000
0000
0000
0000
0000
0000
0000
0000
0000
0000
0000
0000
0000
0000
0000
0000
2001
0000
0000
0000
0000
0000
3000
0000
0000
0000
0000
0000
0100
0000
0000
0000
0000
0000
0000
0000
0000
0000
0000
0000
,  // measure 14
0011
0000
1001
0100
0011
0100
1010
0001
2100
0000
0001
0100
3001
0100
0001
0100
,  // measure 15
0001
0000
0000
0000
1000
0000
0010
0000
1000
0000
0001
0000
0100
0000
0001
0000
0110
0000
0000
0000
0110
0000
0000
0000
1000
0100
0010
0001
1000
0100
0010
0001
,  // measure 16
1100
0000
0011
0000
1000
0000
0011
0000
1000
0000
0000
0000
0101
0000
0000
0000
2110
3000
0000
0000
2110
3000
0000
0000
1001
0000
0000
0000
0101
0000
0000
0000
,  // measure 17
1001
0000
0000
0000
0000
0000
0011
0000
0000
0000
0000
0000
1100
0000
0000
0000
0000
0000
0011
0000
0000
0000
0000
0000
0011
0000
1000
0000
0001
0000
1100
0000
0001
0000
1000
0000
0011
0000
0000
0000
0000
0000
1001
0000
0000
0010
0000
0000
,  // measure 18
1100
0000
0011
1000
0101
0010
1000
0100
0002
0000
0100
0000
1003
0000
0100
0000
,  // measure 19
1001
0000
0000
0000
0100
0000
0000
0000
0010
0000
0000
0000
1000
0000
0000
0000
0210
0300
0000
0000
0001
0000
0000
0000
1200
0300
0000
0000
1200
0300
0000
0000
,  // measure 20
0001
0100
0001
0100
0010
0100
0010
0100
1010
0000
1001
0000
0101
0000
0110
0000
,  // measure 21
1MM1
MMMM
MMMM
MMMM
MMMM
MMMM
MMMM
MMMM
,  // measure 22
1001
1000
0001
1000
1000
0010
1000
1000
,  // measure 23
0001
1000
1000
0010
1000
1000
0001
1000
,  // measure 24
0220
0330
0220
0330
0101
0010
1001
0100
,  // measure 25
2200
0000
0010
3300
0001
0000
2200
0000
0001
3300
0020
0000
0032
0000
0203
0000
,  // measure 26
1301
0001
1000
0001
0001
0100
0001
0001
,  // measure 27
0010
0001
0001
0100
0001
0001
0010
0001
,  // measure 28
2200
3300
2200
3300
1001
0010
0101
1000
,  // measure 29
0220
0000
1000
0330
0001
0000
0220
0000
0001
0330
2000
0000
3002
0000
0103
0000
,  // measure 30
1001
0000
0100
0001
1100
0000
0010
0100
0011
0000
1001
0000
1001
0000
0100
0000
,  // measure 31
0011
0000
1001
0000
1001
0000
0100
0010
1100
0001
0100
0001
1100
0010
1100
0001
,  // measure 32
1100
0010
1000
0010
1100
1000
0010
0100
,  // measure 33
0001
0000
0100
0000
0001
0000
0100
0000
1010
0000
0100
0000
0001
0010
1000
0010
,  // measure 34
1100
0000
0000
0000
0000
0000
0010
0000
0000
0000
0000
0000
0010
0000
0000
0000
0000
0000
0101
0000
0000
0010
0000
0000
1000
0000
0000
0000
0000
0000
0001
0000
0000
1000
0000
0000
0100
0000
0000
0000
0001
0000
0000
0000
0000
0010
0000
0000
,  // measure 35
1100
0000
0000
0000
0001
0000
0000
0000
0100
0000
0000
0000
0100
0000
0000
0000
0011
0000
0000
0000
1000
0000
0000
0000
0001
0010
0100
1000
0001
0010
0100
1000
,  // measure 36
0022
0033
0022
0033
1010
0001
0020
0230
,  // measure 37
2302
3003
1000
0100
0010
0001
0100
0010
,  // measure 38
1100
1000
0001
1000
1100
0010
1000
1000
,  // measure 39
0011
1000
1001
0010
1100
0011
0001
1000
,  // measure 40
0220
0330
0220
0330
1001
0100
0020
2030
,  // measure 41
3002
0100
1003
0002
0110
2003
3020
0230
,  // measure 42
0301
0001
1100
0001
0011
1100
0001
0001
,  // measure 43
1100
0001
1001
0100
0011
1100
1000
0001
,  // measure 44
1000
0010
0100
0001
0000
1000
0001
0100
0010
1000
0001
0000
,  // measure 45
1000
0000
0100
0000
0010
0000
0001
0000
0000
0000
1000
0000
0111
0000
0000
1100
0000
0000
1001
0000
0000
0101
0010
0000
,  // measure 46
1001
0000
1000
0000
0011
0000
1000
0000
1100
0000
0011
0000
1000
0000
1100
0010
,  // measure 47
0101
0010
1100
0011
1000
0101
1010
0001
,  // measure 48
1201
0000
0300
0000
1101
0000
0010
0000
1000
0000
0002
0000
0000
0000
1003
0010
,  // measure 49
1200
0010
0311
1100
0001
0100
0010
1000
,  // measure 50
0011
0000
0100
0000
0011
0000
0100
0000
0110
0000
1001
0000
0010
0000
0100
0001
,  // measure 51
2100
0010
3001
0200
0010
0301
1000
0001
,  // measure 52
1100
0011
1100
0000
MMMM
0000
0011
1100
0011
0000
MMMM
0000
0110
1001
0110
0000
,  // measure 53
1001
0000
1100
0000
0011
0000
1001
0000
1001
0010
1100
0001
1010
0100
0011
1000
,  // measure 54
0101
0010
1000
0001
0100
0000
0010
1000
0001
0100
0011
0100
0011
0000
1100
0010
,  // measure 55
1001
0000
0100
0000
0010
0000
1000
0000
0011
0000
0100
0000
0011
0000
1000
0000
0001
0000
1000
0000
0001
0000
1000
0000
0001
0010
0100
1000
0001
0010
0100
1000
,  // measure 56
0001
0000
0100
0000
0001
0000
0100
0000
0001
0000
1000
0000
0010
0000
0100
0000
0001
0000
0010
0000
1000
0000
0100
0000
0001
0010
0100
1000
0001
0010
0100
1000
,  // measure 57
0011
0000
0011
0000
1100
0000
0011
0100
1000
0000
0110
0000
0110
0000
0110
0000
,  // measure 58
1011
0000
1011
0000
0000
1101
0000
0110
,  // measure 59
1110
0000
0110
0000
0010
0000
1011
0000
0010
0000
1100
0001
1110
0001
1100
0010
,  // measure 60
1101
0000
0010
0000
1000
0000
0100
0000
0011
0000
1000
0000
0010
0000
1000
0000
0011
0000
0000
0000
0111
0000
0000
0000
1000
0100
0010
0001
1100
0000
0010
0000
,  // measure 61
1101
0000
0010
0000
1000
0000
0011
0000
1000
0000
0001
0000
1100
0000
0001
0000
0100
0000
0010
0000
1000
0000
0001
0000
1100
0010
0001
1000
0100
0010
0001
0000
,  // measure 62
1110
0000
1000
0001
1110
0000
1000
0001
0100
0000
1011
0000
0100
0000
1100
0001
,  // measure 63
1110
0000
0111
0000
1001
0000
0111
0000
0011
0000
1101
0010
1101
0000
0111
0000
,  // measure 64
1110
0001
1110
0010
0110
0111
0110
1000
,  // measure 65
0011
0000
1100
0000
0011
0000
1100
0000
0011
0000
1100
0000
0011
0000
1100
0000
0001
0010
0100
1000
0001
0000
0100
0000
0001
0010
0100
1000
0001
0010
0100
1000
,  // measure 66
0002
0M00
00M0
0000
0000
0M00
00M0
0000
0000
0M00
00M0
0000
0000
0M00
00M0
0000
0000
0M00
00M0
0000
0000
0M00
00M0
0000
0000
0M00
00M0
0000
0000
0M00
00M0
0000
2M03
00M0
000M
0M00
00M0
000M
0M00
00M0
000M
0M00
00M0
000M
0M00
00M0
000M
0M00
00M0
000M
0M00
00M0
000M
0M00
00M0
000M
0M00
00M0
000M
0M00
00M0
000M
0M00
0000
,  // measure 67
3012
0000
0000
0000
0000
0000
0M00
0000
0000
0000
0000
0000
0000
0000
0000
0000
0000
0000
0000
0000
0000
0000
0000
0000
2103
0000
0000
00M0
0000
0000
0000
0000
0000
0000
0000
0000
0000
0000
0000
0000
0000
0000
0000
0000
0000
0000
0000
0000
3120
0000
0000
0000
0000
0000
0000
0000
0000
0000
0000
0000
0132
0000
0000
0000
0000
0000
M000
0000
0000
0000
0000
0000
0000
0000
0000
0000
0M00
0000
0000
0000
0000
0000
0000
0000
0000
0000
0000
00M0
0000
0000
0000
0000
0000
0000
0000
0000
2103
0000
0000
0000
0000
0000
0000
0000
0000
0000
0000
0000
0000
0000
0000
0000
0000
0000
3MMM
0000
0000
0000
0000
0000
MMMM
0000
0000
0000
0000
0000
MMMM
0000
0000
0000
0000
0000
0000
0000
0000
0000
0000
0000
0000
0000
0000
0000
0000
0000
0012
0000
0000
0000
0000
0000
0000
0000
0000
0000
0000
0000
0000
0000
0000
0000
0000
0000
0003
0000
0000
0000
0000
0000
MMMM
0000
0000
0000
0000
0000
MMMM
0000
0000
0000
0000
0000
0000
0000
0000
0000
0000
0000
0000
0000
0000
0000
0000
0000
,  // measure 68
2002
0000
0000
0000
0000
0000
0000
0000
0000
0000
0000
0000
0000
0000
0000
0000
3003
0000
M00M
0000
M00M
0000
M00M
0000
1000
0100
0010
0001
1000
0100
0010
0001
,  // measure 69
1100
0000
0000
0000
1100
0000
0000
0000
0011
0000
0100
0000
1001
0000
0000
0000
1001
0000
0000
0000
0011
0000
0000
1000
0001
0010
0100
1000
0001
0010
0100
1000
,  // measure 70
0011
00MM
0000
0000
0000
0000
1111
MMMM
0000
0000
0000
0000
1111
MMMM
0000
0000
1011
0000
0100
0000
0020
0030
0000
0000
1100
0000
0000
0000
0001
0000
0010
0000
,  // measure 71
2100
3000
0000
0000
0011
0000
0000
0000
1001
0000
0000
0000
1001
0000
0000
0000
1010
0000
0000
0000
0000
0000
0000
0000
1010
0000
0000
0000
0100
0000
0000
0000
,  // measure 72
0001
0000
0000
0000
2100
3000
0000
0000
2100
3000
0000
0000
2100
3000
0000
0000
0011
0000
0000
0000
0011
0000
0001
0000
1000
0000
0000
0000
0101
0000
0000
0000
,  // measure 73
1010
0000
1000
1000
0010
0100
0011
1100
0011
0000
0010
1100
0001
0100
0010
1000
,  // measure 74
0011
0000
0000
0000
0011
0000
0000
0000
1000
0100
0010
0001
1000
0100
0010
0001
1100
0000
0011
0000
0100
0000
0011
0000
1000
0000
0010
0000
1000
0000
0010
0000
,  // measure 75
2000
3000
0000
0000
2000
3000
0000
0000
0001
0000
0100
0000
0001
0000
0100
0000
0001
0000
0000
0000
1000
0000
0100
0000
0011
0000
0000
0000
0001
0000
0100
0000
,  // measure 76
1010
0000
0100
0010
1001
0000
1000
0001
0210
0000
0302
0000
2003
0000
3020
0000
,  // measure 77
1030
0001
1000
0001
1000
0010
1000
0010
1100
0000
1100
0000
0001
0000
0100
0000
,  // measure 78
0011
0000
0011
0000
1000
0000
0101
0000
1001
0100
1001
0100
1001
0100
1001
0100
,  // measure 79
1000
0000
0011
0100
0010
1000
0011
0100
0011
1000
0100
0010
0001
0100
0010
1000
,  // measure 80
0010
0100
0001
0010
0100
1000
0011
1000
0011
1000
0010
0100
0001
0100
1010
0100
,  // measure 81
0001
1000
0011
1000
0011
0100
0011
1000
0101
0010
1100
0001
1100
0011
1100
0010
,  // measure 82
1001
0000
0100
0000
0011
0000
1100
0000
0001
0010
0100
1000
0011
0000
0000
0000
1100
0000
0010
0000
1100
0000
0001
0000
1100
0000
0010
0000
1001
0000
0100
0000
,  // measure 83
0010
1000
0011
0100
0010
1000
0101
1000
0101
1000
0100
0010
1100
0001
1100
0010
,  // measure 84
0100
0001
1010
0001
0110
1000
0110
0000
0011
1000
0011
0100
1001
0010
1001
0010
,  // measure 85
1100
0011
1100
0011
1100
0011
1100
0011
1100
0000
0001
0000
1110
0000
1110
0000
,  // measure 86
0000
0000
1100
0000
1100
0010
0001
1000
0110
1000
0001
0100
0011
1000
0001
0010
,  // measure 87
1100
0010
0100
0001
1100
0010
0100
0010
2001
0000
0100
0010
0000
0001
0100
0010
,  // measure 88
3102
0000
1000
0010
0000
1000
0010
1000
0213
0010
0320
1000
2130
3012
0100
1000
,  // measure 89
0213
0000
0000
0000
0010
0000
0301
0010
2000
0000
0000
0000
0001
0000
0100
0000
3012
0000
0000
0000
0100
0000
0000
0000
1010
0000
0000
0000
0010
0000
0100
0000
,  // measure 90
2013
0000
0100
0011
0011
0000
3020
0001
1230
0000
0010
0302
1100
0000
2003
0011
,  // measure 91
3011
0000
0000
0000
0011
0000
0000
0000
0011
0000
0000
0000
0011
0000
0100
0000
0011
0000
1100
0000
0011
0000
1100
0000
0001
0010
0100
1000
0001
0010
0100
1000
,  // measure 92
0011
0000
1011
0000
1110
1110
0000
1001
,  // measure 93
0111
0000
0110
0000
1001
0000
0111
0000
1000
0000
0001
0100
0010
1000
0001
0100
,  // measure 94
0011
0000
1100
0000
0010
0000
1100
0000
0001
0000
0100
0000
0011
0000
1100
0000
0011
0000
1000
0000
0011
0000
1000
0000
0010
0000
0100
0000
0001
0010
0100
1000
,  // measure 95
0011
0000
1100
0000
0001
0000
1100
0000
0010
0000
0100
0000
0001
0000
1000
0000
0102
0003
0000
0000
0102
0003
0000
0000
1000
0000
0010
0000
0100
0000
0001
0000
,  // measure 96
1100
0000
0001
0010
1100
0000
0010
0100
1001
0000
0000
0000
1100
0000
1100
0000
,  // measure 97
0002
0000
0000
0000
0203
0000
0000
0000
0320
0000
0000
0000
2030
0000
0000
0000
3001
0000
0100
0000
0001
0000
0100
0000
0001
0010
0100
1000
0001
0010
0100
1000
,  // measure 98
0011
0110
1100
1001
0110
1100
0011
1010
,  // measure 99
0001
0010
0100
1000
0001
0010
0100
1000
0001
0010
0100
1000
0001
0010
0100
1000
,  // measure 100
0001
0010
0100
1000
0001
0010
0100
1000
0001
0010
0100
1000
0001
0010
0100
1000
,  // measure 101
00MM
MMMM
MMMM
MMMM
MMMM
MMMM
MMMM
MMMM
,  // measure 102
MMMM
0000
0000
0000
;
