#TITLE:Little Busters!;
#SUBTITLE:(Nhato Remix);
#ARTIST:Rita;
#TITLETRANSLIT:;
#SUBTITLETRANSLIT:;
#ARTISTTRANSLIT:;
#GENRE:;
#CREDIT:;
#BANNER:;
#BACKGROUND:;
#LYRICSPATH:;
#CDTITLE:gpopcdtitle.png;
#MUSIC:Little Busters! (Nhato Remix).ogg;
#OFFSET:0.011;
#SAMPLESTART:76.292;
#SAMPLELENGTH:23.840;
#SELECTABLE:YES;
#DISPLAYBPM:76.000:151.000;
#BPMS:0.000=151.000,192.000=75.500,207.000=151.000,237.000=75.500,241.000=151.000,245.000=302.000,246.000=151.000,246.500=75.500,247.500=151.000,248.000=302.000,250.000=151.000,250.500=75.500,251.000=151.000,257.000=302.000,258.000=75.500,258.500=151.000,271.000=226.500,273.000=151.000,281.000=302.000,282.000=151.000,282.500=75.500,283.000=151.000,289.000=302.000,290.000=75.500,290.500=151.000,303.000=226.500,305.000=151.000;
#STOPS:271.000=0.066
,271.500=0.066
,272.000=0.066
,272.500=0.066
,303.000=0.066
,303.500=0.066
,304.000=0.066
,304.500=0.066
;
#BGCHANGES:;
#KEYSOUNDS:;

//---------------dance-single - Gpop----------------
#NOTES:
     dance-single:
     Gpop:
     Challenge:
     10:
     0.582,0.835,0.180,0.567,0.446:
0000
0000
0000
0000
,
0000
0000
0000
0000
,
0000
0000
0000
0000
,
0000
0000
0000
0000
,
0000
0000
0000
0000
,
0000
0000
0000
0000
,
0000
0000
0000
0000
,
0000
0000
0000
0000
,
1000
1000
0001
0001
0101
0000
0001
0001
,
0010
0010
0400
1300
0000
0002
0000
0000
,
0103
0100
0010
0010
1010
0000
1000
1000
,
0100
0100
0010
0001
0000
2000
0000
0000
,
3001
0001
0100
0100
0110
0000
0010
0010
,
1000
1000
0400
0310
0000
0002
0000
0000
,
1003
1000
0001
0001
0011
0000
0010
0010
,
0100
0100
0000
1000
0000
0002
0000
0000
,
1003
0000
0000
1000
0MM0
0000
0001
0000
0000
0001
0000
0000
0100
0000
0000
0100
,
0000
0000
0010
0000
0000
0010
0000
0000
1000
0000
0000
0001
0000
0000
0010
0000
,
0100
0000
0000
0100
0000
0000
0010
0000
0000
0010
0000
0000
0001
0000
0000
0001
,
0000
0000
1000
0000
0000
1000
0000
0000
0010
0000
0000
0100
0000
0000
0001
0000
,
0010
0000
0000
0010
0000
0000
0100
0000
0000
0100
0000
0000
0010
0000
0000
0010
,
0000
0000
0001
0000
0000
0001
0000
0000
1000
0000
0000
0001
0000
0000
0100
0000
,
0001
0000
0000
0001
0000
0000
0010
0000
0000
0010
0000
0000
0100
0000
0000
0100
,
0000
0000
1000
0000
0000
1000
0000
0000
0001
0000
0000
0100
0000
0000
0010
0000
,
1000
0000
0000
0100
0000
0000
0010
0000
0000
0001
0000
0000
0010
0000
0000
0001
,
0000
0000
0100
0000
0000
0010
0000
0000
1000
0000
0000
0001
0000
0000
0010
0000
,
1000
0000
0000
0010
0000
0000
0100
0000
0000
1000
0000
0000
0010
0000
0000
0100
,
0000
0000
0001
0000
0000
0010
0000
0000
0001
0000
0000
1000
0000
0000
0010
0000
,
0001
0000
0000
0010
0000
0000
1000
0000
0000
0100
0000
0000
0010
0000
0000
0100
,
0000
0000
1000
0000
0000
0001
0000
0000
0100
0000
0000
0010
0000
0000
0100
0000
,
1000
0000
0000
0100
0000
0000
0001
0000
0000
0010
0000
0000
1000
0000
0000
0010
,
0000
0000
0001
0000
0000
0100
0000
0000
0010
0000
0000
1000
0000
0000
0100
0000
,
1000
0001
0100
2000
0000
0000
3100
0001
,
0010
2000
0000
3010
0001
0200
0000
0310
,
2000
0000
3001
0010
0100
0002
0000
0203
,
0000
0000
2300
0000
0000
0000
3000
0000
0001
0000
0000
1000
0000
0000
0010
0000
,
1000
0100
0010
2000
0000
0000
3010
0001
,
0100
2000
0000
3100
0001
0020
0000
0031
,
2000
0000
3010
0100
0010
0002
0000
0023
,
0000
2030
0000
0000
3000
0000
0011
0000
,
1002
0000
1000
0000
0103
0000
0010
0100
,
0001
1000
0001
0100
0110
0020
0000
2030
,
0001
0001
3100
1000
,
1000
0010
0100
0001
0011
0020
0000
0000
,
0230
0000
1000
0000
0310
0000
0100
0010
,
0002
0000
0000
0000
2003
0000
0000
0000
0010
0000
3000
0000
0000
0000
0001
1000
,
0002
0000
0000
0023
0000
0000
0230
0000
2300
0000
0000
3020
0000
0000
0130
0001
,
1000
0000
0100
0000
1000
0000
0100
0000
0010
0000
0001
1000
0001
1000
0001
1000
,
020M
0010
0000
0320
0001
0000
0032
1000
0000
2003
0010
0000
3020
0100
0000
0230
,
0001
0000
0302
1000
0000
1003
0100
0010
0002
0000
2000
0000
0000
0000
0000
3003
,
0000
0000
1000
0000
0001
0000
0100
0000
0010
0000
2000
0000
0000
0000
0000
0000
3200
0000
0000
0000
0300
0000
0010
0001
0020
0000
0000
0000
0000
0000
0000
0000
,
0130
0000
1000
0000
0001
0000
0100
0000
0020
0000
0000
0000
1030
0000
0002
0000
0000
0000
0003
0000
1100
0000
1000
0100
002M
0000
0000
0000
0001
0000
0000
0000
,
0031
0000
0012
0000
1000
0000
1003
0010
0200
0000
0001
0000
0301
0000
0102
0000
,
1000
0000
1003
0001
0200
0000
0010
0000
0310
0000
1020
0000
1000
0000
1030
0001
,
0020
0100
0130
1200
1000
1300
1001
0001
,
0201
0000
0020
0000
0300
2030
0000
3001
,
0010
0000
0100
0000
1000
0000
0020
0000
0000
0000
0130
0000
0001
0000
0000
1000
,
0000
0000
0100
0010
0002
0000
0000
0000
1003
0000
0020
0000
0000
0000
0130
0000
,
0001
0010
0200
0000
1300
0002
0000
0000
,
0003
0000
0000
0000
0000
0000
0000
0000
10M0
0000
0000
0100
0000
0000
1000
0000
0001
0000
0000
0100
0000
0000
0001
1000
0100
0000
0000
0010
0000
0000
0002
0000
,
0000
0000
0003
0000
MM11
0000
0000
0011
0000
0000
1001
0000
1010
0000
0000
1010
,
0000
0110
0102
0000
0000
0000
4003
0000
,
0000
0000
0000
0000
3200
0000
0000
0000
0000
0000
0000
0300
0022
0000
0000
0000
,
0030
0000
0000
0000
1003
0010
1000
0010
1000
0010
1000
0010
1000
0001
1000
0001
,
1000
0001
1000
0001
0020
0000
0000
0000
0000
0000
0130
0000
1000
0000
1001
0000
,
0001
1000
0000
0100
1000
0000
0100
0010
0000
0001
0100
0010
1000
0000
0001
0010
,
0001
0100
0010
1000
0002
0000
0000
0000
0000
0000
0203
0000
0010
0000
0000
0000
,
0000
0000
0000
0010
0000
0310
1000
1000
,
0001
0001
2000
0000
0000
0100
0001
0000
,
0000
0000
0000
0000
0000
0000
3001
0000
0100
0010
1000
0001
0020
0000
0000
0000
,
0000
0000
0000
0000
0230
0000
0000
0000
0000
0000
0000
0300
2020
0000
0000
0000
,
0030
0000
0000
0000
3001
0010
0001
0010
0001
0010
0001
0010
0001
1000
0001
1000
,
0001
1000
0001
1000
0200
0000
0000
0000
0000
0000
0310
0000
0001
0000
1001
0000
,
1000
0010
0000
1000
0001
0000
0010
0001
0000
1000
0010
0100
0010
0000
1000
0100
,
1000
0001
0100
0010
2000
0000
0000
0000
0000
0000
3020
0000
0100
0000
0000
0000
,
0000
0000
0000
0100
0000
0130
0001
0001
,
1000
1000
0200
0000
0000
0010
1000
0000
,
0000
0000
0000
0000
0000
0000
1300
0000
0001
0100
0001
1000
0020
0000
0000
0000
,
0000
0000
0030
0000
1000
0000
0000
0100
0000
0000
1000
0000
0000
0001
0000
0000
,
0100
0000
0000
0010
0000
0000
1000
0000
0000
0100
0000
0000
1000
0000
0000
0001
,
0000
0000
0010
0000
1000
0000
0000
0010
0000
0000
0100
0000
0000
1000
0000
0000
,
0010
0000
0000
0100
0000
0000
0001
0000
0000
1000
0000
0000
0010
0000
0000
0100
,
0000
0010
0002
0000
0000
0023
0000
0000
,
0000
0000
0000
0000
0000
0030
1000
0100
,
0010
0001
2000
0000
0000
0000
0001
0000
,
0000
0000
0000
0000
0000
0000
0000
0000
3001
0010
0100
1000
0002
0000
0000
0000
,
0000
0003
0000
0000
;

//---------------dance-single - Gpop----------------
#NOTES:
     dance-single:
     Gpop:
     Hard:
     7:
     0.411,0.567,0.090,0.394,0.135:
0000
0000
0000
0000
,
0000
0000
0000
0000
,
0000
0000
0000
0000
,
0000
0000
0000
0000
,
0000
0000
0000
0000
,
0000
0000
0000
0000
,
0000
0000
0000
0000
,
0000
0000
0000
0000
,
1000
0001
1000
0001
0000
0000
1000
0010
,
1000
0010
0000
0100
0000
0002
0000
0000
,
0013
0100
0010
0100
0000
0000
0010
0001
,
0010
0001
0010
0100
0000
2000
0000
0000
,
3010
0100
0010
0100
0000
0000
0010
1000
,
0010
1000
0000
0001
0000
0020
0000
0000
,
0130
1000
0100
1000
0000
0000
0100
0010
,
0100
0010
0000
0001
0000
0200
0000
0000
,
0301
1001
1000
0100
,
0010
0001
1000
0010
,
0100
0001
1000
0100
,
1000
0001
0100
0010
,
1000
0011
0001
1000
,
0010
1000
0001
0010
,
0100
1000
0010
0100
,
0010
1000
0100
0010
,
0001
0000
0000
0001
0000
0000
1000
0000
0000
1000
0000
0000
0010
0000
0000
0010
,
0000
0000
0100
0000
0000
0100
0000
0000
0001
0000
0000
1000
0000
0000
0100
0000
,
0010
0000
0000
0010
0000
0000
0100
0000
0000
0100
0000
0000
1000
0000
0000
1000
,
0000
0000
0001
0000
0000
0001
0000
0000
0100
0000
0000
0010
0000
0000
1000
0000
,
0001
0000
0000
0001
0000
0000
1000
0000
0000
1000
0000
0000
0100
0000
0000
0100
,
0000
0000
0010
0000
0000
0010
0000
0000
0001
0000
0000
0100
0000
0000
0010
0000
,
1000
0000
0000
1000
0000
0000
0001
0000
0000
0001
0000
0000
0010
0000
0000
0010
,
0000
0000
0100
0000
0000
0100
0000
0000
1000
0000
0000
0010
0000
0000
0100
0000
,
0001
1000
0100
2000
0000
0000
3010
0100
,
0001
0020
0000
0130
1000
0002
0000
1003
,
0020
0000
0130
0001
1000
0200
0000
0010
,
0000
2000
0000
0000
3300
0000
0000
0000
,
0001
1000
0010
0200
0000
0000
0310
1000
,
0001
0020
0000
0130
1000
0002
0000
1003
,
0010
0000
0100
0001
1000
0002
0000
0100
,
0000
2000
0000
0000
3003
0000
0100
0000
,
1001
0001
0101
0100
,
0010
0010
1010
1000
,
0001
0001
0011
0010
,
0100
0100
1100
1000
,
0002
0100
2003
0001
,
3200
0010
2300
0100
,
3020
0100
2030
0100
,
3002
0100
1000
0103
,
00M1
1000
0000
1000
0001
0000
1000
0010
0000
0010
1000
0000
0001
0100
0000
0100
,
0001
0000
1000
0100
0000
0100
0010
0000
0001
0000
2000
0000
0000
0000
0000
0000
,
3000
0000
0010
0000
0100
0002
0000
0000
0013
0000
0000
0100
2000
0000
0000
0000
,
3001
0000
0100
0010
2000
0000
0001
0002
0000
0000
3003
0000
10M0
0000
0001
0000
,
0001
0100
0010
0010
1000
0100
0100
0010
,
0001
0001
1000
0100
0100
1000
0010
0010
,
0100
0001
0001
1000
0100
0100
0010
0001
,
1000
0000
0201
0000
0000
0320
0000
0000
,
2030
0000
0000
0000
0000
0000
3200
0000
0000
0000
0000
0000
0310
0000
0000
0010
,
0000
0010
0001
0000
0001
0100
0000
0100
,
0010
1000
0002
0000
0010
0020
0000
0000
,
0033
2000
0000
0000
,
0000
0000
3000
0000
0001
0000
0000
0100
0000
0000
0001
0000
1000
0000
0000
0100
,
0000
1000
0020
0000
0000
0000
0230
0000
,
0000
0000
0000
0000
0302
0000
0000
0000
0000
0000
0000
0003
2200
0000
0000
0000
,
0000
0000
0000
0000
0000
3300
0104
0000
,
0000
0000
2003
0000
0000
0010
3010
0100
,
0000
0100
0000
0000
0001
0000
0000
0001
0000
0000
1000
0000
0100
0000
0010
0000
,
0001
1000
0020
0000
0000
0230
0001
0000
,
0000
0000
0000
0304
,
4003
3200
0000
0010
,
0000
0000
0000
0000
0310
0001
2000
0000
,
0000
0000
0000
0000
3200
0000
0000
0000
0000
0000
0000
0300
0022
0000
0000
0000
,
0000
0000
0000
0000
0000
0033
4010
0000
,
0000
0000
3002
0000
0000
0100
0103
0010
,
0000
0010
0000
0000
1000
0000
0000
1000
0000
0000
0001
0000
0010
0000
0001
0000
,
0100
0010
2000
0000
0000
3002
0100
0000
,
0000
0000
0000
0043
,
0430
2300
0000
0001
,
0000
0000
0000
0000
3001
0100
0020
0000
,
0000
1030
0001
0100
,
0001
0010
0100
1000
,
0100
0010
0001
0100
,
0010
1000
0001
0010
,
0100
0000
2000
0000
0000
3002
0000
0000
,
0000
0000
0000
0000
0000
0000
0103
0100
,
0010
0010
2000
0000
0000
0000
0000
0000
,
0000
0000
0000
0000
3100
0010
0022
0000
,
0000
0033
0000
0000
;

//---------------dance-single - Gpop----------------
#NOTES:
     dance-single:
     Gpop:
     Medium:
     5:
     0.319,0.388,0.069,0.373,0.014:
0000
0000
0000
0000
,
0000
0000
0000
0000
,
0000
0000
0000
0000
,
0000
0000
0000
0000
,
0000
0000
0000
0000
,
0000
0000
0000
0000
,
0000
0000
0000
0000
,
0000
0000
0000
0000
,
1000
1000
0000
0001
,
0001
0000
0000
0100
0000
0020
0000
0000
,
1030
1000
0000
0100
,
0100
0000
0010
0001
0000
2000
0000
0000
,
3001
0001
0000
1000
,
1000
0000
0000
0010
0000
0200
0000
0000
,
0310
0010
0000
1000
,
1000
0000
0000
0100
0000
0020
0000
0000
,
0031
1001
1000
0010
,
0100
0001
0010
0100
,
1000
0100
1000
0010
,
0100
0001
1000
0100
,
1000
0010
0100
0001
,
0010
0100
1000
0100
,
0010
0001
0100
0010
,
0100
0010
1000
0001
,
1000
1010
0010
0100
,
0001
0010
0100
1000
,
0010
0100
0010
1000
,
0100
0010
0001
0010
,
0001
0100
0010
1000
,
0001
0100
0001
1000
,
0100
0010
0001
0100
,
0010
1000
0001
0010
,
0100
0000
1000
0002
0000
0000
0103
0000
,
0010
2000
0000
0000
3001
0010
0000
0010
,
0100
0000
1000
0000
0001
0100
0000
0010
,
0000
2000
0000
0000
3000
0000
0000
0000
,
0001
0000
0010
0200
0000
0000
1300
0000
,
0001
0200
0000
0000
0310
1000
0000
1000
,
0001
0000
0010
0000
0100
1000
0000
0001
,
0000
0200
0000
0000
0300
0000
0010
0000
,
2000
0001
3001
0010
,
0100
0000
1000
0000
0001
0000
0000
0002
,
0000
0100
0103
0001
,
0010
0100
1000
0001
,
0200
0010
0310
1000
,
0001
0020
0100
0130
,
1000
0001
0100
0010
,
2000
0000
0000
0002
0000
0000
3003
0000
,
1001
0000
0000
0000
0001
0000
0000
1000
0000
0000
1000
0000
0000
0010
0000
0000
,
0010
0000
0000
0100
0000
0000
0001
0000
1000
0000
0200
0000
0000
0000
0000
0000
,
0300
0010
0001
0000
2000
0000
3020
0000
,
0130
0000
0001
0000
0010
0000
0000
0200
0000
0000
0300
0000
1000
0000
0001
0000
,
0000
0001
0100
0000
0100
0010
0000
0010
,
1000
0000
1000
0100
0000
0100
0010
0000
,
0010
0001
0000
0001
1000
0000
1010
0000
,
0102
0000
0000
0000
0000
0000
0003
1000
,
0100
0000
0010
0002
0000
0000
2003
0000
,
3000
0010
0100
0000
0100
0001
0000
0000
,
1000
0000
0100
0000
0010
0002
0000
0000
,
0003
2000
0000
0000
,
0000
3000
0202
0000
0303
0000
2020
0000
,
3030
0002
0000
2003
,
0000
3200
0000
0020
,
0000
0000
0330
2002
,
3000
0000
0203
0000
0000
0000
0310
4000
,
0000
0000
0000
0000
0000
0000
3001
0040
,
0000
0000
0230
0000
0000
2300
0000
0000
,
0000
0000
0000
0000
0000
0000
3001
0010
,
0001
0010
0200
0000
0000
0000
0000
0000
,
0000
0000
1300
0002
,
0000
2003
0000
0002
,
0000
0000
3003
2200
,
3000
0000
0320
0000
0000
0000
0031
0400
,
0000
0000
0000
0000
0000
0000
0310
4000
,
0000
0000
3002
0000
0000
0023
0000
0000
,
0000
0000
0000
0000
0000
0000
0130
1000
,
0100
1000
0002
0000
0000
0000
0000
0000
,
0000
0000
1003
0020
,
0000
0130
0001
0010
,
0001
1000
0010
0100
,
0001
0010
0100
1000
,
0001
0100
0010
1000
,
0001
0000
0020
0000
0000
0230
0000
0000
,
0000
0000
0000
4300
,
0000
3002
0000
0000
,
0000
0000
1003
2020
,
0000
3030
0000
0000
;

//---------------dance-single - Gpop----------------
#NOTES:
     dance-single:
     Gpop:
     Easy:
     3:
     0.187,0.209,0.076,0.201,0.000:
0000
0000
0000
0000
,
0000
0000
0000
0000
,
0000
0000
0000
0000
,
0000
0000
0000
0000
,
0000
0000
0000
0000
,
0000
0000
0000
0000
,
0000
0000
0000
0000
,
0000
0000
0000
0000
,
1000
0000
0000
0001
,
0000
0000
0000
0100
0000
0100
0000
0000
,
0010
0000
0000
1000
,
0000
0000
0000
0001
0000
0001
0000
0000
,
0010
0000
0000
0001
,
0000
0000
0000
1000
0000
1000
0000
0000
,
0010
0000
0000
0100
,
0000
0000
0000
0001
0000
0001
0000
0000
,
1000
0100
0000
0010
,
0000
0001
0000
1000
,
0000
0010
0000
0100
,
0000
0010
0000
1000
,
0000
0001
0000
0010
,
0000
0100
0000
1000
,
0000
0010
0000
0100
,
0000
0001
0000
0010
,
0100
1000
0000
0001
,
0000
0100
0000
0010
,
0000
0100
0000
0001
,
0000
0010
0000
0100
,
0000
1000
0000
0001
,
0000
0100
0000
0010
,
0000
0100
0000
0001
,
0000
1000
0000
0100
,
0020
0000
0030
0002
,
0000
0003
1000
0000
,
0010
0100
0001
0000
,
1000
0000
0100
0000
,
0020
0000
0030
0002
,
0000
0003
1000
0000
,
0010
0100
0001
0000
,
1000
0000
0000
0000
,
0001
0001
1000
0000
,
0100
0100
0010
0000
,
0001
0001
1000
0000
,
0010
0010
0100
0000
,
0010
1000
0001
0000
,
0010
0100
1000
0000
,
0001
0000
1000
0000
,
0020
0000
0030
0000
,
1000
0000
0000
1000
0000
0000
1000
0000
,
0000
1000
0000
0000
0000
0001
0000
0000
,
0000
0100
0000
0010
,
0000
1000
0000
1001
,
0000
0001
0000
0000
0001
0000
0000
0001
,
0000
0000
1000
0000
0000
1000
0000
0000
,
1000
0000
0000
1000
0000
0000
1000
0000
,
0002
0000
0000
0003
,
0100
0010
0000
1000
,
0000
0001
0000
0010
,
0000
0200
0000
0300
,
0000
2000
0000
0000
,
3000
1001
0000
0110
,
0000
0002
0000
0000
,
0000
2003
0000
3020
,
0000
0000
0030
0200
,
0000
0302
0000
0003
,
0000
1000
0000
0001
,
0000
0202
0000
0000
,
0000
0000
0303
0001
,
1000
2020
0000
0000
,
0000
3030
0000
1001
,
0000
2000
0000
3200
,
0000
0000
0300
0020
,
0000
0032
0000
0003
,
0000
0010
0000
0100
,
0000
2200
0000
0000
,
0000
0000
3300
1000
,
0001
0022
0000
0000
,
0000
0033
0000
0110
,
0000
1001
0000
1000
,
0000
0001
0000
0100
,
0000
0010
0000
1000
,
0000
0100
0000
0010
,
0000
0002
0000
0000
,
0000
0000
0003
1000
,
0010
0200
0000
0000
,
0000
0300
0000
2002
,
0000
3003
0000
0000
;

//---------------dance-single - Gpop----------------
#NOTES:
     dance-single:
     Gpop:
     Beginner:
     1:
     0.083,0.119,0.014,0.000,0.000:
0000
0000
0000
0000
,
0000
0000
0000
0000
,
0000
0000
0000
0000
,
0000
0000
0000
0000
,
0000
0000
0000
0000
,
0000
0000
0000
0000
,
0000
0000
0000
0000
,
0000
0000
0000
0000
,
1000
0000
0000
1000
,
0000
0000
0000
0000
,
0001
0000
0000
0001
,
0000
0000
0000
0000
,
0100
0000
0000
0100
,
0000
0000
0000
0000
,
0010
0000
0000
0010
,
0000
0000
0000
0000
,
1000
0000
0000
0000
,
0000
0000
0000
0000
,
0001
0000
0000
0000
,
0000
0000
0000
0000
,
0010
0000
0000
0000
,
0000
0000
0000
0000
,
0100
0000
0000
0000
,
0000
0000
0000
0000
,
1000
0000
0000
0000
,
0001
0000
0000
0000
,
0100
0000
0000
0000
,
0010
0000
0000
0000
,
1000
0000
0000
0000
,
0001
0000
0000
0000
,
0010
0000
0000
0000
,
0100
0000
0000
0000
,
1000
0000
0000
0000
,
0001
0000
0000
0000
,
0100
0000
0100
0000
,
0010
0000
0000
0000
,
1000
0000
0000
0000
,
0001
0000
0000
0000
,
0010
0000
0010
0000
,
0001
0000
0000
0000
,
1000
0000
0000
0000
,
1000
0000
0000
0000
,
0001
0000
0000
0000
,
0001
0000
0000
0000
,
0100
0000
0000
0000
,
0010
0000
0000
0000
,
1000
0000
1000
0000
,
0001
0000
0000
0000
,
1001
0000
0000
1000
,
0000
0000
0000
0001
,
0000
0100
0000
0010
,
0000
0010
0000
1000
,
0000
0000
1000
0000
,
0000
0001
0000
0000
,
0001
0000
0000
0000
,
0001
0000
0000
0000
,
0000
1000
0000
0000
,
0000
0010
0000
0000
,
0000
0100
0000
0000
,
0000
0001
0000
0000
,
0000
1000
0000
0000
,
0000
0001
0000
0001
,
0000
0001
0000
1000
,
0000
0000
0000
1000
,
0000
0001
0000
0001
,
0000
0000
0000
0000
,
0000
0100
0000
0000
,
0000
0000
0000
0010
,
0000
0010
0000
0000
,
0000
0000
0000
1000
,
0000
1000
0000
0001
,
0000
0000
0000
0001
,
0000
0010
0000
0010
,
0000
0000
0000
0000
,
0000
0100
0000
0000
,
0000
0000
0000
1000
,
0000
1000
0000
0000
,
0000
0000
0000
0001
,
0000
0001
0000
0000
,
0000
0100
0000
0000
,
0000
0010
0000
0000
,
0000
1000
0000
0000
,
0000
0001
0000
0000
,
0000
0000
0000
0000
,
0000
1000
0000
0000
,
0000
0000
0000
1001
;
