#TITLE:Intersect Thunderbolt;
#SUBTITLE:(Black Package Ver.);
#ARTIST:Saitama Saisyu Heiki;
#TITLETRANSLIT:;
#SUBTITLETRANSLIT:;
#ARTISTTRANSLIT:;
#GENRE:;
#CREDIT:;
#BANNER:bn.png;
#BACKGROUND:bg.png;
#LYRICSPATH:;
#CDTITLE:cdtitlegpop.png;
#MUSIC:Intersect Thunderbolt.ogg;
#OFFSET:-2.190;
#SAMPLESTART:9.850;
#SAMPLELENGTH:12.000;
#SELECTABLE:YES;
#BPMS:0.000=250.001;
#STOPS:;
#BGCHANGES:0.000=bg.png=1.000=0=0=1=====,
32.000=-random-=1.000=0=0=1=====,
64.000=-random-=1.000=0=0=1=====,
80.000=-random-=1.000=0=0=1=====,
96.000=-random-=1.000=0=0=1=====,
128.000=-random-=1.000=0=0=1=====,
144.000=-random-=1.000=0=0=1=====,
160.000=-random-=1.000=0=0=1=====,
176.000=-random-=1.000=0=0=1=====,
185.000=-random-=1.000=0=0=1=SongBgWithMovieViz====,
187.000=-random-=1.000=0=0=1=SongBgWithMovieViz====,
189.000=-random-=1.000=0=0=1=SongBgWithMovieViz====,
190.000=-random-=1.000=0=0=1=SongBgWithMovieViz====,
191.000=-random-=1.000=0=0=1=SongBgWithMovieViz====,
193.000=-random-=1.000=0=0=1=====,
224.000=-random-=1.000=1=0=1=SongBgWithMovieViz==CrossFade==,
232.000=-random-=1.000=0=0=1=====,
264.000=-random-=1.000=0=0=1=====,
296.000=-random-=1.000=1=0=1=SongBgWithMovieViz==CrossFade==,
304.000=-random-=1.000=0=0=1=====,
336.000=-random-=1.000=0=0=1=====,
368.000=-random-=1.000=0=0=1=====,
400.000=-random-=1.000=0=0=1=====,
416.000=-random-=1.000=1=0=1=SongBgWithMovieViz==CrossFade==,
432.000=-random-=1.000=0=0=1=====,
456.000=-random-=1.000=1=0=1===CrossFade==,
464.000=-random-=1.000=0=0=1=====,
488.000=-random-=1.000=0=0=1=====,
489.500=-random-=1.000=0=0=1=====,
491.000=-random-=1.000=0=0=1=====,
492.000=-random-=1.000=0=0=1=====,
493.500=-random-=1.000=0=0=1=====,
495.000=-random-=1.000=0=0=1=====,
496.000=-random-=1.000=0=0=1=====,
497.500=-random-=1.000=0=0=1=====,
499.000=-random-=1.000=0=0=1=====,
500.000=-random-=1.000=0=0=1=====,
501.500=-random-=1.000=0=0=1=====,
503.000=-random-=1.000=0=0=1=====,
504.000=-random-=1.000=1=0=1=SongBgWithMovieViz==CrossFade==,
512.000=bg.png=1.000=0=0=1=====,
99999=-nosongbg-=1.000=0=0=0 // don't automatically add -songbackground-
;
#BGCHANGES2:32.000=white flash=1.000=0=0=1=====,
96.000=white flash=1.000=0=0=1=====,
160.000=white flash=1.000=0=0=1=====,
185.000=white flash=1.000=0=0=1=====,
187.000=white flash=1.000=0=0=1=====,
189.000=white flash=1.000=0=0=1=====,
190.000=white flash=1.000=0=0=1=====,
191.000=white flash=1.000=0=0=1=====,
193.000=white flash=1.000=0=0=1=====,
232.000=white flash=1.000=0=0=1=====,
304.000=white flash=1.000=0=0=1=====,
368.000=white flash=1.000=0=0=1=====,
432.000=white flash=1.000=0=0=1=====,
512.000=white flash=1.000=0=0=1=====,
;
#KEYSOUNDS:;

//---------------dance-single - ----------------
#NOTES:
     dance-single:
     :
     Challenge:
     13:
     1.000,1.000,0.064,0.191,0.656:
0000
0000
0000
0000
,
0000
0000
0000
0000
,
0000
0000
0000
0000
,
0000
0000
0000
0000
,
0000
0000
0000
0000
,
0000
0000
0000
0000
,
0000
0000
0000
0000
,
0000
0000
0000
0000
,
1000
0001
1000
0100
0010
0001
1000
0100
,
1000
0001
1000
0001
0100
0001
0010
0001
,
1000
0001
1000
0100
0010
0001
1000
0100
,
1000
0001
1000
0001
0100
0001
0010
0001
,
1000
0001
0010
0100
1000
0001
1000
0010
,
1000
0001
1000
0001
0100
0001
0010
0001
,
1000
0001
0010
0100
1000
0001
1000
0010
,
1000
0001
1000
0001
0100
0001
0010
0001
,
1000
0001
0100
0010
1000
0001
1000
0100
,
1000
0001
1000
0001
0100
0001
0010
0001
,
1000
0001
0100
0010
1000
0001
1000
0100
,
1000
0001
1000
0001
0100
0001
0010
0001
,
1000
0100
0010
0001
1000
0100
0010
0100
,
0010
0001
0010
0001
0100
0001
0010
0001
,
1000
0100
0010
0100
0010
0001
0010
0100
,
1000
0100
1000
0000
0010
0000
0100
0000
0001
0100
0001
0100
0001
0000
1000
0000
,
0001
1000
0001
0010
0100
1000
0001
0010
,
0001
0100
1000
0100
0001
0100
1000
0100
,
0001
1000
0001
0010
0100
1000
0001
0010
,
0001
0010
1000
0010
0001
0010
1000
0010
,
0001
1000
0100
0010
0001
1000
0001
0010
,
0100
1000
0010
1000
0100
1000
0010
1000
,
0001
1000
0100
0010
0001
1000
0001
0100
,
0001
1000
0100
1000
0001
1000
0100
1000
,
0001
1000
0100
0001
0100
1000
0010
0100
,
0001
0010
1000
0010
0001
0010
1000
0010
,
0001
0100
0010
1000
0010
0100
0001
0010
,
0001
0100
1000
0100
0001
0100
1000
0100
,
0001
0010
0100
1000
0001
0100
0010
0100
,
0001
0010
0100
1000
0001
0100
0010
1000
,
0001
1000
0100
1000
0100
1000
0100
0010
,
0001
0010
0001
0000
0010
0000
0100
0000
1000
0001
1000
0001
1000
0100
1000
0100
,
1000
0001
1000
0100
1000
0100
0010
0001
,
0020
0100
0130
2000
0001
3001
1000
0100
,
1000
0010
0100
0001
0100
0001
1000
0100
,
0020
0001
0031
0200
0010
0310
1000
0001
,
1000
0001
0100
0010
0100
0001
1000
0100
,
0020
0001
0031
2000
0100
3100
0010
0001
,
1000
0010
1010
1000
0001
1000
1001
0001
,
0100
0010
1010
1000
1001
0001
1001
1000
,
0001
0000
0100
0000
0101
0000
0001
0000
1000
0100
1000
0000
0010
0000
0100
0000
,
0002
0010
0013
0200
0010
0310
0001
1000
,
0001
0100
1000
0100
0001
0010
1000
0010
,
0001
0010
0100
1000
0001
0100
0010
1000
,
0001
0010
0100
0010
0001
0100
0010
1000
,
0010
0100
0001
0010
0100
1000
0001
0100
,
0001
0000
1000
0000
0001
0100
0001
0000
0010
0000
0100
0000
1000
0000
0100
0000
,
0010
0001
0010
0000
0100
0000
1000
0000
0001
0000
0100
0000
1000
0000
0100
0000
,
0001
0100
0010
1000
0001
0100
0010
1000
,
00M1
0100
0001
0000
M100
0000
0001
0100
00M1
0000
0100
0000
M001
0100
0001
0000
,
10M0
0100
0100
0010
M001
0001
0100
0010
,
001M
1000
0010
0010
M100
0001
1000
0001
,
M010
0100
0100
1000
001M
0010
0100
0001
,
00M1
1000
0100
0100
M010
0001
0010
1000
,
0M10
0001
0001
0100
M010
0010
1000
0010
,
001M
0100
0001
0001
10M0
0100
0001
0100
,
100M
0010
0010
0100
M001
0001
0010
0100
,
100M
0100
0100
1000
00M1
0001
0100
0010
,
1M00
0001
0001
0100
M010
0010
1000
0001
,
0M01
0010
0100
0100
100M
0100
1000
0001
,
1M00
0010
0010
0001
M010
0010
0100
0001
,
00M1
1000
0100
0100
00M1
0100
1000
0010
,
M100
0001
0001
0100
10M0
1000
0100
0001
,
M001
0010
0100
0100
10M0
0001
1000
0010
,
100M
0100
0100
0001
01M0
0100
1000
0010
,
100M
0100
1000
0000
0010
0000
0100
0000
0001
0100
0001
0100
0001
1000
0001
1000
,
0002
0010
0013
0200
1000
1300
0001
0100
,
0001
0100
0010
1000
0001
0100
0010
1000
0010
1000
0010
1000
0001
0000
1000
0000
,
0001
0100
0001
0100
0020
0000
0000
0000
0000
0000
0000
0000
1030
0000
0100
0000
,
1000
0000
0010
0000
0100
0000
0001
0000
1000
0100
1000
0000
0001
0000
0010
0000
,
0100
0000
0000
0000
1000
0000
0000
0000
0100
0000
0000
0000
1000
0000
0000
0001
0000
0000
1000
0000
0000
0001
0000
0000
1000
0000
0000
0000
0100
0000
0000
0000
0010
0000
0000
0000
0001
0000
0000
0000
0000
0000
1000
0000
0000
0000
0000
0000
,
0010
0000
0000
0000
0100
0000
0000
0000
0001
0000
0000
0000
0100
0000
0000
0000
0010
0000
0000
0000
1000
0000
0000
0000
0001
0000
0000
0000
0010
0000
0000
0000
0100
0000
0000
0000
1000
0000
0000
0000
0000
0000
0001
0000
0000
0100
0000
0000
,
0001
0000
1000
0100
1000
0000
0001
0100
0001
0000
1000
0000
0100
0000
0010
0000
,
0001
0100
0001
0000
0100
0000
0010
1000
0010
0000
0100
0000
0001
0100
0001
0100
,
0001
0000
0000
0000
0010
0000
0000
0000
0100
0000
0000
0000
1000
0000
0000
0000
0100
0000
0000
0000
0010
0000
0000
0000
0001
0000
0000
0000
1000
0000
0000
0000
0010
0000
0000
0000
0100
0000
0000
0001
0000
0000
0100
0000
0000
0001
0000
0000
,
1000
0200
0000
0310
0002
0000
1003
0010
,
0200
0000
0000
0000
0000
0000
0301
0010
,
0001
0000
0100
0000
0010
0000
1000
0000
0001
0000
1000
0100
1000
0000
0010
0000
,
0100
0000
0001
0000
0010
0000
0100
0000
0010
0000
0001
0000
1000
0100
1000
0000
,
0001
0010
0100
1000
0100
0010
0001
1000
0010
0100
0001
1000
,
0001
0010
0001
0100
0001
1000
0100
1000
0001
0100
0001
1000
,
0100
1000
0001
0100
0001
1000
0100
1000
0001
0100
0001
1000
,
0100
1000
0100
0010
0001
1000
0010
0100
0001
0100
0010
1000
,
0002
0000
0000
0000
0000
0000
0000
0000
2003
0000
0000
0000
3001
0000
0100
0010
,
1000
0001
0010
0100
1000
0001
1000
0100
,
0001
0100
1000
0100
0001
0100
1000
0100
,
1000
0010
0100
0001
1000
0001
1000
0010
,
0001
0010
1000
0010
0001
0010
1000
0010
,
1000
0100
0010
0001
0010
0100
1000
0001
,
0100
0001
0010
0001
0100
0001
1000
0001
,
1000
0100
1000
0100
0010
0100
0010
0001
0010
0100
1000
0100
,
0010
0100
1000
0001
0010
0100
1000
0010
0100
0001
0100
0010
,
1000
0010
0010
0100
0001
0001
1000
0100
,
0100
0000
1000
0100
1000
0000
0100
0000
0010
0001
0010
0000
0001
0000
1000
0000
,
0010
0100
0001
1000
0010
0100
0001
1000
,
0010
0100
0001
1000
0100
0010
0001
0010
,
0001
0010
0100
0010
0100
1000
0100
0010
0100
0010
0001
0010
,
0100
1000
0010
0100
0001
0100
0010
1000
0010
0100
0010
0100
,
0001
1000
0100
0010
0001
0010
0100
1000
0010
0100
0010
0100
,
0010
0000
1000
0000
0001
0000
0100
0000
0001
0000
0100
0000
0010
0000
0100
0000
0001
0000
1000
0000
0000
0001
0000
0000
,
1001
1000
0010
0100
0100
0001
0010
0001
,
0001
1000
0010
0100
0100
0001
0100
0010
,
0100
0001
0010
0001
0001
0100
0010
1000
,
1000
0010
0100
0001
0001
1000
0001
0100
,
0001
0010
1000
0010
0010
0001
0100
0010
,
0010
1000
0010
0100
0100
1000
0100
0001
,
1000
0000
0100
0000
0010
0000
0100
0000
0010
0000
0001
0000
1000
0000
0100
0000
0010
0000
0001
0000
0000
1000
0000
0000
,
0002
0000
0000
1000
0000
0000
1003
0100
,
1000
0100
0010
0001
0001
0010
0100
1000
,
1000
0010
0001
0010
0010
1000
0010
0100
,
0010
1000
0100
0001
0001
0100
1000
0010
,
0010
0001
0010
1000
1000
0001
1000
0100
,
1000
0010
0100
0001
0001
0100
0010
1000
,
1000
0001
0010
0100
0100
1000
0100
0001
,
0200
1000
1300
0002
0100
0103
0010
1000
,
0020
0000
0100
0000
0130
0000
0002
0000
1000
0000
1003
0000
0001
0100
0001
0100
,
0001
0010
0100
0010
0100
1000
0100
0010
0001
0010
0001
1000
0100
0010
0001
0010
,
0100
1000
0001
0100
0010
1000
0010
0100
0001
0100
0001
0100
0010
0000
1000
0000
,
0002
0000
1000
0000
1000
1000
1000
0000
,
1003
0000
0000
0000
0100
0000
0000
0000
0010
0000
0000
0000
0001
0000
0000
0000
1000
0000
0000
0000
0010
0000
0000
0000
0100
0000
0000
0000
0000
0000
0001
0000
0000
1000
0000
0000
0001
0000
0000
0000
0000
0000
0000
0000
0000
0000
0000
0000
,
2002
0000
0000
3003
0000
0000
MMMM
0000
;

//---------------dance-single - ----------------
#NOTES:
     dance-single:
     :
     Hard:
     9:
     0.894,0.814,0.318,0.199,0.044:
0000
0000
0000
0000
,
0000
0000
0000
0000
,
0000
0000
0000
0000
,
0000
0000
0000
0000
,
0000
0000
0000
0000
,
0000
0000
0000
0000
,
0000
0000
0000
0000
,
0000
0000
0000
0000
,
1000
0100
1000
0100
0010
0001
0000
1000
,
0010
0100
0001
0010
,
0100
1000
0100
0010
0001
1000
0000
0001
,
0100
0010
0100
0001
,
1000
0100
0010
0100
1000
0001
0000
0100
,
0010
1000
0010
0100
,
0001
1000
0001
0010
0100
1000
0000
0001
,
0010
0001
0010
0100
,
1000
0010
0100
0010
1000
0001
0000
0010
,
0001
0100
0010
1000
,
0001
0100
1000
0100
0001
0010
0000
0100
,
1000
0100
0001
0100
,
1000
0100
0010
0001
1000
0100
0010
0100
,
1000
0100
0010
0001
1000
0010
0100
0001
,
1000
0000
0001
0100
0010
0100
0001
0100
,
0020
0000
1030
0100
1000
0010
0100
0001
,
1000
0100
1000
0010
0100
0001
0000
1000
,
0001
0100
1000
0100
,
0001
0010
0100
1000
0100
1000
0000
0001
,
0100
0001
0010
0100
,
1000
0010
0100
0001
0100
0001
0000
1000
,
0010
0100
0010
0100
,
0001
0010
0100
1000
0001
0010
0000
0100
,
1000
0100
0010
0001
,
1000
0100
0001
0100
0010
0001
0000
1000
,
0010
0001
0010
1000
,
0001
0010
1000
0010
0100
1000
0000
0001
,
0100
0000
1000
0000
0100
0000
0001
1000
,
0001
0010
0100
1000
0001
0100
0010
1000
,
0001
0010
0100
0010
0001
0010
0100
1000
,
0001
0100
0010
1000
0010
1000
0010
1000
,
0002
0000
1003
0100
1000
0010
0100
0001
,
1000
0000
0001
0100
0001
0100
0010
1000
,
0010
0000
1000
0010
0000
1000
0010
1000
,
0010
0000
0100
0001
0100
0010
1000
0001
,
1000
0000
0001
0100
0000
0010
1000
0010
,
1000
0000
0001
0010
0100
0010
0001
1000
,
0001
0000
1000
0010
0000
0100
0001
0100
,
0001
1000
1100
0000
0001
0100
0110
0000
,
1000
0010
0110
0000
0101
0000
0101
0000
,
1001
1000
0010
0100
0002
0000
1003
0010
,
0100
0000
0010
1000
0000
0010
0100
0001
,
0100
0001
0100
0001
0100
0010
0100
0010
,
1000
0010
1000
0010
1000
0001
1000
0001
,
1000
0000
0100
0010
0001
1000
0000
1000
,
0001
0100
0001
0100
0010
1000
0001
1000
,
0100
0000
0020
0000
0031
1000
0010
0100
,
0001
0001
1000
0100
0010
0001
1000
0100
,
1000
0001
1000
0001
0100
0001
0100
0001
,
1000
1000
0100
1000
1000
0100
1000
1000
,
0001
0000
0100
0010
0000
1000
0010
0000
,
0100
0010
0000
0100
0001
0000
1001
0000
,
1100
0000
0100
0010
0000
0010
0001
0000
,
0001
1000
0000
1000
0010
0000
0110
0000
,
0101
0000
0001
0010
0000
0010
0100
0000
,
0100
1000
0000
1000
0001
0000
0101
0000
,
0110
0000
0010
1000
0000
1000
0001
0000
,
0101
0000
0100
0010
0000
0010
0100
0000
,
0101
0000
0001
0010
0000
0100
1000
0000
,
0001
0100
0000
0010
1000
0000
0110
0000
,
0101
0000
0001
1000
0000
0100
0010
0000
,
0001
0010
0000
1000
0010
0000
0011
0000
,
1001
0000
1000
0010
0000
0001
0010
0000
,
1000
0100
0000
0001
0100
0000
1100
0000
,
1001
0000
0001
0100
0000
0100
1000
0000
,
1100
0000
1000
0100
0000
0100
0001
0000
,
1001
0000
1000
0100
0000
0100
0010
0000
,
0011
0000
0001
0100
0000
0100
0010
0000
,
2000
0000
0002
0000
3000
0000
1003
0010
,
1000
0010
0100
0001
2000
0000
3001
0100
,
0010
1000
0010
1000
0001
1000
0001
1000
,
0001
0000
0000
0000
0100
0000
0000
0000
0020
0000
0000
0000
0000
0000
0000
0000
0000
2030
0000
0000
0000
0000
0000
0000
0000
0000
3002
0000
0000
0000
0000
0000
,
0000
0000
0000
0203
0000
0000
0000
0000
0000
0000
0000
0000
0310
0000
0000
0000
1000
0000
0000
0000
0010
0000
0000
0000
0100
0000
0000
0000
0001
0000
0000
0000
,
1000
0200
0000
0310
0002
0000
1003
0100
,
1000
0100
1000
0010
0100
0001
1000
0100
,
1000
0020
0000
0130
0002
0000
0103
0010
,
2000
0000
0000
0000
0000
0000
3001
0100
,
0001
0010
0100
1000
0001
0200
0000
0310
,
1000
0001
0010
0100
1000
0001
0200
0000
,
0301
0010
0100
0010
0001
1000
0010
1000
,
0001
0000
1000
0000
0000
0001
0000
0000
0100
0000
0000
0010
,
0000
0000
1000
0000
0000
0100
0000
0000
1000
0000
0000
0001
,
1000
0100
0010
0001
0010
0100
1000
0001
,
0200
0000
0000
0000
0320
0000
0000
1000
,
1030
0100
0010
0001
0010
0100
1000
0100
,
1000
0100
0001
0100
1000
0100
0001
0100
,
1000
0010
0100
0001
0100
0010
1000
0001
,
1000
0010
0001
0010
1000
0010
0001
0010
,
1000
0100
0010
0001
0010
0100
1000
0001
,
1000
0001
0100
0001
0010
0001
0100
0001
,
1000
0100
0010
0001
0010
0100
1000
0001
,
1000
0000
1000
0000
0001
0100
0010
1000
,
0001
0000
1000
0100
0000
0100
0010
0000
,
0010
0002
0000
1003
0200
0000
0310
0001
,
1000
0100
0010
0001
1000
0100
0010
0001
,
1000
0010
0100
0001
1000
0010
0100
0001
,
1000
0100
1000
0010
0100
0001
0100
0001
,
0100
0010
1000
0001
0010
0100
1000
0001
,
0010
0001
1000
0100
0010
0001
1000
0100
,
0010
0001
1000
0010
0100
0001
1000
0100
,
1000
0000
0001
0100
0010
0000
1000
0010
,
0100
0000
0001
0010
0100
0000
1100
0000
,
1100
0000
1000
0010
0100
0000
0001
0100
,
0001
0000
1000
0100
0010
0000
0011
0000
,
0011
0000
1000
0010
1000
0000
0001
0100
,
0001
0000
1000
0100
0010
0000
0110
0000
,
0110
0010
0001
0100
0010
1000
0001
1000
,
0002
0000
0000
0000
0000
0000
1003
0100
,
1000
0000
0010
0100
0001
0000
1000
0100
,
0001
0000
0100
1000
0010
0000
0110
0000
,
0110
0000
0100
0001
1000
0000
0001
0010
,
1000
0000
0010
0001
0100
0000
0101
0000
,
0101
0000
0001
1000
0100
0000
0010
0001
,
0010
0000
0100
1000
0001
0000
1001
0000
,
1001
0000
1000
0010
0000
0001
0010
0000
,
1010
0000
1000
0100
0000
0001
0100
0000
,
1100
0000
1000
0001
0000
0100
0010
0000
,
1001
0000
0001
1000
0000
0010
0100
0000
,
0220
0000
0000
0000
,
0000
0000
0000
0330
,
1001
0000
0000
0000
;

//---------------dance-single - ----------------
#NOTES:
     dance-single:
     :
     Medium:
     7:
     0.587,0.661,0.040,0.048,0.000:
0000
0000
0000
0000
,
0000
0000
0000
0000
,
0000
0000
0000
0000
,
0000
0000
0000
0000
,
0000
0000
0000
0000
,
0000
0000
0000
0000
,
0000
0000
0000
0000
,
0000
0000
0000
0000
,
1000
0000
0001
0100
0001
0100
0000
0001
,
0100
0100
0100
0100
,
0010
0000
1000
0010
1000
0010
0000
1000
,
0010
0010
0010
0010
,
1000
0000
0100
1000
0100
1000
0000
0100
,
1000
1000
1000
1000
,
0010
0000
0100
0001
0100
0001
0000
0100
,
0001
0001
0001
0001
,
1000
0000
0010
0100
0010
0100
0000
0010
,
0100
0010
1000
0010
,
0100
0000
0001
0010
0100
1000
0000
0001
,
0100
0001
0100
0001
,
1000
0100
0010
0001
,
1000
0010
0100
0001
,
1000
0000
0001
0100
0001
0000
1000
0000
,
0001
0000
1000
0100
1000
0000
0010
0000
,
0100
0000
0001
1000
0001
0100
0000
0010
,
1000
1000
0001
0001
,
0100
0000
0010
1000
0010
0100
0000
0001
,
0010
0100
0010
0001
,
1000
0000
0001
0100
0001
0010
0000
0100
,
1000
1000
0010
0010
,
0100
0000
0010
1000
0010
0100
0000
0001
,
0100
0100
0010
0010
,
1000
0000
0100
0010
0100
0001
0000
1000
,
0100
0100
1000
1000
,
0001
0000
1000
0100
1000
0010
0000
0100
,
0001
0001
1000
1000
,
0001
0100
0010
0100
,
0001
0010
0100
1000
,
0001
0000
1000
0100
1000
0000
0010
0000
,
0100
0000
0001
0010
0001
0000
1000
0000
,
0001
0000
1000
0100
1000
0000
0010
0000
,
0100
0000
0000
0001
0000
0000
0010
0000
,
0100
0000
1000
0001
0100
0000
0010
0000
,
1000
0000
0000
1000
0000
0000
0001
0000
,
0100
0000
0010
1000
0010
0000
0100
0000
,
0001
0000
0000
0010
0000
0000
0100
0000
,
1000
0100
1000
0000
0001
0100
0001
0000
,
0100
0010
0100
0000
0110
0000
0110
0000
,
1001
0000
1000
0100
0010
0000
0001
0000
,
1000
0000
0000
1000
0000
0000
0010
0000
,
0100
0000
0001
0100
0001
0000
1000
0100
,
1000
0000
0100
0010
0100
0000
0010
0001
,
0010
0000
0001
0000
1000
0100
0010
0000
,
0001
0000
0100
0010
1000
0000
0001
0000
,
1000
0000
0001
0000
1000
0000
0010
0100
,
0001
0000
1000
0100
1000
0000
0001
0000
,
0100
0010
1000
0001
,
1000
0100
1000
0100
1000
0100
1000
0000
,
0001
0000
0000
0100
0000
0000
0010
0000
,
0000
1000
0000
0000
0001
0000
0010
0000
,
0100
0000
0000
1000
0000
0000
0100
0000
,
0000
0010
0000
0000
0001
0000
0100
0000
,
0001
0000
0000
1000
0000
0000
0010
0000
,
0000
0100
0000
0000
0001
0000
1000
0000
,
0100
0000
0000
0001
0000
0000
0100
0000
,
1000
0000
0000
0010
0000
0000
0100
0000
,
0001
0000
0000
0010
0000
0000
0100
0000
,
0000
1000
0000
0000
0010
0000
0100
0000
,
0001
0000
0000
0010
0000
0000
0001
0000
,
0000
0100
0000
0000
1000
0000
0100
0000
,
0001
0000
0000
0010
0000
0000
0100
0000
,
0000
1000
0000
0000
0100
0000
0010
0000
,
0001
0000
0000
0100
0000
0000
1000
0000
,
0100
0000
0000
0001
0000
0000
0010
0000
,
1000
0000
0000
0010
0000
0000
0001
0000
,
0100
0000
0000
0010
0000
0000
1000
0000
,
0001
0200
0000
0310
,
1000
0000
0001
0000
0010
0100
1000
0000
,
0001
0100
0010
1000
,
0001
0010
0001
0010
,
0100
1000
0001
0100
,
0001
0010
0100
1000
,
0001
0100
0001
0100
,
0010
1000
0000
1000
0010
0000
0100
0001
,
0200
0000
0000
0000
0000
0000
0301
1000
,
0001
0000
1000
0000
0100
0010
0001
1000
,
0001
1000
0100
1000
,
0010
0100
0010
0100
0010
0000
0100
0000
,
0001
1000
0001
1000
,
0001
1000
0001
1000
,
0001
0100
0010
1000
,
0002
0000
1000
0000
,
1003
0000
0010
0100
0001
0000
1000
0000
,
0100
0010
0001
1000
,
0001
0000
0100
0010
1000
0000
0001
0000
,
0100
0010
1000
0010
,
0100
0000
0001
0010
0001
0000
0010
0000
,
0100
1000
0001
0100
,
0001
0100
0001
0100
0001
0100
0001
0000
,
1000
1000
1000
1000
,
0001
0000
0000
0010
0000
0000
0100
0000
,
0000
1000
0000
0000
1000
0000
0001
0100
,
0001
0100
0010
1000
,
0010
0100
0001
1000
,
0001
0001
0001
0001
,
1000
1000
1000
1000
,
0001
0000
0010
0100
0010
0000
0100
1000
,
0100
0000
0001
0100
0001
0000
1000
0100
,
1000
0010
0010
0100
,
0100
0001
0001
1000
,
0100
0010
0010
0001
,
0001
0100
0100
0010
,
1000
0010
0010
0100
,
0100
0001
0001
0010
,
0100
1000
0100
0000
0010
0000
0001
0000
,
2000
0000
0000
0000
0000
0000
3001
0100
,
0001
0100
0100
0010
,
0010
1000
1000
0001
,
0010
0100
0100
1000
,
1000
0010
0010
0100
,
0001
0010
0010
0001
,
0001
1000
1000
0010
,
0100
0000
0000
0100
0000
0000
0100
0000
,
0001
0000
0000
0001
0000
0000
0001
0000
,
1000
0000
0000
1000
0000
0000
1000
0000
,
0100
0000
0000
0010
0000
0000
0001
0000
,
0202
0000
0000
0000
,
0000
0000
0000
0303
,
1001
0000
0000
0000
;

//---------------dance-single - ----------------
#NOTES:
     dance-single:
     :
     Easy:
     5:
     0.409,0.560,0.056,0.072,0.000:
0000
0000
0000
0000
,
0000
0000
0000
0000
,
0000
0000
0000
0000
,
0000
0000
0000
0000
,
0000
0000
0000
0000
,
0000
0000
0000
0000
,
0000
0000
0000
0000
,
0000
0000
0000
0000
,
1000
0100
0010
0000
,
0001
0100
0001
0100
,
0010
1000
0010
0000
,
0100
0001
0100
0001
,
1000
0001
0010
0000
,
0100
1000
0100
1000
,
0010
0100
0001
0000
,
0100
0100
0010
1000
,
0001
0001
0010
0000
,
0100
1000
0100
1000
,
0010
0100
0001
0000
,
0100
0100
0010
1000
,
0001
0000
0100
0000
,
0010
0000
1000
0000
,
0001
0000
0100
0000
,
1000
0100
0010
0001
,
1000
1000
0010
0000
,
0100
0100
0001
0001
,
0010
0100
1000
0000
,
0001
0100
0001
0100
,
0010
1000
0010
0000
,
0100
0100
0001
0010
,
0100
1000
0001
0000
,
0100
0100
0010
0010
,
1000
0001
0100
0000
,
0001
0001
0001
0001
,
1000
0100
0010
0000
,
1000
1000
1000
1000
,
0001
0000
0100
0000
,
0010
0000
1000
0000
,
0010
0000
0010
0000
,
0100
0001
0100
0001
,
1000
0100
0001
0000
,
0100
0000
0100
0000
,
0010
1000
0010
0000
,
1000
0000
0010
0000
,
0100
0001
1000
0000
,
0010
0000
0010
0000
,
0100
0101
0000
0101
,
0000
1001
1100
1100
,
1000
0010
0100
0000
,
0001
0000
0010
0000
,
0100
0000
0100
0000
,
1000
0000
1000
0000
,
0001
0100
0010
0000
,
1000
0000
0010
0000
,
0100
0001
0001
0010
,
0100
0100
1000
0010
,
0100
0000
0001
0000
,
1000
0100
1000
0001
,
0100
0000
0001
0000
,
0010
0000
0100
0100
,
1000
0000
0010
0000
,
0100
0000
0001
0001
,
0010
0000
0001
0000
,
0100
0000
0010
0010
,
1000
0000
0010
0001
,
0010
0000
0100
0010
,
0100
0000
1000
0000
,
0010
0000
0100
0001
,
0100
0000
0010
0000
,
1000
0000
0001
0010
,
0100
0000
1000
0000
,
0100
0000
0001
0100
,
1000
0000
0010
0100
,
0001
0000
1000
0100
,
1000
0000
0001
0100
,
0001
0000
1000
0000
,
0002
0000
0003
0000
,
1000
0100
1000
0100
,
0010
0001
0100
0010
,
1000
0001
0000
1000
,
0000
0001
0000
0100
,
0010
0000
0000
0010
0000
0000
0010
0000
,
1000
0100
1000
0100
,
0010
0000
0000
0010
0000
0000
0010
0000
,
0002
0000
0000
1003
,
0010
0100
0010
1000
,
0001
0010
0100
1000
,
0100
1000
0010
0100
,
0100
0010
0100
0010
,
0100
0010
0100
0010
,
1000
0100
0010
0001
,
2000
0000
3001
0000
,
1000
0100
0010
0000
,
0001
0000
0100
0000
,
0010
1000
0010
0000
,
0100
0000
0001
0000
,
0010
0100
1000
0000
,
0001
0000
0010
0000
,
0001
0100
0010
1000
,
0010
0010
0100
0100
,
0001
0000
0000
0001
0000
0000
0001
0000
,
0000
1000
0000
0000
1000
0000
0001
0000
,
0100
0010
0100
0010
,
1000
0001
1000
0001
,
0010
0000
0100
0000
,
1000
0000
0100
0000
,
0010
0002
0003
2000
,
3000
0020
0030
0100
,
0100
0000
0001
0000
,
0010
0000
0100
1000
,
0100
0000
0010
0000
,
0001
0000
0100
0010
,
1000
0000
0010
0000
,
0100
0000
0001
0100
,
0001
0010
0100
1000
,
0002
0000
0003
1000
,
0100
0000
0010
0000
,
0100
0000
1000
0010
,
0100
0000
0001
0000
,
0010
0000
0001
0010
,
0100
0000
1000
0000
,
0010
0000
0100
0001
,
0100
0000
0100
0000
,
0010
0000
0010
0000
,
1000
0000
1000
0000
,
0001
0000
0001
0000
,
2002
0000
0000
0000
,
0000
0000
3003
0000
,
1001
0000
0000
0000
;

//---------------dance-single - ----------------
#NOTES:
     dance-single:
     :
     Beginner:
     2:
     0.187,0.254,0.024,0.000,0.000:
0000
0000
0000
0000
,
0000
0000
0000
0000
,
0000
0000
0000
0000
,
0000
0000
0000
0000
,
0000
0000
0000
0000
,
0000
0000
0000
0000
,
0000
0000
0000
0000
,
0000
0000
0000
0000
,
1000
0000
0000
0000
,
0001
0000
0001
0000
,
0100
0000
0000
0000
,
0010
0000
0010
0000
,
0100
0000
0000
0000
,
0001
0000
0001
0000
,
1000
0000
0000
0000
,
0100
0000
0100
0000
,
0010
0000
0000
0000
,
0001
0000
0001
0000
,
0010
0000
0000
0000
,
0100
0000
0100
0000
,
1000
0000
0000
0000
,
0001
0000
0000
0000
,
0100
0000
0000
0000
,
0010
0000
0010
0000
,
0100
0000
0000
0000
,
0001
0000
0001
0000
,
0010
0000
0000
0000
,
0100
0000
0100
0000
,
1000
0000
0000
0000
,
0010
0000
0010
0000
,
0100
0000
0000
0000
,
0001
0000
0010
0000
,
0001
0000
0000
0000
,
0100
0000
0010
0000
,
0100
0000
0000
0000
,
0001
0000
1000
0000
,
0100
0000
0000
0000
,
0010
0000
0000
0000
,
0001
0000
0000
0000
,
1000
0000
0000
0000
,
0001
0000
0000
0000
,
0001
0000
0000
0000
,
0100
0000
0000
0000
,
0100
0000
0000
0000
,
0010
0000
0000
0000
,
0010
0000
0000
0000
,
0000
1000
0000
1000
,
0000
1000
0000
1000
,
0000
0001
0000
0000
,
0001
0000
0000
0000
,
0100
0000
0000
0000
,
0100
0000
0000
0000
,
0010
0000
0000
0000
,
1000
0000
0000
0000
,
0001
0000
0000
0000
,
0001
0000
0000
0000
,
0100
0000
0000
0000
,
1000
0000
1000
0000
,
0010
0000
0000
0000
,
0000
0000
0000
0000
,
1000
0000
0000
0000
,
0000
0000
0000
0000
,
0100
0000
0000
0000
,
0000
0000
0000
0000
,
0010
0000
0000
0000
,
0010
0000
0000
0000
,
0001
0000
0000
0000
,
0000
0000
0000
0000
,
0010
0000
0000
0000
,
0000
0000
0000
0000
,
0100
0000
0000
0000
,
0000
0000
0000
0000
,
1000
0000
0000
0000
,
1000
0000
0000
0000
,
0001
0000
0000
0000
,
0001
0000
0000
0000
,
1000
0000
0000
0000
,
0001
0000
0001
0000
,
0100
0000
0100
0000
,
0010
0000
0000
0000
,
0000
0000
0000
0000
,
0001
0000
0000
0000
,
0010
0000
0000
0000
,
0100
0000
0000
0000
,
1000
0000
0000
0000
,
1000
0000
0000
0000
,
0001
0000
0000
0000
,
0100
0000
0000
0000
,
0100
0000
0100
0000
,
0010
0000
0010
0000
,
1000
0000
1000
0000
,
0001
0000
0001
0000
,
1001
0000
0000
0000
,
1000
0000
1000
0000
,
0100
0000
0000
0000
,
0010
0000
0010
0000
,
0001
0000
0000
0000
,
0100
0000
0100
0000
,
0010
0000
0000
0000
,
1000
1000
1000
0000
,
1000
0000
0000
0000
,
0001
0000
0001
0000
,
0001
0000
0000
0000
,
0001
0000
0000
0000
,
0100
0000
0000
0000
,
0010
0000
0000
0000
,
1000
0000
1000
0000
,
0001
0000
0001
0000
,
0001
0000
0001
0000
,
0100
0000
0100
0100
,
0100
0000
0010
0000
,
0010
0000
0010
0010
,
0010
0000
1000
0000
,
1000
0000
1000
1000
,
1000
0000
0000
0001
,
0001
0000
0000
0000
,
0001
0000
0001
0000
,
0001
0000
0001
0001
,
0001
0000
0100
0000
,
0100
0000
0100
0100
,
0100
0000
0010
0000
,
0010
0000
0010
0010
,
0010
0000
0000
0000
,
1000
0000
0000
0000
,
0100
0000
0000
0000
,
0010
0000
0000
0000
,
0110
0000
0000
0000
,
0000
0000
0000
0000
,
1001
0000
0000
0000
;
