#TITLE:Hyadain no Joujou Yuujou;
#SUBTITLE:;
#ARTIST:Hyadain;
#TITLETRANSLIT:;
#SUBTITLETRANSLIT:;
#ARTISTTRANSLIT:;
#CREDIT:;
#BANNER:Hyadain no Joujou Yuujou - bn.png;
#BACKGROUND:Hyadain no Joujou Yuujou - bg.png;
#LYRICSPATH:;
#CDTITLE:cdtitlegpop.png;
#MUSIC:Hyadain no Joujou Yuujou.mp3;
#OFFSET:0.760;
#SAMPLESTART:56.800;
#SAMPLELENGTH:12.000;
#SELECTABLE:YES;
#BPMS:0.000=200.000;
#STOPS:;
#BGCHANGES:2.500=Hyadain no Joujou Yuujou.avi=1.000=0=0=1,
99999=-nosongbg-=1.000=0=0=0 // don't automatically add -songbackground-
;

//---------------dance-single - ----------------
#NOTES:
     dance-single:
     :
     Challenge:
     6:
     1.000,1.000,1.000,1.000,0.719: // measure 1
0000
0000
0000
0000
0000
0000
0000
0000
0000
0000
0000
0000
0000
0000
0000
0000
0000
0000
0000
0000
0000
0000
0000
0000
0000
0000
1000
0100
0010
0001
1000
0100
,  // measure 2
0011
0000
1001
0000
0101
0010
1100
0000
,  // measure 3
1001
0010
1100
0001
0220
1330
0220
0330
,  // measure 4
2100
0010
3001
2100
0010
3001
2100
0010
,  // measure 5
300M
M11M
M11M
M11M
M11M
M11M
M11M
M11M
,  // measure 6
2MM1
0010
3100
0011
0120
2130
3001
0120
,  // measure 7
0031
2100
3010
0102
1013
2000
3020
0230
,  // measure 8
0312
0103
1000
0110
0120
2031
3001
0120
,  // measure 9
1030
0102
0013
2100
3011
0002
M2M3
0320
,  // measure 10
2131
0000
3011
0000
1011
0011
0000
1101
,  // measure 11
0000
0111
0000
0101
2002
3003
0202
0303
,  // measure 12
2102
3003
1001
0000
0010
0010
1001
0100
,  // measure 13
0000
0000
0001
000M
0100
0M00
0010
00M0
1000
M000
000M
0000
110M
0000
0000
0000
,  // measure 14
2202
3303
0000
0000
0101
0000
0100
0000
0100
0000
0010
0000
1100
0000
0001
0000
,  // measure 15
0000
0001
1100
0010
0010
1000
0011
1000
,  // measure 16
2220
3330
0000
0000
0012
0000
0103
0000
0100
0000
0010
0000
1100
0000
0001
0000
,  // measure 17
0000
0001
1100
0010
0010
0100
0001
1000
,  // measure 18
0022
0100
1130
0013
2200
0310
3101
2002
,  // measure 19
0000
0000
0013
0000
3101
0000
0200
0300
0100
0000
0010
0000
1100
0000
0001
0000
,  // measure 20
0110
0000
1001
0200
0001
0310
0100
2002
,  // measure 21
3003
0000
0100
0M00
0100
0M00
0100
0M00
0100
0M00
0100
0M00
0100
0M00
0100
0000
,  // measure 22
2022
3033
0000
0000
2010
0000
0010
3000
0010
0000
0100
0000
0011
0000
1000
0000
,  // measure 23
0000
1000
0011
0100
0100
0001
1100
0001
,  // measure 24
0222
0333
0000
0000
2100
0000
3010
0000
0010
0000
0100
0000
0011
0000
1000
0000
,  // measure 25
0000
1000
0011
0100
0100
0010
1000
0001
,  // measure 26
2200
0010
0311
3100
0022
0130
1013
2002
,  // measure 27
0000
0000
3100
0000
1013
0000
0020
0030
0010
0000
0100
0000
0011
0000
1000
0000
,  // measure 28
0110
0000
1001
0020
1000
0130
0010
2002
,  // measure 29
3003
0100
0010
1000
0100
0010
0001
0010
0100
1000
0011
1000
0110
0001
1100
0001
,  // measure 30
1100
0000
1000
0010
1001
0100
0001
0100
0011
0000
1000
0100
0011
0100
0010
1000
,  // measure 31
0110
0000
0001
1000
0101
0010
1000
0001
1010
0100
0001
0100
0011
1000
0100
0010
,  // measure 32
0101
0000
1000
0010
1100
0001
0100
0010
1100
0000
0001
1000
0011
0100
0010
1000
,  // measure 33
0110
0001
0100
0010
1100
0010
0100
0010
1001
0000
1000
0100
0011
1000
0010
0100
,  // measure 34
0011
0000
1000
0001
0110
1000
0010
0100
0011
0000
0100
0010
1001
0100
0010
0001
,  // measure 35
1100
0000
0010
0100
0011
1000
0010
0100
1001
0000
0010
0100
0011
1000
0010
1000
,  // measure 36
0101
0000
0010
1000
0011
0100
1000
0010
1001
0000
0010
0100
1001
0010
0100
0001
,  // measure 37
M000
0M00
00M0
0000
000M
0000
1MM1
0000
,  // measure 38
2202
3303
0000
0000
11MM
0000
0000
0000
MM11
0000
00MM
0000
1001
0000
M10M
0000
,  // measure 39
1001
M00M
0110
0MM0
0210
M3M2
21M3
3021
,  // measure 40
2232
3003
0300
0000
1M1M
0000
M010
0000
M1M1
0000
0M0M
0000
0110
0000
0MM0
0000
,  // measure 41
0101
0M0M
1001
M00M
1200
M32M
1M32
0123
,  // measure 42
2232
3003
0300
0000
1M1M
0000
M0M0
0000
M1M1
0000
0M0M
0000
1001
0000
M01M
0000
,  // measure 43
1100
MM01
011M
1MM0
0101
0M1M
10M1
0100
,  // measure 44
1001
0000
0010
0000
0100
0000
0011
0000
1000
0000
0010
0000
,  // measure 45
0101
0000
1000
0000
0010
0000
1100
0000
0001
0000
0010
0000
,  // measure 46
1100
0000
1001
0000
0101
0000
0011
0000
1010
0000
0110
0000
,  // measure 47
2012
0100
0010
0100
0010
0100
0010
0100
0010
0100
0010
0100
0010
0100
0010
0100
,  // measure 48
3013
00M0
1000
M000
0100
0M00
0010
00M0
0101
0M0M
1010
M0M0
0101
0M0M
1010
00M0
,  // measure 49
2100
3011
0200
1320
2030
3101
0010
1100
,  // measure 50
0010
0101
1000
0011
0100
2010
3200
0321
,  // measure 51
2030
3101
0020
2130
3002
1103
0010
1001
,  // measure 52
1100
0111
1010
0111
1001
0100
1001
0100
,  // measure 53
0012
2103
3020
0132
2003
3110
0001
1100
,  // measure 54
0010
0101
1000
0011
0100
2001
3020
0132
,  // measure 55
2003
3110
0002
1103
0020
0131
2000
3011
,  // measure 56
0102
0010
0110
2013
0110
0010
0110
0010
,  // measure 57
3210
0311
2000
3102
0023
1130
0010
0101
,  // measure 58
1000
0011
0100
1001
0010
2100
3020
0131
,  // measure 59
2000
3011
0200
1302
0023
2130
3001
0110
,  // measure 60
1002
0213
1320
2130
3102
0003
2100
3000
,  // measure 61
0001
0100
0010
1000
0202
0000
0303
0000
1000
0100
0010
0001
2200
0000
3300
0000
,  // measure 62
0010
0100
0001
1000
0022
0000
0033
0000
1000
0100
0010
0001
2200
0000
3300
0000
,  // measure 63
0001
1000
0100
0010
1001
0100
0010
1000
0001
0100
0001
0010
1100
0001
1000
0100
,  // measure 64
0011
1000
0001
0100
0010
1000
0100
0010
1100
0001
0010
1000
0001
0100
0001
1000
,  // measure 65
0110
0001
0100
0010
1000
0001
0010
0100
0011
0100
1000
0010
0100
0010
0100
0001
,  // measure 66
1100
0000
1100
0000
1001
0010
1100
0000
,  // measure 67
1001
0010
0101
1000
0220
0331
0220
0330
,  // measure 68
1001
0010
1100
0001
0110
1000
0101
0010
,  // measure 69
1100
0000
0001
0000
0110
0000
1000
0000
0222
0333
0MMM
0000
2220
3330
MMM0
0000
,  // measure 70
1001
0000
1001
0000
0110
1000
0101
0000
,  // measure 71
1100
0010
0101
1000
0022
1033
0022
0033
,  // measure 72
2100
0010
3001
2100
0010
3001
2100
3010
,  // measure 73
000M
1MM1
M11M
1MM1
11MM
MM11
M11M
2222
,  // measure 74
0000
0000
0000
0000
0000
0000
0000
0000
0000
0000
0000
0000
0000
0003
003M
03M0
,  // measure 75
3M00
M000
0000
0000
0000
0000
0000
0000
0000
0000
0000
0000
0000
0000
0000
0000
;

//---------------dance-single - ----------------
#NOTES:
     dance-single:
     :
     Hard:
     5:
     1.000,1.000,1.000,1.000,0.513:
0000
0000
0000
0000
,
1001
0000
1001
0000
0101
0010
1100
0000
,
1001
0010
1100
0001
0220
1330
0220
0330
,
2100
0010
3001
2100
0010
3001
2100
0010
,
300M
0110
0110
0110
0110
0110
0110
0110
,
2001
0010
3100
0011
0120
2130
3001
0120
,
0031
2100
3010
0102
1013
2000
3020
0230
,
0312
0103
1000
0110
0120
2031
3001
0120
,
1030
0102
0013
2100
3011
0002
1203
0320
,
2131
0000
3011
0000
1011
0011
0000
1101
,
0000
0111
0000
0101
2002
3003
0202
0303
,
2102
3003
1001
0000
0010
0010
1001
0100
,
0000
0001
0100
0010
1000
000M
110M
0000
,
2202
3303
0000
0000
0101
0000
0100
0000
0100
0000
0010
0000
1100
0000
0001
0000
,
0000
0001
1100
0010
0010
1000
0011
1000
,
2220
3330
0000
0000
0012
0000
0103
0000
0100
0000
0010
0000
1100
0000
0001
0000
,
0000
0001
1100
0010
0010
0100
0001
1000
,
0012
0100
1100
0013
2100
0010
3101
2001
,
0000
0000
0010
0000
3101
0000
0200
0300
0100
0000
0010
0000
1100
0000
0001
0000
,
0110
0000
1001
0200
0001
0310
0100
2002
,
3003
0000
0000
0000
0200
0300
0000
0000
0200
0300
0000
0000
0200
0300
0000
0000
0200
0300
0000
0000
0200
0300
0000
0000
0200
0300
0000
0000
0200
0300
0000
0000
,
2022
3033
0000
0000
2010
0000
0010
3000
0010
0000
0100
0000
0011
0000
1000
0000
,
0000
1000
0011
0100
0100
0001
1100
0001
,
0222
0333
0000
0000
2100
0000
3010
0000
0010
0000
0100
0000
0011
0000
1000
0000
,
0000
1000
0011
0100
0100
0010
1000
0001
,
2100
0010
0011
3100
0012
0100
1013
1002
,
0000
0000
0100
0000
1013
0000
0020
0030
0010
0000
0100
0000
0011
0000
1000
0000
,
0110
0000
1001
0020
1000
0130
0010
2002
,
3003
0100
0010
1000
0100
0010
0001
0010
0100
1000
0001
1000
0100
0001
1000
0001
,
0100
0000
1000
0010
1000
0100
0001
0100
0001
0000
1000
0100
0001
0100
0010
1000
,
0010
0000
0001
1000
0100
0010
1000
0001
0010
0100
0001
0100
0001
1000
0100
0010
,
0001
0000
1000
0010
1000
0001
0100
0010
1000
0000
0001
1000
0001
0100
0010
1000
,
0010
0001
0100
0010
0100
0010
0100
0010
0001
0000
1000
0100
0001
1000
0010
0100
,
0001
0000
1000
0001
0100
1000
0010
0100
0001
0000
0100
0010
1000
0100
0010
0001
,
1000
0000
0010
0100
0010
1000
0010
0100
0001
0000
0010
0100
0001
1000
0010
1000
,
0001
0000
0010
1000
0001
0010
1000
0010
1000
0000
0010
0100
1000
0010
0100
0001
,
M000
0M00
00M0
0000
000M
0000
1001
0000
,
2202
3303
0000
0000
1100
0000
0000
0000
0011
0000
0000
0000
1001
0000
0100
0000
,
1001
0000
0110
0000
0210
0302
2103
3021
,
2232
3003
0300
0000
1010
0000
0010
0000
0101
0000
0000
0000
0110
0000
0000
0000
,
0101
0000
1001
0000
1200
0320
1032
0123
,
2232
3003
0300
0000
1010
0000
0000
0000
0101
0000
0000
0000
1001
0000
0010
0000
,
1100
0001
0110
1000
0101
0010
1001
0100
,
1001
0000
0010
0000
0100
0000
0011
0000
1000
0000
0010
0000
,
0101
0000
1000
0000
0010
0000
1100
0000
0001
0000
0010
0000
,
1100
0000
1001
0000
0101
0000
0011
0000
1010
0000
0110
0000
,
2012
0000
0000
0000
,
3013
1000
0100
0010
0101
1010
0101
1010
,
1100
0010
0101
1010
1001
0001
0010
1000
,
0010
0001
1000
0001
0100
1010
0110
0011
,
1100
0001
0110
1100
0011
1000
0010
0001
,
1100
0101
1010
0101
1001
0100
1001
0100
,
0011
1100
0110
0101
1100
0010
0001
1000
,
0010
0100
1000
0001
0100
1001
0110
0101
,
1100
0010
1001
0100
0011
1000
0002
1003
,
0102
0010
0010
2013
0010
0010
0010
0010
,
3110
0001
1100
0011
1001
1000
0010
0001
,
1000
0010
0100
1000
0010
1100
0101
0011
,
1010
0100
0011
1001
1100
0010
0001
0100
,
2001
3210
1320
0132
2103
3000
2100
3000
,
0001
0100
0010
1000
0101
0000
0000
0000
1000
0100
0010
0001
1100
0000
0000
0000
,
0010
0100
0001
1000
0011
0000
0000
0000
1000
0100
0010
0001
1100
0000
0000
0000
,
0001
1000
0100
0010
1100
0000
0000
0000
0001
0100
0010
1000
0011
0000
0100
0000
,
0011
1000
0001
0100
0010
1000
0100
0010
1000
0001
0100
1000
0001
0100
0001
1000
,
0100
0001
0100
0010
1000
0001
0010
0100
0001
0100
1000
0010
0100
0010
0100
0001
,
1100
0000
1100
0000
1001
0010
1100
0000
,
1001
0010
0101
1000
0220
0331
0220
0330
,
1001
0010
1100
0001
0110
1000
0101
0010
,
1100
0000
0001
0000
0110
0000
1000
0000
0222
0333
0000
0000
2220
3330
0000
0000
,
1001
0000
1001
0000
0110
1000
0101
0000
,
1100
0010
0101
1000
0022
1033
0022
0033
,
2100
0010
3001
2100
0010
3001
2100
3010
,
000M
1001
0110
1001
1100
0011
0110
2222
,
0000
0000
0000
0000
,
3333
0000
0000
0000
;
