#TITLE:Heartless Aircraft Carriers;
#SUBTITLE:;
#ARTIST:Tsukasa;
#TITLETRANSLIT:;
#SUBTITLETRANSLIT:;
#ARTISTTRANSLIT:;
#GENRE:;
#CREDIT:;
#BANNER:Heartles Aircraft Carriers - bn.png;
#BACKGROUND:Heartles Aircraft Carriers - bg.png;
#LYRICSPATH:;
#CDTITLE:gpopcdtitle.png;
#MUSIC:Heartless Aircraft Carriers.ogg;
#OFFSET:0.012;
#SAMPLESTART:77.838;
#SAMPLELENGTH:25.945;
#SELECTABLE:YES;
#BPMS:0.000=148.000;
#STOPS:;
#BGCHANGES:;
#KEYSOUNDS:;

//---------------dance-single - Gpop----------------
#NOTES:
     dance-single:
     Gpop:
     Challenge:
     11:
     0.785,0.956,0.239,0.225,0.958:
0000
0000
0000
0000
,
0000
0000
0000
0000
,
0000
0000
0000
0000
,
0000
0000
0000
0000
,
0000
0000
0000
0000
,
0000
0000
0000
0000
,
0000
0000
0000
0000
,
0000
0000
0000
0000
,
0011
0000
0010
0100
1000
0000
1000
0010
0000
0010
0100
0000
0001
0000
1000
0100
,
0000
0010
0001
0100
0010
0000
0010
1000
0000
1000
0100
0000
0010
0000
0001
1000
,
0001
0000
0100
0010
1000
0000
1000
0100
0000
0100
0010
0000
0001
0000
0100
0010
,
0000
1000
0100
1000
0001
0000
0001
0100
0000
0100
0010
0000
1000
0000
0100
1000
,
0010
0000
0100
0001
0010
0000
0010
0100
0000
0100
1000
0000
0001
0000
0100
0001
,
0000
1000
0100
0010
0001
0000
0001
1000
0000
1000
0010
0000
0100
0000
0001
0010
,
0100
0000
1000
0001
0100
0000
0100
0010
0000
0010
1000
0000
0100
0000
1000
0010
,
0000
0100
0001
0010
0100
0000
0100
1000
0001
0000
0100
0010
1000
0010
0100
0001
,
0010
0000
0100
1000
0000
1000
0001
0100
0001
0000
0010
0100
0000
0100
1000
0010
,
1000
0000
0001
0010
0000
0010
0100
1000
0001
0000
0100
0010
0000
0010
1000
0001
,
1000
0000
0100
0010
0000
0010
0001
0100
0010
0000
1000
0001
0000
0001
0100
0010
,
0100
0000
0001
0010
0000
0010
0100
1000
0100
0000
1000
0001
0000
0001
0010
0000
,
0100
0000
1000
0010
0000
0010
0100
0001
1000
0000
0010
0100
0000
0100
0010
1000
,
0001
0000
0010
0100
0000
0100
1000
0010
1000
0000
0010
0100
0000
0100
0001
0010
,
0001
0000
1000
0100
0000
0100
0010
0100
1000
0000
0010
0100
0000
0100
0001
1000
,
0001
0000
0010
0001
0000
0001
1000
0000
0010
0000
0100
0000
0001
0100
0001
0000
,
1000
0100
0010
0001
1000
0000
0010
0000
0100
0000
0001
0010
0000
0010
0100
1000
,
0001
0000
0100
0010
0000
0010
0100
0001
0010
0000
0100
1000
0000
1000
0010
1000
,
0001
0000
0010
0100
0000
0100
1000
0001
0100
0000
0010
1000
0000
1000
0100
0010
,
0001
0000
0100
0001
0000
0001
0010
0001
1000
0000
0010
0100
0000
0100
0001
0000
,
1000
0000
0100
0010
0000
0010
0100
1000
0001
0000
0100
0001
0000
0001
1000
0010
,
1000
0100
0010
0001
1000
0000
0010
0000
0100
0000
0001
0010
0000
0010
0100
0000
,
1000
0001
1000
0001
0100
0010
0100
0010
,
1000
0100
0010
0100
1000
0001
0100
0010
1000
0001
0010
0001
1000
0010
0100
0001
,
1000
1000
0000
0002
0000
0203
0010
0000
,
0320
0000
1000
0000
0000
0000
2030
0000
0001
0000
0000
0000
3100
0000
0010
0001
,
2000
0001
0000
0000
0000
0000
0000
0000
,
3002
0000
0000
0000
0000
0000
0000
0000
0M00
0000
0000
0M00
0000
00M0
M003
0000
,
1010
1010
0000
2000
0000
3200
0010
0000
,
0320
0000
0001
0000
0000
0000
0032
0000
1000
0000
0000
0000
0103
0000
0010
1000
,
0002
0010
0000
0000
0000
0000
0000
0003
,
2100
0000
0000
0000
0000
0000
0000
0000
3001
0000
0000
0101
0000
0000
1100
0000
,
1001
0101
0101
0101
,
1100
0000
0000
0000
1100
0000
0000
0000
1100
0000
0000
0000
1100
0000
1000
0100
,
0010
0001
0011
0000
0011
0000
0011
0000
,
1010
1010
1010
1010
,
1001
1000
0100
0010
0011
0001
1000
0010
,
0110
0000
0100
0000
0001
0000
1000
0000
1100
0000
0100
0000
1000
0000
0010
0100
,
0001
1000
0001
1000
0010
0100
0010
0100
0001
0010
0100
1000
0001
0100
0010
1000
,
0001
0000
1000
0100
0010
0100
1000
0002
0000
0103
0010
0100
0001
0010
0100
1000
,
0001
0000
0100
0000
0001
0000
1000
0000
0100
0000
0010
0000
0001
0000
1000
0010
,
0100
0000
0001
0000
1000
0000
0100
0000
1000
0000
0001
0000
0100
0000
0010
1000
,
0001
0000
0010
0000
0100
1000
0000
0001
0100
0000
0010
1000
0000
0001
1000
0001
,
0100
0000
0010
0000
1000
0010
0000
1000
0100
0000
0010
0001
0000
1000
0010
0100
,
0001
0000
1000
0000
0001
0000
0010
0000
0001
0000
1000
0000
0010
0000
0100
0001
,
0010
0000
0100
0000
0010
0000
0100
0000
1000
0000
0010
0000
1000
0000
0001
0010
,
0100
0000
1000
0000
0010
1000
0000
0001
0010
0000
0100
1000
0000
0100
0010
0001
,
1000
0000
0001
0000
0010
0100
0000
0010
0001
0000
0100
0010
0000
0010
1000
0001
,
0100
0000
0010
0000
0100
0000
0010
0000
1000
0000
0100
0000
0010
0000
0001
1000
,
0001
0000
0010
0000
0001
0000
0100
0000
0010
0000
1000
0000
0001
0000
0010
0100
,
1000
0000
0001
0000
0100
0010
0000
1000
0001
0000
0010
0100
0000
1000
0001
0010
,
0100
0000
1000
0000
0010
1000
0000
0100
0010
0000
0001
0100
0000
0001
0010
0100
,
1000
0000
0001
0000
0100
0000
0001
0000
0010
0000
0100
0000
0010
0000
0001
1000
,
0010
0000
0100
0000
0001
0000
0010
0000
0100
0000
1000
0000
0001
0000
0100
0010
,
1000
0001
1000
0001
0100
0010
0100
0010
,
1000
0100
0010
0001
1000
0010
0100
0001
1000
0010
1000
0001
0010
0100
1000
0000
,
00M1
0100
0001
1M00
0010
1000
00M1
0100
0001
1M00
0010
1000
,
0M01
0010
0001
10M0
0100
1000
0M01
0010
0001
10M0
0100
1000
,
00M1
0100
0001
10M0
0100
1000
00M1
0100
0001
10M0
0100
1000
,
0M01
0010
0001
1M00
0010
1000
0M01
0010
0001
1M00
0010
1000
,
0M01
0010
0100
001M
0100
1000
0M01
0010
0100
001M
0100
1000
,
00M1
0100
0010
M100
0010
1000
00M1
0100
0010
M100
0010
1000
,
00M1
0100
0001
1M00
0010
1000
0M01
0010
0001
10M0
0100
1000
,
00M1
0100
0100
100M
0100
0100
M001
0010
0010
1M00
0010
0010
,
0002
0000
0000
0000
0000
0000
0000
0000
0000
0000
0000
0000
0000
0000
0000
0000
0000
0000
1003
0000
0010
0000
1000
0000
0010
0000
0000
0000
0000
0000
0100
0000
0000
0001
0000
0000
0000
0000
0000
1000
0000
0000
0100
0000
0000
0000
0000
0000
,
1001
0001
0000
0200
0000
0320
1000
0000
,
2030
0001
0000
3002
0010
0000
0013
0110
,
0000
0110
0000
0200
0000
2300
0001
0000
,
3002
0000
0100
0000
0000
0000
0203
0000
0010
0000
0301
1000
0001
0010
0100
1000
,
0001
1001
0000
1200
0000
0320
0001
0000
,
0032
0100
0000
0203
0010
0000
0310
1010
,
0000
0101
0000
0002
0000
2003
0100
0000
,
3200
0000
0000
0000
0000
0000
0010
0000
0000
0000
0000
0000
0000
0000
0000
0000
0000
0000
0310
0000
0001
0000
0010
0000
0001
0000
0000
1000
0000
0000
0000
0000
0000
0010
0000
0000
0000
0000
0000
0100
0000
0000
0001
0000
0000
0000
0000
0000
,
2002
0000
0000
0000
,
0000
0000
0000
0000
,
0000
0000
0000
0000
,
0000
0000
0000
0000
,
3003
0000
0000
0000
;

//---------------dance-single - Gpop----------------
#NOTES:
     dance-single:
     Gpop:
     Hard:
     8:
     0.504,0.586,0.138,0.196,0.388:
0000
0000
0000
0000
,
0000
0000
0000
0000
,
0000
0000
0000
0000
,
0000
0000
0000
0000
,
0000
0000
0000
0000
,
0000
0000
0000
0000
,
0000
0000
0000
0000
,
0000
0000
0000
0000
,
1000
0000
0000
0000
0001
0000
0000
0001
0000
0000
0100
0000
0010
0000
1000
0001
,
0000
0000
0010
0000
0100
0000
0000
0100
0000
0000
1000
0000
0001
0000
0100
0010
,
0000
0000
1000
0000
0001
0000
0000
0001
0000
0000
0010
0000
0001
0000
1000
0010
,
0000
0000
0100
0000
0010
0000
0000
0010
0000
0000
1000
0000
0100
0000
0010
0000
,
0011
0000
0000
0000
0001
0000
0000
1000
0000
0000
0010
0000
0100
0000
0001
0010
,
0000
0000
0100
0000
1000
0000
0000
0010
0000
0000
1000
0000
0001
0000
0100
0010
,
0000
0000
1000
0000
0100
0000
0000
0010
0000
0000
0100
0000
1000
0000
0001
0100
,
0000
0000
0010
0000
1000
0000
0000
1000
0000
0000
1000
0000
0001
0000
0100
0000
,
0010
0000
1000
0001
0000
0000
0010
0000
0100
0000
1000
0001
0000
0000
0100
0000
,
0010
0000
1000
0001
0000
0000
0010
0000
0100
0000
1000
0001
0000
0000
0100
0000
,
0010
0000
1000
0100
0000
0000
0010
0000
0001
0000
1000
0100
0000
0000
1000
0000
,
0001
0000
1000
0100
0000
0000
1000
0000
0010
0000
1000
0100
0000
0000
0010
0000
,
0001
0000
1000
0010
0000
0000
0100
0000
0001
0000
1000
0010
0000
0000
1000
0000
,
0100
0000
1000
0010
0000
0000
0100
0000
0010
0000
1000
0010
0000
0000
0100
0000
,
0001
0000
0010
0100
0000
0000
1000
0000
0100
0000
0010
0100
0000
0000
0010
0000
,
0001
0000
0100
0010
0000
0000
1000
0000
0001
0000
0100
0010
0000
0000
1000
0000
,
0001
0010
0001
0000
1000
0000
0010
0000
0100
0000
0001
1000
0000
0000
0100
0000
,
1000
0000
0001
0100
0000
0000
0010
0000
1000
0000
0100
0010
0000
0000
0001
0000
,
1000
0000
0010
0100
0000
0000
0010
0000
1000
0000
0100
0010
0000
0000
0001
0000
,
0100
0000
0010
1000
0000
0000
0001
0000
0010
0000
0001
1000
0000
0000
0010
0000
,
0100
0000
0001
0010
0000
0000
0001
0000
0100
0000
0010
1000
0000
0000
0100
0000
,
0010
0100
0010
0000
0001
0000
1000
0000
0010
0000
0100
0001
0000
0000
1000
0000
,
0100
0000
1000
0001
0000
0000
0100
0000
0001
0000
0010
0100
0000
0000
1000
0000
,
0001
0000
1000
0100
0000
0000
0010
0000
0001
0000
0100
0010
0000
0000
1000
0000
,
1001
0001
0000
0100
0000
0100
0010
0000
,
0010
1000
0000
1000
0100
0000
0100
0010
,
0002
0000
0000
0000
,
2003
0000
0000
3000
,
0011
0001
0000
1000
0000
1000
0010
0000
,
0010
0100
0000
0100
0001
0000
1000
0000
,
0200
0000
0000
0300
,
0120
0000
0000
0030
,
0011
0001
0001
0001
,
1100
1000
1000
1000
,
0101
0100
0100
0100
,
1010
0010
0010
0010
,
1000
0001
1000
0001
0100
0001
0100
0001
,
0100
0010
0100
0010
1000
0010
1000
0010
,
4000
0004
0000
0000
0000
0000
0000
0000
0000
0000
0000
0000
0000
0000
0000
0000
,
3003
0000
0M00
00M0
0M00
000M
M000
0M00
0000
00M0
0M00
M000
000M
0M00
00M0
0000
,
1001
1000
0010
0000
0200
0000
0301
0020
,
0000
0000
0130
0000
2000
0000
3001
0100
,
0010
0000
1000
0000
0000
1000
0000
0000
0001
0000
0000
0001
0000
0000
0010
0000
,
0000
0000
0100
0000
0000
0100
0000
0000
0010
0000
0000
0010
0000
0000
0001
0000
,
1000
1000
0010
0000
0200
0000
0301
0020
,
0000
0000
0000
0000
0031
0000
0000
0000
2000
0000
0000
0000
3010
0000
0100
0001
,
1000
0000
0100
0000
0000
0100
0000
0000
0010
0000
0000
0010
0000
0000
0001
0000
,
0000
0000
1000
0000
0000
1000
0000
0000
0010
0000
0000
0010
0000
0000
0100
0000
,
0101
0001
1000
0000
0200
0000
0310
0002
,
0000
0000
1003
0000
0020
0000
0130
0001
,
0010
0000
0100
0000
0000
1000
0000
0000
0001
0000
0000
0100
0000
0000
0010
0000
,
0000
0000
0100
0000
0000
0010
0000
0000
1000
0000
0000
0100
0000
0000
0010
0000
,
0001
1000
0010
0000
0200
0000
0310
2000
,
0000
0000
3001
0000
0020
0000
0130
1000
,
0001
0000
0010
0000
0000
0001
0000
0000
0100
0000
0000
0010
0000
0000
1000
0000
,
0000
0000
0001
0000
0000
0010
0000
0000
0001
0000
0000
1000
0000
0000
0010
0000
,
0100
0000
0100
0001
0000
0001
1000
0000
1000
0100
0000
0100
,
0010
0000
0010
0001
0000
0001
1000
0000
1000
0001
0000
0100
,
0010
0000
0010
1000
0000
1000
0001
0000
0001
0010
0000
0010
,
0100
0000
0100
1000
0000
1000
0001
0000
0001
0100
0000
0001
,
0010
0000
0010
1000
0000
1000
0010
0000
0010
0001
0000
0001
,
1000
0000
1000
0100
0000
0100
0001
0000
0001
0100
0000
1000
,
0001
0000
0100
0000
0010
0000
1010
0000
1000
0000
0001
0000
,
0010
0100
0010
0100
0010
0100
1000
0001
1000
0001
1000
0001
,
0200
0000
0000
0000
0000
0000
0000
0000
0310
0000
0000
1010
0000
0000
0101
0000
,
1001
1000
0000
0001
0000
0001
0010
0000
,
0010
0100
0000
0100
1000
0000
1000
0001
,
0000
0101
0000
0100
0000
0100
0010
0000
,
0010
1000
0000
1000
0001
0000
0010
0100
,
1100
1100
0000
2000
0000
3002
0100
0000
,
0203
0010
0000
0320
1000
0000
1030
0001
,
0000
1001
0000
0002
0000
0023
0100
0000
,
0230
1000
0000
2300
0001
0000
3010
0000
,
2002
0000
0000
0000
,
0000
0000
0000
0000
,
0000
0000
0000
0000
,
0000
0000
0000
0000
,
3003
0000
0000
0000
;

//---------------dance-single - Gpop----------------
#NOTES:
     dance-single:
     Gpop:
     Medium:
     6:
     0.371,0.493,0.210,0.160,0.127:
0000
0000
0000
0000
,
0000
0000
0000
0000
,
0000
0000
0000
0000
,
0000
0000
0000
0000
,
0000
0000
0000
0000
,
0000
0000
0000
0000
,
0000
0000
0000
0000
,
0000
0000
0000
0000
,
1000
0000
0000
0000
0001
0000
0000
0001
0000
0000
0000
0000
0100
0000
0000
0000
,
0010
0000
0000
0000
0100
0000
0000
0100
0000
0000
0000
0000
0010
0000
0000
0000
,
1000
0000
0000
0000
0100
0000
0000
0100
0000
0000
0000
0000
0010
0000
0000
0000
,
0001
0000
0000
0000
1000
0000
0000
1000
0000
0000
0000
0000
0001
0000
0000
0000
,
1010
0000
0000
0000
1000
0000
0000
1000
0000
0000
0000
0000
0100
0000
0000
0000
,
0010
0000
0000
0000
0001
0000
0000
0001
0000
0000
0000
0000
1000
0000
0000
0000
,
0001
0000
0000
0000
0100
0000
0000
0100
0000
0000
0000
0000
0001
0000
0000
0000
,
1000
0000
0000
0000
0010
0000
0000
0010
0000
0000
0000
0000
1000
0000
0000
0000
,
1100
0000
0000
0100
0000
0000
0100
0000
0010
0000
0000
0010
0000
0000
0010
0000
,
0001
0000
0000
0001
0000
0000
0001
0000
1000
0000
0000
1000
0000
0000
1000
0000
,
0010
0000
0000
0010
0000
0000
0010
0000
0100
0000
0000
0100
0000
0000
0100
0000
,
0001
0000
0000
0001
0000
0000
0001
0000
1000
0000
0000
1000
0000
0000
1000
0000
,
0100
0000
0000
0100
0000
0000
0010
0000
0001
0000
0000
0001
0000
0000
1000
0000
,
0010
0000
0000
0010
0000
0000
0100
0000
0001
0000
0000
0001
0000
0000
0001
0000
,
1000
0000
0000
1000
0000
0000
0010
0000
0100
0000
0000
0100
0000
0000
0001
0000
,
0010
0000
0000
0010
0000
0000
0100
0000
1000
0000
0000
1000
0000
0000
0001
0000
,
1001
0000
0000
0000
1000
0000
0000
0000
0010
0000
0000
0100
0000
0000
0001
0000
,
0010
0000
0000
0000
0100
0000
0000
0000
1000
0000
0000
0001
0000
0000
0100
0000
,
0010
0000
0000
0000
1000
0000
0000
0000
0100
0000
0000
0010
0000
0000
0001
0000
,
1000
0000
0000
0000
0010
0000
0000
0000
0100
0000
0000
0001
0000
0000
1000
0000
,
0100
0000
0000
0010
0000
0000
0100
0000
1000
0000
0000
0001
0000
0000
1000
0000
,
0010
0000
0000
0000
0100
0000
0000
0000
0001
0000
0000
0010
0000
0000
0001
0000
,
1000
0001
0100
0010
,
1000
0001
1000
0001
1000
0001
1000
0000
,
0102
0000
0000
1000
0000
0000
0010
0000
,
0000
0100
0000
0000
0010
0000
1000
0000
,
0203
0000
0000
0000
,
0320
0000
0000
0000
,
2030
0000
0000
0001
0000
0000
0010
0000
,
0000
0001
0000
0000
0100
0000
0010
0000
,
3002
0000
0000
0000
,
0023
0000
0100
0030
,
1100
1000
1000
1000
,
0011
0001
0001
0001
,
1010
1000
1000
1000
,
0101
0001
0001
0001
,
1000
0100
1000
0000
0001
0100
0001
0000
,
1000
0010
1000
0000
0001
0010
0001
0000
,
1000
0100
0010
0001
0100
0010
1000
0001
,
1000
0000
0000
0000
,
1001
1000
0000
0000
0001
0000
0100
0010
,
0000
0000
1000
0000
0100
0000
0010
0001
,
2000
0010
0100
0010
,
3002
0010
0100
0010
,
1003
0000
0010
0000
0100
0000
0001
0010
,
0000
0000
0100
0000
1000
0000
0001
0100
,
0020
1000
0100
1000
,
0230
0001
0010
0001
,
0310
0000
1000
0000
0001
0000
0010
0100
,
0000
0000
1000
0000
0001
0000
0100
0010
,
2000
0100
0001
0100
,
3002
0010
1000
0010
,
1003
0000
0010
0000
0100
0000
0001
0010
,
0000
0000
0001
0000
0100
0000
0010
1000
,
0200
0001
0010
0001
,
0320
1000
0100
1000
,
0031
0101
1000
1100
,
0001
0011
1000
1010
,
1001
0011
1000
1010
,
0001
0011
1000
1100
,
0001
0000
0001
1000
0000
0000
0010
0000
0010
0100
0000
0000
,
0001
0000
0001
0010
0000
0000
0100
0000
0100
1000
0000
0000
,
0011
0011
1010
1010
,
1100
0101
0011
1010
,
2002
0000
0MM0
3003
,
2100
0000
0000
0001
0000
0000
0010
0000
,
0000
0001
0000
0000
0100
0000
0000
3002
,
0000
0100
0000
0100
0000
0000
0010
0000
,
0000
1000
0000
0000
0100
0000
0010
0000
,
0203
0000
0000
0001
0000
0000
1000
0000
,
0000
0010
0000
0000
1000
0000
0010
0320
,
0000
0100
0000
1000
0000
0000
0001
0000
,
0000
0100
0000
0000
1000
0000
0130
0000
,
2002
0000
0000
0000
,
0000
0000
0000
0000
,
0000
0000
0000
0000
,
0000
0000
0000
0000
,
3003
0000
0000
0000
;

//---------------dance-single - Gpop----------------
#NOTES:
     dance-single:
     Gpop:
     Easy:
     3:
     0.238,0.370,0.174,0.152,0.000:
0000
0000
0000
0000
,
0000
0000
0000
0000
,
0000
0000
0000
0000
,
0000
0000
0000
0000
,
0000
0000
0000
0000
,
0000
0000
0000
0000
,
0000
0000
0000
0000
,
0000
0000
0000
0000
,
1000
0000
0010
0000
,
0100
0000
0001
0000
,
0010
0000
0100
0000
,
2000
0000
0000
3000
,
0101
0000
0100
0000
,
0001
0000
0010
0000
,
0100
0000
1000
0000
,
0020
0000
0200
0330
,
1001
0000
0001
0000
,
0010
0000
0100
0000
,
1000
0000
0001
0000
,
0200
0000
0010
0000
,
0301
0000
0010
0000
,
0100
0000
1000
0000
,
0010
0000
0100
0000
,
0002
0000
2000
3003
,
1100
0000
0100
0000
,
1000
0000
0001
0000
,
0100
0000
0010
0000
,
2000
0000
0000
3000
,
0011
0000
0001
0000
,
0100
0000
0010
0000
,
1000
0000
0001
0000
,
0020
0000
0200
0330
,
2001
0000
0000
0000
,
3002
0000
0000
0000
,
0203
0000
0000
0000
,
0320
0000
0000
0000
,
2030
0000
0000
0000
,
3200
0000
0000
0000
,
0320
0000
0000
0000
,
0032
0000
0000
0003
,
1000
1000
1000
1000
,
0001
0001
0001
0001
,
0100
0100
0100
0100
,
0010
0010
0010
0010
,
1010
0000
1001
0000
,
0011
0000
1001
0000
,
1100
1001
0101
1001
,
0100
0000
0000
0000
,
1010
0000
1000
0000
,
0001
0000
0010
0000
,
0100
1000
0001
0100
,
0010
1000
0001
0010
,
0100
0000
1000
0000
,
0001
0000
0100
0000
,
0010
0100
0001
0010
,
0100
1000
0100
0010
,
0001
0000
1000
0000
,
0010
0000
1000
0000
,
0100
1000
0010
0100
,
0001
0010
0100
1000
,
0001
0000
1000
0000
,
0010
0000
1000
0000
,
0001
0010
0001
1000
,
0010
0100
0001
1000
,
0101
0001
1000
0100
,
0010
0001
0100
0010
,
1010
1000
0001
0010
,
0001
1000
0010
0100
,
1001
1000
0100
0010
,
0001
0100
0010
1000
,
1010
0001
0011
0100
,
0110
1000
1001
0010
,
0220
0000
0000
0330
,
1001
0000
0000
1000
0000
0000
1000
0000
,
0000
1000
0000
0000
1000
0000
0000
0100
,
0000
0100
0000
0010
0000
0000
0010
0000
,
0000
0010
0000
0000
0010
0000
0010
0000
,
0001
0000
0000
0001
0000
0000
0001
0000
,
0000
0001
0000
0000
0001
0000
0000
1000
,
0000
1000
0000
0010
0000
0000
0010
0000
,
0000
0010
0000
0000
0010
0000
0100
0000
,
2002
0000
0000
0000
,
0000
0000
0000
0000
,
0000
0000
0000
0000
,
0000
0000
0000
0000
,
3003
0000
0000
0000
;

//---------------dance-single - Gpop----------------
#NOTES:
     dance-single:
     Gpop:
     Beginner:
     1:
     0.087,0.118,0.044,0.000,0.000:
0000
0000
0000
0000
,
0000
0000
0000
0000
,
0000
0000
0000
0000
,
0000
0000
0000
0000
,
0000
0000
0000
0000
,
0000
0000
0000
0000
,
0000
0000
0000
0000
,
0000
0000
0000
0000
,
1000
0000
0000
0000
,
0001
0000
0000
0000
,
0100
0000
0000
0000
,
0010
0000
0000
0000
,
1000
0000
0000
0000
,
0100
0000
0000
0000
,
0010
0000
0000
0000
,
0001
0000
0000
0000
,
1000
0000
0000
0000
,
1000
0000
0000
0000
,
0001
0000
0000
0000
,
0001
0000
0000
0000
,
0100
0000
0000
0000
,
0100
0000
0000
0000
,
0010
0000
0000
0000
,
0010
0000
0000
0000
,
1000
0000
0000
0000
,
0100
0000
0000
0000
,
1000
0000
0000
0000
,
0100
0000
0000
0000
,
0010
0000
0000
0000
,
0001
0000
0000
0000
,
0010
0000
0000
0000
,
0001
0000
0000
0000
,
1001
0000
0000
0000
,
0000
0000
0000
0000
,
1000
0000
0000
0000
,
0000
0000
0000
0000
,
0001
0000
0000
0000
,
0000
0000
0000
0000
,
0100
0000
0000
0000
,
0000
0000
0000
0000
,
0010
0000
0000
0000
,
0010
0000
0000
0000
,
0100
0000
0000
0000
,
0100
0000
0000
0000
,
1000
0000
1000
0000
,
1000
0000
1000
0000
,
1000
1000
1000
1000
,
0000
0000
0000
0000
,
1001
0000
0000
0000
,
0001
0000
0000
0000
,
0010
0000
0000
0000
,
0100
0000
0000
0000
,
1000
0000
0000
0000
,
0010
0000
0000
0000
,
0100
0000
0000
0000
,
0001
0000
0000
0000
,
1001
0000
0000
0000
,
1000
0000
0000
0000
,
0100
0000
0000
0000
,
0010
0000
0000
0000
,
0001
0000
0000
0000
,
0100
0000
0000
0000
,
0010
0000
0000
0000
,
1000
0000
0000
0000
,
0001
0000
0001
0000
,
0001
0000
0001
0000
,
1000
0000
1000
0000
,
1000
0000
1000
0000
,
0010
0000
0010
0000
,
0010
0000
0010
0000
,
0100
0000
0100
0000
,
0100
0000
0100
0000
,
0110
0000
0000
0000
,
1001
0000
0000
0000
,
0000
0000
0000
0000
,
1000
0000
0000
0000
,
0000
0000
0000
0000
,
0001
0000
0000
0000
,
0000
0000
0000
0000
,
0010
0000
0000
0000
,
0000
0000
0000
0000
,
1001
0000
0000
0000
;
