#TITLE:Happy Halloween;
#SUBTITLE:;
#ARTIST:Junky feat. 鏡音リン;
#TITLETRANSLIT:;
#SUBTITLETRANSLIT:;
#ARTISTTRANSLIT:Junky feat. Kagamine Rin;
#GENRE:;
#CREDIT:;
#BANNER:Happy Halloween - bn.png;
#BACKGROUND:Happy Halloween - bg wide.png;
#LYRICSPATH:;
#CDTITLE:gpopcdtitle.png;
#MUSIC:Happy Halloween.ogg;
#OFFSET:2.008;
#SAMPLESTART:83.992;
#SAMPLELENGTH:15.999;
#SELECTABLE:YES;
#DISPLAYBPM:60.000:120.000;
#BPMS:0.000=120.000,136.000=60.000,146.000=120.000,264.000=240.000,264.500=120.000,264.750=60.000,265.000=120.000;
#STOPS:;
#BGCHANGES:3.875=Happy Halloween.avi=1.000=1=0=0=StretchNoLoop==CrossFade==,
99999=-nosongbg-=1.000=0=0=0 // don't automatically add -songbackground-
;
#KEYSOUNDS:;

//---------------dance-single - Gpop----------------
#NOTES:
     dance-single:
     Gpop:
     Beginner:
     1:
     0.119,0.117,0.028,0.000,0.000:
0000
0000
0000
0000
,
0000
0000
0000
0000
,
0000
0000
0000
0000
,
0000
0000
0000
0000
,
0000
0000
0000
0000
,
0000
0000
0000
0000
,
0000
0000
0001
0000
,
1001
0000
1000
0000
,
0010
0000
0100
0000
,
0001
0000
0010
0000
,
0100
0000
1000
0000
,
0001
0000
1000
0000
,
0001
0000
0100
0000
,
0010
0000
0100
0000
,
0001
0000
1000
0000
,
0001
0000
0001
0000
,
0010
0000
0000
0000
,
0100
0000
0100
0000
,
1000
0000
0000
0000
,
0001
0000
1000
0000
,
0010
0000
0000
0000
,
0100
0000
0010
0000
,
1000
0000
0000
0000
,
0001
0000
0010
0000
,
0100
0000
1000
0000
,
0010
0000
0100
0000
,
0001
0000
1000
0000
,
0001
0000
0001
0000
,
0010
0000
0010
0000
,
0100
0000
0100
0000
,
1000
0000
1000
0000
,
0010
0000
0010
0000
,
0100
0000
0001
0000
,
1000
0000
1000
0000
,
1001
0000
0001
0000
,
0010
0000
0100
0000
,
1000
1000
1000
0000
,
0000
0000
0001
0000
,
0000
0000
0100
0000
,
0100
0000
0010
0000
,
0000
0000
1000
0000
,
0001
0000
1000
0000
,
0100
0000
0010
0000
,
0001
0000
1000
0000
,
0001
0000
0100
0000
,
0010
0000
1000
0000
,
0100
0000
0010
0000
,
0001
0000
0100
0000
,
1000
0000
0001
0000
,
0100
0000
0010
0000
,
1000
0000
0001
0000
,
1000
0000
0001
0000
,
0010
0000
0100
0000
,
0010
0000
0001
0000
,
1000
0000
0001
0000
,
0010
0000
1000
0000
,
0010
0000
0001
0000
,
0100
0000
0100
0000
,
0010
0000
1000
0000
,
0001
0000
0001
0000
,
0010
0000
0100
0000
,
1000
0000
1000
0000
,
0010
0000
0100
0000
,
0001
0000
0001
0000
,
1000
0000
0001
0000
,
0001
0000
1001
0000
,
0000
0110
0000
0000
;

//---------------dance-single - Gpop----------------
#NOTES:
     dance-single:
     Gpop:
     Easy:
     3:
     0.201,0.233,0.070,0.007,0.000:
0000
0000
0000
0000
,
0000
0000
0000
0000
,
0000
0000
0000
0000
,
1000
0000
0001
0000
,
0100
0010
0100
0000
,
0001
0000
0010
0000
,
0200
0000
0310
0110
,
1001
1000
0001
0100
,
0010
0100
0001
0000
,
1000
0100
0010
0001
,
0100
0001
1000
0000
,
0001
0010
0100
1000
,
0010
0100
0001
0000
,
1000
0100
1000
0001
,
0100
0010
1000
0000
,
1001
0000
0001
0000
,
0010
0100
0010
0100
,
1000
0000
0001
0000
,
0100
0010
0100
0000
,
0001
0000
1000
0000
,
0100
0010
0001
1000
,
0010
0000
0100
0000
,
0001
1000
0001
1000
,
0100
0010
0001
1000
,
0010
1000
0001
0000
,
0010
0100
0010
0001
,
0100
0010
1000
0000
,
0001
0000
1000
0000
,
0100
1000
0010
0100
,
0001
0000
0010
0000
,
0001
1000
0010
1000
,
0100
0000
0010
0000
,
0001
0010
0100
1000
,
0001
0000
0100
0000
,
0110
0000
0001
0001
,
1000
1000
0100
0100
,
0010
0001
1001
0000
,
1000
0000
0001
0000
,
0100
0000
0010
0000
,
1000
0001
0010
0010
,
0110
0000
1000
0001
,
1000
0000
0010
0000
,
0100
0000
0001
0010
,
0100
0000
1000
0001
,
1000
0000
0001
1000
,
0010
0000
0100
0000
,
0001
0000
0010
0100
,
1000
1000
0001
0100
,
0001
0000
1000
0001
,
0100
0000
0010
0000
,
1000
0000
0001
0010
,
0001
0000
0100
0010
,
0100
0000
0001
1000
,
0100
0000
0010
0000
,
0100
0000
1000
0001
,
0100
0000
0010
1000
,
0001
0000
1000
0100
,
0010
0001
1000
0000
,
0001
0000
0100
0001
,
1000
0100
0010
0000
,
0100
0000
1000
0100
,
1000
0001
0100
0000
,
0010
0000
0100
0001
,
0010
0100
1000
1000
,
1001
0000
0001
0001
,
0101
0000
1100
0000
,
0000
1001
0000
0000
;

//---------------dance-single - Gpop----------------
#NOTES:
     dance-single:
     Gpop:
     Medium:
     5:
     0.325,0.280,0.028,0.021,0.000:
0000
0000
0000
0000
,
0000
0000
0000
0000
,
0000
0000
0000
0000
,
1000
0000
0001
0000
0100
0010
0100
0000
,
0001
1000
0001
0000
0010
0100
0010
0100
,
1000
0000
0001
0000
0100
0010
0100
0000
,
0002
0000
0000
0000
1000
1000
1003
0000
,
0001
0000
0010
0000
0100
1000
0100
0000
,
0010
0001
1000
0000
0001
0100
0010
0100
,
0001
0000
1000
0000
0100
0010
0001
0000
,
1000
0000
0001
0000
0100
0010
0100
0000
,
0001
0000
1000
0000
0100
0010
0100
0000
,
0010
0001
1000
0000
0010
0100
0010
1000
,
0001
0000
0010
0000
0100
0010
0001
0000
,
1000
0000
0001
0000
0100
0001
0100
0000
,
0010
0000
0000
1000
0001
0000
0000
1000
,
0100
0000
0010
0000
0001
0100
0001
0100
,
0010
0000
0000
1000
0001
0000
0000
1000
,
0100
0010
0011
0000
,
0001
0000
0000
1000
0010
0000
0000
1000
,
0001
0000
0010
0000
0100
0010
0001
1000
,
0010
0000
0000
0100
0010
0000
0000
1000
,
0001
0000
1000
0000
0001
1000
0001
1000
,
0100
0000
0010
0000
0001
0100
0010
0000
,
0100
0001
1000
0000
0001
0010
0100
1000
,
0001
0000
0100
0000
0010
1000
0001
0000
,
1000
0000
0100
0000
0010
0001
1000
0000
,
0001
0000
0000
0100
0010
0000
0000
0100
,
0001
0000
0010
0000
0100
1000
0100
0010
,
0001
0000
0000
0100
0010
0000
0000
0100
,
0001
0000
1000
0001
1000
0000
0001
0000
,
0010
0000
0000
0100
1000
0000
0000
0001
,
0100
0000
0010
0000
1000
0100
1000
0001
,
0100
0000
0000
0010
1000
0000
0000
0001
,
1000
0001
0010
0100
,
1000
0000
0001
0000
0100
0000
0010
1000
,
0001
0010
0100
0100
1100
0000
0000
1000
,
0010
0000
0000
0010
0100
0000
0000
0100
,
0001
0000
0000
0001
1000
0000
0000
1000
,
0100
0000
0010
0000
0001
1000
0001
1000
,
0001
0000
0000
0000
1000
0100
0001
0100
,
1000
0001
0100
0010
,
1000
0000
0001
0000
1000
0100
0010
0001
,
1000
0010
0100
0001
,
2000
0000
3000
0000
0001
0010
1000
0010
,
0001
0100
0010
1000
,
0001
0000
0010
0000
0100
0010
0100
1000
,
0001
0000
0100
0000
0010
0000
1000
0001
,
1000
0000
0000
0000
0001
0010
1000
0010
,
0001
0100
0001
1000
,
0100
0000
0010
0000
0001
0100
1000
0100
,
0001
0000
1000
0000
0100
0000
0010
0001
,
2000
0000
3001
0000
1000
0010
0001
0010
,
1000
0001
0010
0100
,
1000
0000
0001
0000
1000
0100
0001
0100
,
1000
0000
0001
0000
0100
0000
0010
1000
,
0001
0000
0000
0000
1000
0100
1000
0100
,
0010
0001
0100
0010
,
1000
0000
0001
0000
0010
0001
0010
0001
,
0100
0010
1000
0001
,
1000
0000
0100
0000
0010
0100
0010
0100
,
1000
0001
0100
0010
,
1000
0000
0001
0000
0010
0001
0010
0001
,
1000
0000
0001
0000
0100
0010
0100
0010
,
0100
0000
0000
0000
0001
0010
0001
0010
,
0001
0000
1001
0000
,
0010
1001
0000
0000
;

//---------------dance-single - Gpop XO+----------------
#NOTES:
     dance-single:
     Gpop XO+:
     Hard:
     7:
     0.501,0.420,0.070,0.246,0.032:
0000
0000
0000
0000
,
0000
0000
0000
0000
,
0000
0000
0000
0000
,
1000
0100
0010
0001
1000
0001
0100
0010
,
1000
0010
0100
0001
0010
0100
0001
0100
,
1000
0001
0100
0010
1000
0010
0100
0001
,
0020
0000
0000
0000
0130
0110
1002
0000
,
1003
0010
0100
0010
1000
0001
0010
0100
,
0010
0001
0100
0010
1000
0100
0001
0100
,
0010
0001
0100
0010
1000
0010
0100
0001
,
0010
0100
1000
0100
0010
0001
0201
0000
,
0310
1000
0001
0010
0001
0100
0010
1000
,
0100
0010
0100
1000
0010
0100
1000
0100
,
0010
1000
0001
0010
0100
0010
0001
0100
,
0001
1000
0100
1000
0001
0001
0011
0000
,
0020
0000
0031
1000
0020
0000
0130
0001
,
0010
0010
0100
0100
1000
0001
0100
0010
,
0200
0000
0301
1000
0200
0000
0310
0001
,
0100
0100
0001
0001
2000
0000
3002
0000
,
0023
0000
0130
1000
0020
0000
0130
0001
,
1000
1000
0100
0100
0010
0001
0100
0010
,
0200
0000
0301
0010
0200
0000
0310
0001
,
1000
1000
0001
0001
0100
0010
1000
0100
,
0110
0000
0010
0001
1000
0010
1000
0001
,
0010
0100
1000
0001
0100
0010
0001
0010
,
0100
0001
0010
0100
0010
0001
0100
0010
,
1000
0100
0010
0001
1000
0001
1001
0000
,
2000
0000
3001
0100
2000
0000
3100
0001
,
0010
0010
0001
0001
1000
0010
0100
0001
,
2000
0000
3001
0010
2000
0000
3010
0001
,
0100
0100
0001
0001
2000
0000
3001
0000
,
1002
0000
1003
0100
0002
0000
0103
1000
,
0010
0010
1000
1000
0001
0010
0100
1000
,
0002
0000
0103
0010
0002
0000
0013
1000
,
00M2
0000
0003
1000
0002
0000
0000
0103
0010
0000
0000
0100
0001
0000
0000
0010
,
0100
0000
0000
0010
0001
0000
0000
1000
0010
0000
0000
1000
0100
0000
0010
0000
,
0001
0010
0001
0010
0100
0000
1000
0000
00M1
0000
0000
0000
0001
0000
0010
0000
,
0100
0000
0100
0010
0001
0000
0001
0100
,
1000
0000
1000
0100
0010
0000
0010
1000
,
0001
0000
0020
0000
0031
0100
0010
1000
,
0001
0001
0011
0000
1000
0100
0001
0100
,
1000
0001
0100
0010
1000
0001
0010
0001
,
0010
0100
1000
0000
0001
0100
1000
0100
,
0001
0010
0100
0010
0001
1000
0001
1000
,
0020
0000
0230
0000
0301
0010
1000
0010
,
0001
0100
0010
1000
0100
1000
0100
0010
,
0001
0100
0010
0000
1000
0010
0001
0010
,
1000
0000
0001
0010
0100
0010
0001
0100
,
0020
1000
2030
0000
3001
0100
1000
0001
,
0010
0100
0001
1000
0100
0010
0001
0100
,
0010
1000
0001
0000
1000
0100
0001
1000
,
0010
0001
0100
0010
0100
0001
1000
0100
,
0020
0000
0032
0000
1003
0010
0001
1000
,
0100
0010
1000
0001
0010
0100
0010
0001
,
0100
0010
1000
0000
0001
0010
1000
0001
,
0100
0000
1000
0001
0100
0010
0100
0001
,
2000
0001
3001
0000
1000
0010
0001
0010
,
0100
0001
1000
0000
0001
0010
0100
0010
,
0001
0100
0010
1000
0001
0010
1000
0010
,
0100
1000
0001
0000
1000
0010
1000
0001
,
0010
0001
0010
0000
0001
0100
1000
0100
,
0010
1000
0001
0000
1000
0100
0010
0100
,
1000
0001
0100
0010
1000
0100
0001
0100
,
0010
0001
1000
0010
0100
0100
0010
0010
,
2000
0001
3001
0010
0100
0100
1000
1000
,
0002
0100
0103
0010
1001
0000
0000
0000
,
0200
0000
0000
0300
1001
0000
0000
0000
0000
0000
0000
0000
0000
0000
0000
0000
;

//---------------dance-single - Gpop XO+ FS+ SS+ BU-----------------
#NOTES:
     dance-single:
     Gpop XO+ FS+ SS+ BU-:
     Challenge:
     10:
     0.694,0.685,0.056,0.197,0.764:
0000
0000
0000
0000
,
0000
0000
0000
0000
,
0000
0000
0000
0000
,
1000
0000
0100
0000
0010
0000
0001
0000
1000
0001
1000
0000
0001
0000
0100
0010
,
1000
0000
0001
0000
0010
0100
0010
0000
0001
0000
1000
0000
0010
0000
0100
0000
,
0001
0000
0010
0000
0100
0000
1000
0000
0001
0000
0000
0000
0100
0000
0010
0000
1000
0000
0100
0000
0010
0000
0100
1000
0100
0010
0001
1000
0001
0000
0100
0000
,
0010
1000
0001
0010
0100
0000
0010
0000
0011
0000
1001
0000
2010
0000
0000
3001
,
0100
0000
0010
0000
1000
0000
0001
0000
0010
0001
0010
0000
0100
0000
1000
0010
,
0100
0000
0001
0000
0100
1000
0100
0000
0001
0000
0100
0000
0010
0000
1000
0000
,
0100
0000
0010
0000
0100
0000
1000
0000
0001
1000
0001
0000
0100
0000
0010
1000
,
0001
0010
0100
0000
1000
0000
0001
0000
0100
0010
2000
0000
3002
0000
0000
1003
,
0100
0000
0010
0000
0100
0000
1000
0000
0001
0100
0001
0000
0100
0000
0010
1000
,
0001
0000
0010
0000
0100
0001
0100
0000
0010
0000
0001
0000
1000
0000
0010
0000
,
0100
0000
0001
0000
1000
0000
0100
0000
1000
0000
0000
0000
0001
0000
0100
0000
0010
0000
1000
0000
0002
0000
0000
0000
1003
0100
0010
0100
1000
0000
0001
0000
,
0100
0000
0000
0010
0000
0000
0100
0000
0000
0001
0000
0000
1000
0000
0000
0000
0001
0000
0100
0000
0000
0000
0010
0000
2000
0000
0000
0000
3001
0000
0020
0000
0000
0000
0000
0000
0230
0000
0000
0000
0000
0000
0000
0000
0000
0000
1300
0000
,
0002
0000
0013
0000
0100
0000
0001
0M00
0001
0000
1000
0000
0010
0000
0001
0M00
,
0001
0000
0100
00M0
0100
0000
1000
0000
0001
0000
0100
0000
1000
0000
0100
0000
,
0002
0000
0000
0000
0000
0000
0013
0000
0000
0000
0000
0000
0100
0000
0000
0000
0000
0000
0001
0000
0000
0M00
0000
0000
0001
0000
0000
0000
0000
0000
1000
0000
0000
0000
0000
0000
0010
0000
0000
0000
0000
0000
0001
0000
0000
0000
0010
0000
,
0100
0000
0000
00M0
0000
0000
0100
0000
0000
0000
0000
0000
1000
0000
0000
0000
0000
0000
0001
0000
0000
0000
0000
0000
0020
0000
0000
0000
0000
0000
0001
0000
0000
0000
0000
0000
0032
0000
0000
0000
0000
0000
0000
0000
0003
1000
0000
0000
,
0001
0000
1000
0000
0010
0000
0001
0M00
0001
0000
1000
0000
0100
0000
0001
0M00
,
0001
0000
0010
0M00
0010
0000
1000
0000
0001
0000
0010
0000
1000
0000
0010
0000
,
0200
0000
1300
0000
0010
0000
0001
0M00
0001
0000
1000
0000
0100
0000
0001
0M00
,
0001
0000
0000
0000
1000
0000
0100
0000
0000
0000
1000
0000
0001
0000
0000
0100
0000
0000
0010
0000
1000
0000
0001
0000
0010
0000
0000
0000
0100
0000
0010
0000
0000
0000
0100
0000
1000
0000
0000
0000
0000
0000
0001
0000
0000
0000
1000
0000
,
0010
0000
0100
0000
0001
0000
1000
0000
0100
0010
0100
0000
1000
0000
0001
0100
,
0010
0000
0100
0000
0010
0001
0010
0000
1000
0000
0100
0000
0010
0000
0001
0000
,
1000
0000
0100
0000
0010
0000
0100
0000
1000
0000
0000
0000
0001
0000
0100
0000
0010
0000
1000
0000
0001
0000
0000
0000
1000
0100
0010
0100
1000
0000
0001
0000
,
0100
0000
0000
0010
0000
0000
1000
0000
0000
0100
0000
0000
1000
0000
0000
0000
0000
0000
0001
0000
0000
0000
0000
0000
0100
0000
0010
0000
1000
0000
0001
0000
0000
0000
0000
0000
2000
0000
0000
0000
0000
0000
0000
0000
0000
0000
3001
0000
,
0010
0000
0001
0000
0100
0000
1000
0M00
1000
0000
0001
0000
0010
0000
1000
0M00
,
1000
0000
0000
0000
0000
0000
0100
0000
0000
00M0
0000
0000
0100
0000
0000
0000
0000
0000
0001
0000
0000
0000
0000
0000
1000
0000
0000
0000
0100
0000
0010
0000
0000
0000
0000
0000
0001
0000
0000
0000
0000
0000
0100
0000
0000
0000
0001
0000
,
2000
0000
0000
3100
0000
0000
0010
0000
0000
1000
00M0
0000
1000
0000
0001
0100
0000
0000
0010
0000
0000
1000
0000
0100
,
0010
0000
0100
1000
0000
0000
0100
0000
0000
0010
0000
0001
1000
0000
0001
0000
0000
0100
0010
0000
0000
1000
0000
0001
,
1000
0000
0010
0000
0100
0000
1000
0M00
1000
0000
0001
0000
0010
0000
1000
00M0
,
1000
0000
0000
0000
0000
0000
0100
0000
0000
00M0
0000
0000
0100
0000
0000
0000
0000
0000
0001
0000
0000
0000
0000
0000
1000
0000
0000
0000
0000
0000
0100
0000
0000
0000
0000
0000
0001
0000
0000
0000
0000
0000
0100
0000
0000
0000
0010
0000
,
0001
0000
0000
1000
0000
0000
0001
0000
0100
0000
0000
0001
1000
0000
0100
1000
0000
0001
0100
0000
0000
0010
0000
0000
,
1M01
0001
0010
0001
0001
1000
0010
0100
0001
0000
0001
0010
0100
0000
0100
0010
,
0001
0000
0001
0100
1000
0000
1000
0100
0010
0000
0010
1000
0001
0000
0020
0000
,
1030
0000
0000
0010
0000
0000
0001
0000
0000
0100
0000
0000
0010
0000
1000
0001
0000
0000
1000
0000
0000
0001
0000
0000
0M11
0000
0000
0000
0000
0000
0010
0000
0000
0000
0000
0000
0001
0000
0000
0000
0000
0000
0100
0000
0000
00M0
0000
0000
,
0100
0000
1000
0000
0001
0000
0010
0M00
0010
0000
1000
0000
0100
0000
0010
0M00
,
0010
0000
0000
0000
1000
0000
0001
0000
0000
0000
0000
0000
0100
0000
0000
0000
0000
0000
0010
0000
0000
0M00
0000
0000
0010
0000
0000
0000
0000
0000
0001
0000
0000
1000
0000
0000
0100
0000
0000
1000
0000
0000
0001
0000
0000
0100
0000
0000
,
0010
0000
1000
0001
0000
0010
0100
0000
0010
0001
0000
1000
0010
0000
0010
0100
0000
0100
0001
0000
0001
0010
0000
0010
,
0100
0000
1000
0000
0100
0000
0010
0000
0000
0000
0010
0000
0001
0000
0000
0000
1000
0000
0001
0000
0000
0000
0010
0000
0100
0000
0000
00M0
0000
0000
0100
0000
0000
0000
0000
0000
0010
0000
0000
0M00
0000
0000
0010
0000
0000
0000
0000
0000
,
0001
0000
0000
1000
0000
0200
0000
0000
0000
0310
0000
0001
1000
0000
0000
0010
0000
0000
0001
0000
0000
1000
0000
0000
,
0200
0000
0000
0310
0000
1000
0000
0000
0000
0100
0000
0000
1000
0000
0000
0100
0000
0001
0100
0000
0000
0010
0000
1000
,
0010
0000
0000
0100
0000
1000
0000
0000
0000
0001
0000
0100
0001
0000
0000
0100
0000
0010
1000
0000
0001
0010
0000
0100
,
1000
0000
0001
0000
0000
0000
0100
0000
0000
0000
0000
0000
0004
0000
0000
0000
0000
0000
0000
0000
0000
0000
0000
0000
0013
0000
0000
0M00
0000
0000
0010
0000
0000
0000
0000
0000
0100
0000
0000
00M0
0000
0000
0100
0000
0000
0000
0000
0000
,
1000
0000
0000
0001
0000
0010
0000
0000
0000
0001
0000
0000
1000
0000
0000
0100
0000
0000
0001
0000
0000
1000
0000
0000
,
0010
0000
0000
0001
0000
1000
0000
0000
0000
0010
0000
0000
1000
0000
0000
0100
0000
0000
0001
0000
0000
0100
0000
0000
,
1000
0000
0000
0000
0000
0000
0000
0000
0000
0000
0001
0000
0100
0000
0000
0000
0000
0000
0010
0000
0000
1000
0000
0000
0010
0000
0000
0000
0000
0000
0100
0000
0000
0000
0000
0000
0001
0000
0000
0000
0000
0000
1000
0000
0000
0000
0000
0000
,
0004
0000
0043
0000
0430
0000
0000
0000
0301
00M0
0001
0000
0010
0M00
0010
0000
,
1000
0000
0000
0001
0000
0100
0000
0000
0010
1000
0000
0001
1000
0000
0000
0100
0000
0000
0001
0000
0000
1000
0000
0000
,
0010
0000
0000
0100
0000
1000
0000
0000
0000
0000
0000
0000
0001
0000
0000
0100
0000
1000
0100
0000
0000
0010
0000
0001
,
0010
0000
0000
1000
0000
0001
0000
0000
0010
0001
0000
1000
0020
0000
0000
0130
0000
0001
0000
0000
1000
0100
0000
1000
,
0001
0000
0100
0000
0000
0000
0000
0000
0000
0010
0000
0000
1000
0000
0000
0001
0000
0000
0100
0000
0000
0010
0000
0000
0001
0000
0000
0M00
0000
0000
0001
0000
0000
0000
0000
0000
0100
0000
0000
00M0
0000
0000
0100
0000
0000
0000
0000
0000
,
1000
0000
0000
0001
0000
0010
0000
0000
0100
0010
0000
0001
0100
0000
0000
0010
0000
0000
0001
0000
0000
1000
0000
0100
,
0010
0000
0000
2000
0000
0002
0000
0000
0000
3003
0000
0000
1000
0000
0000
0100
0000
0000
0001
0000
0000
0100
0000
0000
,
1000
0000
0000
0000
0000
0000
0000
0000
0000
0001
0000
0100
0000
0000
0000
0000
0010
0000
1000
0000
0000
0000
0001
0000
0010
0000
0000
0000
0000
0000
0100
0000
0000
0000
0000
0000
0001
0000
0000
0000
0000
0000
0100
0000
0000
0000
0000
0000
,
1000
0000
0000
0000
0001
0000
0010
0000
0000
0000
0001
0000
0200
0000
0000
0000
0000
0000
0010
0000
0000
0000
0000
0000
1300
0000
0000
00M0
0000
0000
1000
0000
0000
0000
0000
0000
0010
0000
0000
0M00
0000
0000
0010
0000
0000
0000
0000
0000
,
0001
0000
0000
1000
0000
0200
0000
0000
0000
0310
0000
0001
1000
0000
0000
0010
0000
0000
0100
0000
0000
0001
0000
0000
,
1000
0000
0000
0000
0100
0000
1000
0000
0000
0000
0000
0000
0001
0000
0000
1000
0000
0000
0100
0000
0000
0010
0000
0000
1000
0000
0000
0M00
0000
0000
1000
0000
0000
0000
0000
0000
0100
0000
0000
00M0
0000
0000
0100
0000
0000
0000
0000
0000
,
0001
0000
0000
0000
0000
0000
0100
0000
0000
0000
0020
0000
0000
0000
0000
0000
0000
0000
1030
0000
0000
0000
0001
0000
1000
0000
0000
0000
0000
0000
0010
0000
0000
0000
0000
0000
1000
0000
0000
0100
0000
0000
0010
0000
0000
0001
0000
0000
,
0100
1000
0100
1000
0100
0001
0010
0100
0001
00M0
0001
0000
0010
0M00
0010
0000
,
1000
0000
0000
0001
0000
0200
0000
0000
0000
0310
0000
1000
0001
0000
0000
0010
0000
0000
0100
0000
0000
0010
0000
0000
,
0001
0000
0000
0000
0100
0000
0001
0000
0000
0000
0000
0000
1000
0000
0000
0000
0000
0000
0010
0000
0000
0000
0000
0000
0001
0000
0000
0000
0000
0000
0010
0000
0000
0000
0000
0000
0100
0000
0000
00M0
0000
0000
0100
0000
0000
0000
0000
0000
,
2000
0000
0000
3001
0000
0010
0000
0000
0000
0001
0000
0100
0010
0000
0000
0001
0000
0000
0010
0000
0000
1000
0000
0000
,
1001
0000
0001
1000
0000
0000
1100
0000
0100
1000
0000
0001
0100
0000
0000
1000
0000
0000
0100
0000
0001
1000
0000
0100
,
0010
0000
0010
0001
0000
0001
1000
0000
0010
0100
0000
0001
1000
0000
0000
00M0
0000
0000
0M00
0000
0000
00M0
0000
0000
,
0M20
0000
0000
0000
0000
0030
2002
0000
0000
3M03
0000
0000
0M00
0000
0000
0000
0000
0000
0000
0000
0000
0000
0000
0000
,
0000
0000
0M00
0M00
0M00
0000
0000
0000
,
0000
0000
0M00
0M00
0M00
0000
0000
0000
,
0000
0000
0M00
0M00
0M00
0000
0000
0000
;
