#TITLE:Go Ahead, Make My Night!;
#SUBTITLE:;
#ARTIST:Alice in the Hole!;
#TITLETRANSLIT:;
#SUBTITLETRANSLIT:;
#ARTISTTRANSLIT:;
#GENRE:;
#CREDIT:;
#BANNER:Go ahead make my night - bn.png;
#BACKGROUND:Go ahead make my night - bg.png;
#LYRICSPATH:;
#CDTITLE:gpopcdtitle.png;
#MUSIC:Go Ahead, Make My Night.ogg;
#OFFSET:-0.008;
#SAMPLESTART:32.000;
#SAMPLELENGTH:26.221;
#SELECTABLE:YES;
#BPMS:0.000=135.000,176.000=67.500,184.000=135.000,216.000=67.500,222.000=135.000;
#STOPS:153.250=0.222
,259.250=0.444
;
#BGCHANGES:;
#KEYSOUNDS:;

//---------------dance-single - Gpop----------------
#NOTES:
     dance-single:
     Gpop:
     Challenge:
     13:
     0.935,1.000,0.192,0.254,1.000:
0000
0000
0000
0000
,
0000
0000
0000
0000
,
0000
0000
0000
0000
0000
0000
0000
0000
0000
0000
0000
0000
0000
0000
0000
0000
0000
0000
0000
0000
0000
0000
0000
0000
0000
0000
0000
0000
0000
0000
1000
0001
,
1000
0000
0000
0000
0100
0000
1000
0000
0000
0000
0001
0000
0100
0000
0000
0000
0010
0000
1000
0000
0010
0000
0100
0001
0100
0000
0001
0000
1000
0000
0100
0010
,
0100
0000
1000
0001
0000
0001
0100
0000
0010
1000
0000
1000
0100
0000
0010
0000
,
0001
0000
0100
0010
0000
0010
1000
0000
0100
1000
0000
1000
0001
0000
1000
0000
,
0001
0000
0000
0000
0100
0000
0010
0000
0000
0000
0010
0000
1000
0000
0000
0000
0100
0000
0010
0000
0000
0000
0010
0000
0001
0000
0000
0000
1000
0000
0001
1000
,
0001
0000
0000
0000
1000
0000
0100
0000
0000
0000
0010
0000
0001
0000
0000
0000
1000
0000
0010
0000
1000
0000
0001
1000
0001
0000
0100
0000
0010
0000
1000
0000
,
0001
0010
0001
0000
1000
0010
0000
0010
0100
0000
0100
0001
0000
0001
0010
0100
,
1000
0001
0100
0000
0100
0010
0000
0010
1000
0000
1000
0001
0000
0001
1000
0010
,
0100
0001
1000
0000
1000
0010
0000
0010
0100
0000
0100
0010
0000
0010
1000
0100
,
1000
0000
0010
0000
1000
0000
0001
0000
0100
0000
0001
0000
1000
0000
0100
0000
0010
0000
0001
0000
0010
0000
0001
1000
0001
0000
0100
0000
0010
0000
1000
0001
,
1000
0100
0010
0000
0010
0001
0000
0001
1000
0000
1000
0010
0000
0010
0100
0001
,
1000
0100
0010
0000
0010
0001
0000
0001
1000
0000
1000
0010
0000
0010
0100
0001
,
1000
0001
0010
0000
0010
0100
0000
0100
1000
0000
1000
0010
0000
0010
0100
0001
,
1000
0000
0000
0000
0100
0000
0001
0000
0000
0000
0100
0000
1000
0000
0000
0000
0010
0000
0100
0000
0001
0000
1000
0001
1000
0000
0001
0000
1000
0000
0010
0000
,
0100
0000
0001
0000
1000
0000
0100
0000
0010
0000
0100
0000
0010
0000
0001
0000
1000
0000
0010
0000
1000
0000
0001
0010
0001
0000
0010
0000
0100
1000
0100
0000
,
1000
0000
0001
0100
0001
0100
0010
1000
0010
0100
0001
0100
0010
1000
0001
1000
0001
0100
0010
0000
1000
0000
0001
0000
1000
0000
0001
0000
1000
0000
0001
0000
,
0100
0000
0010
0000
1000
0001
1000
0000
0100
0010
0100
1000
0000
1000
0001
0100
,
0010
0000
1000
0000
0001
0010
0001
0000
1000
0010
1000
0001
0000
0001
0010
0100
,
1000
0001
0100
0000
0100
0010
0000
0010
1000
0000
1000
0001
0000
0001
0010
0100
,
1000
0000
0001
0000
0100
0000
0000
0000
0100
0000
0010
0000
0000
0000
0010
0000
1000
0000
0000
0000
1000
0000
0100
0000
0000
0000
0100
0000
0010
0000
0001
1000
,
0001
0000
0010
0000
0001
1000
0001
0000
0100
0010
1000
0001
0000
0001
0010
0100
,
1000
0000
0001
0000
0100
0010
0100
0000
0001
0010
0001
1000
0000
1000
0010
0100
,
0001
0000
0010
0000
0100
0000
0000
0000
0100
0000
1000
0000
0000
0000
1000
0000
0001
0000
0000
0000
0001
0000
1000
0000
0000
0000
1000
0000
0010
0000
0100
0001
,
0100
0000
0000
0000
0010
0000
1000
0000
0001
0000
0010
0001
0010
0000
0000
0000
0100
0000
1000
0000
0001
0000
0100
0000
0010
0000
0100
0000
0001
0000
1000
0000
,
0002
0000
0000
0013
0100
1000
0010
0000
0100
0000
0010
0000
2000
0000
0000
3001
,
0010
0001
0100
0000
0010
0000
1000
0000
0200
0000
0000
0310
0100
1000
0001
0000
,
0101
0000
1010
0000
1000
0001
1000
0100
0020
0000
0031
0000
1000
0000
0010
0000
,
0210
0000
0000
0301
1000
0100
0010
0000
0001
0000
1000
0000
0010
0000
0100
0000
,
0010
0000
1000
0000
0100
0000
0010
0000
0012
0000
0000
1003
0010
0100
0010
1000
,
0100
0010
0001
1000
0001
0100
0001
0100
1000
0100
1000
0100
0001
0100
0001
0010
,
1000
0010
1000
0010
0001
0010
1000
0010
1000
0010
0001
0100
001M
1M00
0000
001M
,
0000
1000
0M10
100M
0000
0M10
0000
100M
0000
0010
1M00
00M1
0000
1M00
0000
00M1
,
0000
1000
0M01
0000
01M0
M001
0000
01M0
0000
0001
M100
00M1
0000
M100
0000
00M1
,
0000
0100
M010
010M
0000
M010
0000
0000
011M
0000
101M
0000
10M0
010M
0000
10M0
,
0000
0100
100M
01M0
0000
100M
0100
10M0
0000
0100
10M0
0M01
0000
10M0
0001
1M00
,
0000
0001
10M0
0001
M100
00M1
0000
M100
0000
0001
01M0
M001
0000
01M0
0001
M010
,
0000
0100
001M
M100
0000
022M
0000
0330
0000
0000
2001
0000
0000
3010
0100
0010
,
1000
0000
0001
0000
0010
0000
0200
0000
0000
1300
0001
0100
0001
0000
0010
0000
,
0100
0000
0012
0000
0000
1003
0010
1000
0001
0000
0010
0000
0100
0000
1000
0001
,
0100
0001
0010
0100
0010
0001
0100
0010
1000
0001
0100
0010
1000
0001
1000
0001
,
1000
0100
0010
0001
1000
0100
0010
0001
1000
0010
0100
0001
1000
0010
0100
0001
,
1000
0000
0000
0010
0000
0000
1000
0000
0000
0010
0000
0000
1000
0000
0000
0010
0000
0000
1000
0000
0000
0010
0000
0000
0100
0000
0000
0001
0000
0000
1000
0000
0100
0000
1000
0000
0100
0000
0000
0000
0010
0000
0000
0000
0001
0000
0000
0000
,
1MM2
0000
0000
0000
0000
0000
0000
0000
0000
0000
0000
0000
0000
0000
0000
0000
0100
0000
0000
0000
0000
0000
0000
0000
0000
0000
0000
0000
0000
0000
0000
0000
0000
0000
0000
0000
0000
0000
0000
0000
0000
0000
0000
0000
0000
0000
0000
0000
0100
0000
0000
0000
0000
0000
0000
0000
0003
0000
0000
0000
1000
0100
1000
0000
,
2001
0000
0000
0000
0000
0000
0000
0000
0000
0000
0000
0000
0000
0000
0000
0000
0000
0000
0000
0000
0000
0000
0000
0000
0000
0000
0000
0000
0000
0000
0000
0000
0000
0000
0000
0000
0000
0000
0000
0000
0000
0000
0000
0000
0000
0000
0000
0000
0100
0000
0000
0000
0000
0000
0000
0000
0000
0000
0000
0000
0000
0000
0000
0000
0000
0000
0000
0000
0000
0000
0000
0000
0000
0000
0000
0000
0000
0000
0000
0000
0000
0000
0000
0000
3001
0000
0000
0000
0000
0000
0100
0000
0000
0000
0000
0000
0010
0000
0000
0000
0000
0000
0000
0000
0000
0000
0000
0000
0000
0000
0000
0000
0000
0000
1010
0000
0000
0000
0000
0000
0000
0000
0000
0000
0000
0000
0000
0000
0000
0000
0000
0000
1000
0000
0000
0000
0000
0000
0001
0000
0000
0000
0000
0000
0010
0000
0000
0000
0000
0000
0000
0000
0100
0000
0000
0000
0000
0000
0000
0000
0010
0000
0000
0000
0000
0000
0000
0000
0100
0000
0000
0000
0000
0000
0000
0000
1000
0000
0000
0000
0000
0000
0000
0000
0001
0000
0000
0000
0000
0000
0000
0000
,
01M0
0000
0010
1000
2010
0000
0000
0001
,
3001
0000
0000
0000
0000
0000
1000
0000
0100
0000
1000
0000
1200
0000
0000
0000
0000
0000
0000
0000
0000
0010
0000
0000
,
0310
0000
0001
1000
2001
0000
0000
0010
,
3010
0000
0000
0000
1000
0000
0001
0000
0012
0000
0003
2100
0000
3010
0100
0001
,
1000
0000
0100
0010
0012
0000
0000
1000
,
1003
0000
0000
0000
0000
0000
0001
0000
1000
0000
0001
0000
0201
0000
0000
0000
0000
0000
0000
0000
0000
0010
0000
0000
,
0310
0000
0000
0000
0000
0000
0000
0000
1000
0000
0000
0000
0001
0000
0000
0000
1002
0000
0000
0000
0000
0000
0000
0000
0000
0000
0000
0000
0013
0100
0010
0000
,
0002
0000
0000
0000
0000
0000
2003
0000
0000
0000
0000
0000
3010
0100
0010
0000
1000
0000
0000
0000
0001
0000
0010
0000
0100
0000
0010
0000
0001
0000
1000
0000
,
0MM2
0000
0000
1003
0100
1000
0001
0000
0100
0000
0010
0000
2000
0000
0000
3010
0100
0010
1000
0000
0001
0000
0010
0000
0200
0000
0000
1300
0001
0100
0001
0000
,
0100
0000
0000
0000
0010
0000
1000
0001
1000
0000
0100
0000
0010
0000
0001
0000
1000
0000
0000
0000
1010
0000
0000
0000
0101
0000
0000
0000
1001
0000
0000
0000
12M0
0000
0000
0000
0000
0000
0000
0000
0000
0000
0000
0000
0310
0000
0000
0000
0001
0000
0000
0000
0010
0000
0000
0000
0100
0000
0000
0000
0000
0000
0000
0000
,
1000
0001
0100
0010
1000
0001
0100
0001
,
0020
0000
0000
0130
1000
0001
0100
0001
1000
0100
0010
0001
1000
0010
1000
0010
,
0001
0010
0001
0010
1000
0010
1000
0100
0001
0100
0001
0100
1000
0100
0001
0100
,
0001
0100
1000
0001
M100
001M
0000
M100
0000
0010
010M
M010
0000
010M
0000
00M1
,
0000
1000
0M01
10M0
0000
0M01
0000
10M0
0000
0001
1M00
0000
M001
0M10
0000
M001
,
0000
0010
0M01
M010
0000
0M01
0000
M010
0000
0001
1M00
00M1
0000
1M00
0000
0000
,
1M10
0000
01M1
0000
M001
01M0
0000
M001
0000
0100
00M1
M100
0000
00M1
0100
M010
,
0000
1000
001M
1M00
0000
001M
1000
0M10
0000
1000
001M
1000
0M01
10M0
0000
0M01
,
0000
1000
00M1
1M00
0000
01M0
1000
010M
0000
0010
0M01
M010
0000
2M02
3003
0000
,
1000
0001
0100
0010
0100
0010
2000
0000
0000
3100
0010
0001
1000
0000
0010
0000
,
1000
0000
0200
0000
0000
0310
0100
1000
0001
0000
0100
0000
0010
0000
2010
0000
,
0000
3001
0010
0100
0010
0000
0001
0000
1000
0000
0010
1000
0010
0100
0001
0100
,
0001
0010
0100
0010
0100
1000
0001
0100
0010
1000
0010
1000
0001
0010
0100
1000
,
0001
0010
0100
1000
0001
0100
0010
1000
0001
0100
0010
1000
0002
0000
0000
0000
,
0000
0000
0000
0000
2003
0000
0000
0000
0000
0000
0000
0000
3001
0100
0010
0000
,
0010
1000
0000
1000
0100
0000
0100
0010
0000
0010
0001
1000
0010
1000
0001
0000
,
0001
0010
0000
0010
0100
0000
0100
1000
0000
1000
0010
1000
0100
0010
0001
0000
,
0001
1000
0000
1000
0010
0000
0010
0100
0000
0100
0001
1000
0001
0000
0100
1000
,
0000
0000
0100
0000
0001
0000
0000
0000
0100
0000
0010
0000
1000
0000
0001
1000
0001
0000
0100
0000
0010
0000
1000
0000
0001
0000
0000
0000
0010
0000
1000
0000
,
0000
0000
0010
0000
0001
0000
0000
0000
0010
0000
0100
0000
1000
0000
0001
0000
0100
0010
0100
0000
0010
0000
1000
0000
0002
0000
0000
0000
0000
0000
0000
0000
,
0000
0000
0000
0000
0000
0000
0000
0000
0000
0000
0000
0000
0000
0000
0000
0000
0000
0000
0000
0000
0000
0000
0000
0000
1003
0100
0010
0100
0010
0001
0010
0100
,
1000
0000
0000
0000
0000
0000
0001
0000
0000
0000
0000
0000
0010
0000
0000
0000
0000
0000
0001
0000
0000
0000
0000
0000
1000
0000
0000
0000
0000
0000
0100
0000
0000
0000
0000
0000
0010
0000
0000
0000
0000
0000
0001
0000
0000
0000
0000
0000
1000
0000
0000
0000
0000
0000
0001
0000
0000
0000
0000
0000
1000
0000
0000
0000
0000
0000
0001
0000
0000
0000
0000
0000
1000
0000
0000
0000
0000
0000
0100
0000
0000
0000
0000
0000
0010
0000
0000
0000
0000
0000
0001
0000
0000
0000
0000
0000
1000
0000
0000
0000
0000
0000
0000
0000
0100
0000
0000
0000
0000
0000
0000
0000
1000
0000
0000
0000
0000
0000
0000
0000
0100
0000
0000
0000
0000
0000
0000
0000
0010
0000
0000
0000
0000
0000
0000
0000
0001
0000
0000
0000
0000
0000
0000
0000
2000
0000
0000
0000
0000
0000
0000
0000
0000
0000
0000
0000
0000
0000
0000
0000
0000
0000
0000
0000
0000
0000
0000
0000
0000
0000
0000
0000
0000
0000
0000
0000
0000
0000
0000
0000
0000
0000
0000
0000
0000
0000
0000
0000
0000
0000
0000
0000
,
3000
0000
0000
0000
;

//---------------dance-single - Gpop----------------
#NOTES:
     dance-single:
     Gpop:
     Hard:
     10:
     0.612,0.643,0.323,0.371,0.649:
0000
0000
0000
0000
,
0000
0000
0000
0000
,
0000
0000
0000
0000
,
1100
0000
0000
0101
0000
0000
0012
0000
0000
0000
2003
0000
0000
0000
3010
0000
,
0110
0100
0100
0100
,
0001
0001
0001
0001
,
1000
1000
1000
1000
,
1100
0000
0000
0011
0000
0000
2001
0000
0000
0000
3020
0000
0000
0000
0130
0000
,
0001
1000
0001
0000
0000
0010
0000
0000
0100
0000
0000
1000
0000
0000
0001
0010
,
0000
0000
0100
0000
0000
1000
0000
0000
0010
0000
0000
0100
0000
0000
0001
0010
,
0000
0000
0001
0000
0000
0100
0000
0000
0010
0000
0000
1000
0000
0000
0100
0010
,
0001
0000
0000
0011
0000
0000
2001
0000
0000
0000
3020
0000
0000
0000
0130
0000
,
0001
0010
0001
0000
0000
1000
0000
0000
0010
0000
0000
0100
0000
0000
0001
1000
,
0000
0000
0100
0000
0000
0010
0000
0000
0100
0000
0000
1000
0000
0000
0001
1000
,
0000
0000
0010
0000
0000
0100
0000
0000
0010
0000
0000
1000
0000
0000
0100
0010
,
0001
0000
0000
0011
0000
0000
2010
0000
0000
0000
3002
0000
0000
0000
0103
0000
,
0010
1000
0001
0000
0000
1000
0000
0000
0100
0010
0000
0100
0000
0000
1000
0001
,
1000
0000
0000
0000
0004
0400
0000
0000
0000
0000
0000
0000
0000
0000
0000
0000
0303
0000
0000
0000
1000
0000
0001
0000
1000
0000
0001
0000
1000
0000
0001
0000
,
1000
0000
0200
0000
0000
0310
0001
1000
,
0010
0000
0000
0210
0000
0000
0302
0000
0000
0000
0000
0000
1003
0000
0000
0000
,
1200
0000
0000
0320
0000
0000
0002
0000
0000
0000
0000
0000
0033
0000
0000
0000
,
0001
1000
0001
0000
0000
0100
0000
0000
0010
0000
0000
1000
0000
0000
0001
0010
,
0100
0000
2000
0000
0000
3010
1000
0100
,
0010
0000
0000
0012
0000
0000
2003
0000
0000
0000
0000
0000
3020
0000
0000
0000
,
0200
0000
0000
0330
,
1001
0000
0000
1000
0000
0000
0012
0000
0000
0000
2003
0000
0000
0000
3010
0000
,
0210
0000
0000
0301
1000
0001
1000
0000
0100
0000
0010
0000
0002
0000
0000
1003
,
0010
1000
0010
0000
0100
0000
0010
0000
2000
0000
0000
3100
0010
0100
0010
0000
,
0001
0000
1000
0000
0010
0100
0010
1000
0001
0000
1000
0000
0100
0000
0010
0000
,
0002
0000
0000
1003
0100
1000
0100
0000
0010
0000
0001
0000
0100
0000
0010
0000
,
0100
0000
0001
0000
1000
0000
0100
0000
0020
0000
0000
0031
1000
0001
1000
0000
,
0010
0000
0100
0000
0001
1000
0001
0000
1000
0100
1000
0000
0100
0010
0100
0000
,
0010
0001
0010
0000
0001
0000
1000
0010
1000
0000
0001
0000
1000
0001
0000
1000
,
0000
0000
0001
1000
0000
0001
0000
0100
0000
0000
0001
0100
0000
0001
0000
0100
,
0000
0000
0001
0000
0100
0010
0000
0100
0000
0000
0010
0100
0000
0010
0000
1000
,
0000
0000
0100
1000
0000
0100
0000
0000
1100
0000
1000
0000
0001
0010
0000
0001
,
0000
0000
0010
0001
0000
0010
0000
0100
0000
0000
0010
0100
0000
0010
0000
0100
,
0000
0000
1000
0000
0001
1000
0000
0001
0000
0000
1000
0001
0000
1000
0000
0010
,
0000
0000
0100
0001
0000
1001
0000
0000
0000
0000
2100
0000
0000
3001
0100
0001
,
0100
0000
0010
0000
1000
0000
0200
0000
0000
0310
0001
0010
0001
0000
1000
0000
,
0010
0000
0201
0000
0000
0310
1000
0010
1000
0000
0001
0000
0010
0000
0110
0000
,
0000
0000
0000
0000
0000
0000
1100
0000
0000
0000
0000
0000
1000
0001
1000
0001
,
0100
0010
0100
0000
0010
1000
0010
0000
1000
0001
1000
0000
0001
0010
0001
0010
,
0200
0000
2300
0000
,
30M2
0100
0000
0103
,
2001
0000
0000
0000
0000
0000
0010
0000
0000
0000
0000
0000
3001
0000
0100
0000
0010
0000
1000
0000
0000
0001
0000
0000
,
1100
0000
1000
1000
0012
0000
0000
0100
,
0103
0000
0010
0010
2010
0000
0000
0001
,
3001
0000
0010
0010
0012
0000
0000
0100
,
0103
0000
0000
0000
0010
0000
0010
0000
1010
0000
0000
1001
0000
0000
0011
0000
,
0110
0000
0100
0100
2100
0000
0000
0001
,
3001
0000
0100
0100
0102
0000
0000
1000
,
1003
0000
0100
0100
0120
0000
0000
0001
,
0031
0000
0000
1000
0000
0000
0010
0000
0100
0000
0000
0001
0000
0000
1000
0000
,
0100
0000
0000
0010
0001
1000
0010
0000
0000
0100
0001
1000
0001
0000
0000
0100
,
0001
1000
0200
0000
0000
0310
0001
0010
0M12
0000
0000
1003
0010
1000
0010
0000
,
0100
0001
0010
0100
0010
0001
0100
0010
,
2000
0000
0000
3001
0100
0001
0100
0000
0010
0000
1000
0000
0001
0010
0001
0000
,
1000
0010
1000
0000
0001
0100
0001
0000
1000
0100
1000
0000
0100
0000
0010
0001
,
0010
0000
0001
1000
0010
0100
0000
0010
0000
0000
0100
0010
0000
0100
0000
0001
,
0000
0000
0100
0001
0000
0100
0000
0001
0000
0000
0100
0000
0001
1000
0000
0001
,
0000
0000
1000
0001
0000
1000
0000
0100
0000
0000
1000
0100
0000
1000
0000
0000
,
1100
0000
0100
0000
0010
0001
0000
0010
0000
0000
0001
0010
0000
0001
0000
1000
,
0000
0000
0001
1000
0000
0001
0000
1000
0000
0000
0001
0000
1000
0010
0000
1000
,
0000
0000
0010
1000
0000
0010
0000
0100
0000
0000
0001
1000
0000
1001
0000
0000
,
0000
0000
0000
0000
0000
0000
1200
0000
0000
0310
0001
0010
0001
0000
1000
0000
,
0010
0000
0200
0000
0000
0310
1000
0010
1000
0000
0001
0000
0010
0000
0002
0000
,
0000
1003
0010
1000
0010
0000
0100
0000
0001
0000
0011
0000
0000
0000
0000
0000
,
0000
0000
1010
0000
0000
0000
0000
0000
1000
0001
1000
0001
0010
0100
1000
0000
,
0100
0010
0001
0000
1000
0010
0100
0000
0001
0100
0010
1000
0002
0000
0000
0000
,
0000
0000
0000
0000
0023
0000
0000
0000
0000
0000
0000
0000
0130
1000
0001
0000
,
0000
0100
0000
0000
0010
0000
0000
0100
0000
0000
0001
0010
0000
0000
0100
0000
,
0000
0010
0000
0000
0100
0000
0000
1000
0000
0000
0001
0100
0000
0000
0010
0000
,
0000
1000
0000
0000
0001
0000
0000
0010
0000
0000
0001
0100
0010
0000
0000
1010
,
0000
0000
0012
0000
0000
0000
2003
0000
0000
0000
3100
0000
0110
0000
0000
0011
,
0000
2100
0000
3002
0000
0103
0220
0000
,
0000
0000
0000
0000
0000
0000
0000
0000
0330
0000
0000
0000
1000
0100
0010
0100
,
0010
0000
0000
0001
0000
0000
0100
0000
0000
0010
0000
0000
1000
0000
0000
0001
0000
0000
0100
0000
0000
0010
0000
0000
1000
0000
0001
0000
1000
0000
0001
0000
1000
0000
0001
0000
2000
0000
0000
0000
0000
0000
0000
0000
0000
0000
0000
0000
,
3000
0000
0000
0000
;

//---------------dance-single - Gpop----------------
#NOTES:
     dance-single:
     Gpop:
     Medium:
     7:
     0.402,0.429,0.137,0.309,0.234:
0000
0000
0000
0000
,
0000
0000
0000
0000
,
0000
0000
0000
0000
,
1000
0000
0000
1000
0000
0000
0001
0000
0000
0000
0100
0000
0000
0000
0010
0000
,
1010
1000
1000
1000
,
0001
0001
0001
0001
,
0010
0010
0010
0010
,
0100
0000
0000
0100
0000
0000
0100
0000
0000
0000
1000
0000
0000
0000
0001
0000
,
1000
0000
0100
0000
0000
0100
0000
0000
0010
0000
0000
0010
0000
0000
0001
0000
,
0000
0000
1000
0000
0000
1000
0000
0000
0010
0000
0000
0010
0000
0000
0100
0000
,
0000
0000
0010
0000
0000
0010
0000
0000
1000
0000
0000
1000
0000
0000
0001
0000
,
0010
0000
0000
0010
0000
0000
0010
0000
0000
0000
0100
0000
0000
0000
1000
0000
,
0001
0000
0100
0000
0000
0100
0000
0000
0001
0000
0000
0001
0000
0000
0010
0000
,
0000
0000
0100
0000
0000
0100
0000
0000
1000
0000
0000
1000
0000
0000
0001
0000
,
0000
0000
1000
0000
0000
1000
0000
0000
0001
0000
0000
0001
0000
0000
0100
0000
,
0010
0000
0000
0010
0000
0000
0010
0000
0000
0000
1000
0000
0000
0000
0001
0000
,
2002
0000
0000
0000
,
0000
0000
0000
3003
,
0110
0000
2000
0000
0000
3001
0100
0010
,
1000
0000
0000
1000
0000
0000
0002
0000
0000
0000
0000
0000
0013
0000
0000
0000
,
0100
0000
0000
0100
0000
0000
2000
0000
0000
0000
0000
0000
0000
0000
0000
0000
,
3001
0100
0010
1000
,
0101
0000
0002
0000
0000
0013
0100
1000
,
0010
0000
0000
0010
0000
0000
0200
0000
0000
0000
0000
0000
0301
0000
0000
0000
,
2000
0000
0000
0000
,
3100
0000
0000
0100
0000
0000
0010
0000
0000
0000
0001
0000
0000
0000
1000
0000
,
1020
0000
0030
1000
0001
1000
0200
0000
,
0300
0010
0001
0010
0200
0000
0300
1000
,
0001
1000
0020
0000
0030
0100
0001
0100
,
0020
0000
0030
1000
0001
0010
0100
0010
,
0100
1000
0100
1000
0002
0000
0003
0100
,
0010
1000
0001
0000
0001
0000
0001
0000
,
1000
0000
0000
0000
0001
0000
1000
0000
0000
0000
0001
0000
1000
0000
0000
1000
,
0000
0000
1000
0000
0000
1000
0000
1000
0000
0000
1000
0000
0000
1000
0000
1000
,
0000
0000
1000
0000
0001
0000
0000
0001
0000
0000
0001
0000
0000
0001
0000
0001
,
0000
0000
0001
0000
0000
0001
0000
0000
0001
0000
1000
0000
0010
0000
0000
0010
,
0000
0000
0010
0000
0000
0010
0000
0010
0000
0000
0010
0000
0000
0010
0000
0010
,
0000
0000
0010
0000
0100
0000
0000
0100
0000
0000
0100
0000
0000
0100
0000
0100
,
0000
0000
0100
0000
0000
0100
0000
0000
0000
0000
2001
0000
0000
0000
3000
0000
,
0100
0010
0001
0200
0000
0300
0010
1000
,
0010
0200
0000
0300
0001
0010
0100
1100
,
0000
0000
0000
0101
0000
0000
1000
0001
,
1001
1000
0010
0100
,
0102
0000
2003
0000
,
3200
0010
0000
0310
,
0012
0000
1000
0000
1003
0000
0010
0100
,
1001
0000
1000
1000
0020
0000
0000
0000
,
0130
0000
0001
0001
2000
0000
0000
0000
,
3100
0000
0010
0010
0200
0000
0000
0000
,
1300
0000
0000
0000
0001
0000
0001
0000
0010
0000
0000
0010
0000
0000
0010
0000
,
0100
0000
0010
0010
0002
0000
0000
0000
,
1003
0000
0010
0010
0200
0000
0000
0000
,
0301
0000
1000
1000
0020
0000
0000
0000
,
1030
0000
0000
1000
0000
0000
1000
0000
0001
0000
0000
0001
0000
0000
0001
0000
,
0020
0000
0030
0200
0000
0300
2000
0000
,
3000
0000
0001
0000
0000
0100
0000
0000
1002
0000
0000
0000
0003
0000
1000
0000
,
0100
1000
0010
0100
0010
1000
0001
1000
,
0200
0000
0300
0010
0001
1000
0010
0000
,
0010
0000
0010
0000
0100
0000
0001
1000
,
0000
0000
0001
0000
0010
0000
0000
0010
0000
0000
0010
0000
0000
0010
0000
0010
,
0000
0000
0010
0000
0000
0010
0000
0010
0000
0000
0010
0000
0100
0000
0000
0100
,
0000
0000
0100
0000
0000
0100
0000
0100
0000
0000
0100
0000
0000
0100
0000
0000
,
0100
0000
1000
0000
0001
0000
0000
0001
0000
0000
0001
0000
0000
0001
0000
0001
,
0000
0000
0001
0000
0000
0001
0000
0001
0000
0000
0001
0000
1000
0000
0000
1000
,
0000
0000
1000
0000
0000
1000
0000
1000
0000
0000
1000
0000
0000
1001
0000
0000
,
0000
0000
0000
1200
0000
0300
0010
0001
,
0010
0200
0000
0300
1000
0001
1000
0020
,
0000
0030
0100
0001
0010
0110
0000
0000
,
0000
1001
0000
0000
0000
0000
1010
0010
,
0100
0010
1000
0001
1000
0001
0020
0000
,
0000
0000
0230
0000
0000
0000
0300
1000
,
0000
1000
0000
0000
0001
0000
0000
0001
0000
0000
0100
0000
0000
0000
0010
0000
,
0000
0010
0000
0000
1000
0000
0000
1000
0000
0000
0001
0000
0000
0000
0010
0000
,
0000
0010
0000
0000
0100
0000
0000
0100
0000
0000
1000
0000
0001
0000
0000
0001
,
0000
0000
0002
0000
0000
0000
0203
0000
0000
0000
0310
0000
1000
0000
0000
1000
,
0000
2000
0000
3200
0000
0310
0022
0000
,
0000
0000
0030
4000
,
0000
0000
3003
2002
,
3003
0000
0000
0000
;

//---------------dance-single - Gpop----------------
#NOTES:
     dance-single:
     Gpop:
     Easy:
     4:
     0.262,0.295,0.247,0.158,0.010:
0000
0000
0000
0000
,
0000
0000
0000
0000
,
0000
0000
0000
0000
,
0000
0000
0000
0000
,
1001
0001
0001
0001
,
0100
0100
0100
0100
,
0010
0010
0010
0010
,
1010
0000
0000
0000
,
1001
0001
0010
0100
,
1000
0010
1000
0100
,
0010
0001
0100
0010
,
1010
0000
0000
0101
0000
0001
0000
0000
,
1000
0100
0010
0100
,
1000
0001
0100
0010
,
1000
0001
1000
0100
,
0110
0000
0000
0011
0000
0001
0000
0000
,
0200
0000
0000
0000
,
0000
0000
0300
0000
,
1001
1000
0100
0010
,
0001
1000
0010
1000
,
0001
0010
0100
1000
,
0001
1000
0001
0100
,
0010
1000
0010
0100
,
0001
0010
0100
0010
,
0001
1000
0100
0010
,
0001
0100
0010
1000
,
1001
0000
0000
0001
0000
0000
0100
0000
,
0000
0010
0000
0000
1000
0000
0000
0100
,
0000
0000
0010
0000
0000
0010
0000
0000
,
0011
0000
0000
0001
0000
0000
0100
0000
,
0000
0010
0000
0000
1010
0000
0000
1000
,
0000
0001
0001
0001
,
1000
0000
0000
1000
0000
0000
1010
0000
,
0000
0010
0000
0000
0000
0100
0000
0000
,
0000
0100
0001
0000
0000
0001
0000
0000
,
0000
0001
0000
0000
0001
0000
0010
0000
,
0000
0010
0000
0000
0000
0010
0000
0000
,
0000
0010
0100
0000
0000
0100
0000
0000
,
0000
0000
0000
0000
0000
0100
0000
0000
0000
0000
1001
0000
0000
0000
0000
0000
,
1000
0000
0000
0001
0000
0000
0001
0000
,
0000
0100
0000
0000
0010
0000
0000
1010
,
0000
0000
0000
0011
0000
0000
0000
0000
,
1001
0001
0100
0010
,
2000
0000
3002
0000
,
0023
0000
0000
0030
,
2100
0000
3001
0000
,
0101
0000
2002
3000
,
0103
0000
2020
0030
,
3100
0000
0022
0030
,
1003
0000
1100
0000
,
1001
0000
0022
0003
,
0130
0000
2200
0300
,
3010
0000
0220
0300
,
1030
0000
0001
0000
,
0011
0000
0000
0001
0000
0000
1000
0000
,
0000
0000
0010
0000
0000
0010
0000
0000
1001
0000
0000
0000
0000
0000
1000
0000
,
0000
0000
0100
0000
0000
0010
0000
0000
,
0011
0000
0000
0001
0000
0000
1000
0000
,
1000
0000
1000
0000
0001
0000
0000
0001
,
0000
0000
0100
0000
0000
0100
0000
0000
,
0000
0100
0000
0000
0000
0100
0010
0000
,
0000
0010
0000
0000
0000
0010
0000
0000
,
0010
0000
1000
0000
0000
1000
0000
0000
,
0000
1000
0000
0000
0000
1000
0001
0000
,
0000
0000
0001
0000
0000
0000
0000
0000
0000
0000
0000
0000
0000
0001
0000
0000
,
0000
0000
0000
0101
0000
0000
0001
0000
,
0000
0010
0000
0000
0010
0000
0000
0110
,
0000
0000
0100
0000
0000
1100
0000
0000
,
0000
0011
0000
0000
0000
0000
1010
0000
,
1000
0001
0100
0020
,
0000
2030
0000
3001
,
0010
0100
1000
0010
,
0100
0010
1000
0001
,
0010
0100
1000
0001
,
0000
0001
0000
1000
0000
0000
0010
0000
,
0000
0010
0000
0100
0000
0000
2002
0000
,
0000
0000
0000
3003
,
0000
0000
0000
0220
,
0330
0000
0000
0000
;

//---------------dance-single - Gpop----------------
#NOTES:
     dance-single:
     Gpop:
     Beginner:
     1:
     0.079,0.107,0.082,0.000,0.000:
0000
0000
0000
0000
,
0000
0000
0000
0000
,
0000
0000
0000
0000
,
0000
0000
0000
0000
,
0000
0000
0000
0000
,
0000
0000
0000
0000
,
0000
0000
0000
0000
,
0000
0000
0000
0000
,
1000
0000
0000
0000
,
0001
0000
0000
0000
,
0010
0000
0000
0000
,
0100
0000
0000
0000
,
0100
0000
0000
0000
,
1000
0000
0000
0000
,
0001
0000
0000
0000
,
0100
0000
0000
0000
,
0110
0000
0000
0000
,
0000
0000
0000
0000
,
1000
0000
0000
0000
,
1000
0000
0000
0000
,
0001
0000
0000
0000
,
0000
0000
0000
0000
,
0010
0000
0000
0000
,
0100
0000
0000
0000
,
1000
0000
0000
0000
,
0000
0000
0000
0000
,
0001
0000
0000
0001
,
0000
0000
0001
0000
,
0000
0001
0000
0000
,
1000
0000
0000
1000
,
0000
0000
1000
0000
,
0000
1000
0000
0000
,
1000
0000
0000
0010
,
0000
0000
0000
0000
,
0000
0100
0000
0000
,
0000
0000
0000
0001
,
0000
0000
0000
0000
,
0000
0010
0000
0000
,
0000
0000
0000
0000
,
0001
0000
0000
1000
,
0000
0000
0010
0000
,
0000
0000
0000
0000
,
1000
0000
1000
0000
,
0100
0000
0000
0000
,
0110
0000
0000
0000
,
1001
0000
0000
0000
,
0000
0000
1001
0000
,
0000
0000
0110
0000
,
0000
0000
1001
0000
,
0000
0000
0110
0000
,
0000
0000
0110
0000
,
0000
0000
1001
0000
,
0000
0000
0110
0000
,
0100
0000
0100
0000
,
0010
0000
0000
0000
,
0000
0000
0001
0000
,
0000
0001
0000
0000
,
0001
0000
0000
1000
,
0000
0000
1000
0000
,
0000
0010
0000
0000
,
0000
0000
0000
0100
,
0000
0000
0000
0000
,
0000
0001
0000
0000
,
0000
0000
0000
1000
,
0000
0000
0000
0000
,
0000
0000
0000
0001
,
0000
0000
0100
0000
,
0000
0010
0000
0000
,
0000
0000
0000
1000
,
0000
1000
0000
0001
,
0000
0001
0000
0100
,
0000
0000
0000
0010
,
0000
0000
0000
1000
,
0000
0000
0000
0100
,
0000
0000
0000
0010
,
0000
0000
0000
0110
,
0000
0000
0000
0000
,
0000
0000
0000
1001
;
